osu file format v5

[General]
AudioFilename: 101 Theme.mp3
AudioLeadIn: 0
PreviewTime: -1
Countdown: 0
SampleSet: Normal
EditorBookmarks: 26624,41823,54779,57023,61613,67632,73548

[Metadata]
Title:Devil Summoner Theme
Artist:Shoji Meguro
Creator:jorelle
Version:Easy

[Difficulty]
HPDrainRate:1
CircleSize:3
OverallDifficulty:3
SliderMultiplier:1.5
SliderTickRate:1

[Events]
//Background and Video events
0,0,"ds7_1280x1024.jpg"
//Break Periods
2,14481,19369
2,43452,51604
//Storyboard Layer 0 (Background)
//Storyboard Layer 1 (Failing)
//Storyboard Layer 2 (Passing)
//Storyboard Layer 3 (Foreground)
//Storyboard Sound Samples
//Background Colour Transformations
3,100,163,162,255

[TimingPoints]
0,612.05753340814,4,1,0,100

[HitObjects]
160,128,1225,1,0
352,128,2449,1,0
192,256,3673,1,0
384,128,4489,5,0
384,256,5713,1,0
192,160,6937,2,0,B|192:224,1,50
288,64,7753,5,0
192,128,8976,1,0
320,128,10098,2,0,L|320:192,1,50
192,128,11017,6,0,L|352:128,1,150
256,192,12241,12,4,14281
192,96,20809,5,0
320,160,22238,1,0
96,64,23972,6,0,L|416:320,1,400
128,64,27134,1,0
128,128,27644,1,0
128,192,28256,1,0
160,224,28664,1,0
192,256,29684,1,0
256,192,30602,1,0
320,160,32235,5,0
256,128,32847,1,0
192,96,33459,1,0
352,32,35397,1,0
352,96,36009,1,0
352,160,36621,1,0
160,64,38661,5,0
224,128,39375,1,0
288,192,39987,1,0
333,128,41925,1,0
333,128,42640,2,0,L|160:128,1,150
256,192,53044,12,0,55085
192,128,55595,1,0
192,224,56207,2,0,L|256:224,3,50
160,32,58349,5,0
160,96,59165,1,0
160,160,60797,1,0
160,224,61205,1,0
352,160,62123,5,0
320,224,62327,1,0
288,288,63245,1,0
256,64,64062,5,0
256,128,64674,1,0
256,128,66408,2,0,L|352:128,1,75
224,128,67020,2,0,L|96:128,1,125
224,160,68142,5,0
160,96,68754,2,0,L|160:160,1,43.3333333333333
160,192,69366,2,0,L|160:320,1,125
416,192,71304,1,0
96,64,72222,2,0,L|384:96,1,275
256,192,74160,1,0
128,96,74671,5,0
320,96,75487,1,0
192,192,75793,2,0,B|352:192,1,150
256,192,77119,12,0,81301
