osu file format v5

[General]
AudioFilename: 16 Darkness.mp3
AudioLeadIn: 0
PreviewTime: -1
Countdown: 2
SampleSet: Normal
StackLeniency: 0.5
Mode: 0
LetterboxInBreaks: 0
EditorBookmarks: 34852,105351

[Metadata]
Title:Darkness
Artist:Shoji Meguro
Creator:Atmey
Version:Normal
Source:Persona 3
Tags:

[Difficulty]
HPDrainRate:4
CircleSize:4
OverallDifficulty:6
SliderMultiplier:1.2
SliderTickRate:2

[Events]
//Background and Video events
0,0,"persona3fes_03_1280_1024.jpg"
//Break Periods
2,76393,79091
2,106788,107907
2,109946,117381
2,127709,130012
2,140528,144016
//Storyboard Layer 0 (Background)
//Storyboard Layer 1 (Failing)
//Storyboard Layer 2 (Passing)
//Storyboard Layer 3 (Foreground)
//Storyboard Sound Samples
//Background Colour Transformations
3,100,163,162,255

[TimingPoints]
360,1000,4,1,0,49,1
8360,983.606557377049,4,1,0,100,1
16228,909.090909090909,4,1,0,100,1
19864,882.352941176471,4,1,0,100,1
23393,857.142857142857,4,1,0,100,1
26821,810.810810810811,4,1,0,100,1
30010,394.736842105263,4,1,0,100,1

[HitObjects]
256,192,8360,5,4
256,192,12294,5,4
256,192,16228,5,4
256,192,19864,5,0
192,192,20746,1,0
128,192,21628,1,0
128,128,22511,1,0
192,128,23393,1,0
256,128,24250,1,0
320,128,25107,1,0
384,128,25964,1,0
384,192,26821,1,0
320,192,27631,1,0
256,192,28442,1,0
256,256,29253,1,4
128,112,30010,6,0,B|368:176,1,240
368,192,33168,6,0,B|128:240,1,240
352,160,36325,5,8
208,160,36917,1,8
176,128,39581,5,8
288,224,40175,1,8
160,224,42641,5,0
272,144,43233,1,0
128,144,43825,2,0,B|368:224,2,240
80,224,45799,5,0
208,288,46391,1,0
352,320,46983,6,0,B|448:96,2,240
320,224,48957,5,0
176,224,49549,1,0
352,128,50733,5,8
352,128,50931,1,8
352,128,51128,1,8
352,128,51325,2,8,B|224:128,1,120
128,128,52115,5,0
128,272,52707,1,0
256,208,53299,2,0,B|256:48|32:48|32:208,1,360
224,192,55273,5,0
176,192,55470,1,0
160,96,55865,1,0
208,96,56062,1,0
304,96,56457,1,0
352,96,56654,1,0
352,192,57049,6,2,B|352:256,5,60
288,160,58431,5,0
288,160,58628,1,0
192,160,59023,1,0
192,160,59220,1,0
192,256,59614,2,2,B|256:256,3,60
224,304,60404,2,2,B|288:304,3,60
384,208,61588,5,0
384,208,61786,1,0
288,208,62181,1,0
288,208,62378,1,0
224,128,62773,5,0
224,128,62970,1,0
224,128,63365,1,2
224,128,63562,1,2
224,128,63760,1,2
224,128,63957,1,2
224,128,64154,1,2
224,128,64352,1,2
224,128,64549,1,2
224,176,64746,5,8
224,176,64944,1,8
304,224,65338,1,8
304,224,65536,1,8
352,144,65931,5,0
352,144,66128,2,0,B|224:48|128:144,1,240
80,176,67181,2,0,B|112:240,1,60,0|0
224,256,67904,5,8
224,256,68102,1,8
320,256,68496,1,8
320,256,68694,1,8
416,256,69088,2,0,B|416:192,2,60
352,176,69878,2,0,B|288:176,4,60
288,96,71062,5,8
288,96,71260,1,8
192,96,71654,1,8
192,96,71852,1,8
192,192,72246,2,0,B|256:192,2,60
96,192,73036,2,0,B|96:128,4,60,0|0|0|0|0
96,288,74220,6,8,B|96:224,1,60
176,288,74812,2,8,B|176:224,1,60
256,176,75404,2,0,B|128:176,1,120
96,240,76095,2,4,B|96:288,1,30
112,160,80141,5,0
160,160,80338,1,0
208,160,80536,2,0,B|416:160,2,180
144,224,82115,1,4
224,272,82509,1,0
304,320,82904,1,4
384,256,83299,5,0
384,256,83496,1,0
384,256,83694,2,0,B|384:96|192:96|96:96|64:272,1,480
64,176,85667,1,0
64,80,86062,1,4
112,80,86260,5,0
112,128,86457,1,0
112,176,86654,1,0
112,224,86852,2,0,B|208:128,1,120
224,96,87444,2,0,B|224:256|448:256,1,300
432,160,88825,1,0
432,64,89220,1,4
336,64,89615,5,0
288,64,89812,1,0
288,112,90010,2,0,B|32:112|32:112,1,240
48,304,91588,5,0
144,304,91983,1,0
240,304,92378,1,4
256,192,92640,12,4,93957
256,192,94761,5,4
256,192,95156,1,4
256,192,95536,1,0
352,192,95931,5,0
352,144,96128,1,0
352,96,96325,2,0,B|224:96,1,120
208,48,96917,2,0,B|112:208,1,180
208,256,97971,5,0
304,256,98366,1,0
400,256,98760,1,4
320,96,99483,2,0,B|416:288|288:288,1,240
288,240,100470,1,0
288,192,100667,1,0
288,144,100864,2,0,B|80:144,1,180
192,192,101852,5,8
256,192,102641,12,0,105010
288,160,105799,5,0
288,160,105996,1,0
224,224,106391,5,0
224,224,106588,1,0
288,160,108957,5,0
288,160,109154,1,0
224,224,109549,5,0
224,224,109746,1,0
256,192,118431,5,0
256,192,118628,1,0
256,192,119023,5,0
256,192,119220,1,0
240,288,119615,6,0,B|112:288,1,120
64,288,120207,1,8
64,240,120404,1,8
96,224,120616,1,8
96,224,120814,1,8
96,224,120996,1,8
96,224,121194,2,12,B|160:224,1,60
208,224,121588,6,0,B|272:224,1,60
272,128,122181,2,0,B|208:128,1,60
128,80,122773,2,0,B|384:368,1,360
384,304,124154,2,4,B|384:224,1,60
304,192,124746,6,0,B|304:128,1,60
400,144,125338,2,0,B|400:208,1,60
384,304,125931,2,0,B|96:48,1,360
160,64,127312,2,4,B|240:64,1,60
256,192,131062,5,0
256,192,131260,1,0
160,192,131654,1,0
160,144,131852,1,0
96,64,132246,1,0
96,112,132444,1,0
96,208,132838,2,2,B|96:272,6,60
160,208,134287,6,0,B|224:208,1,60
304,208,134811,2,0,B|308:144,1,60
384,96,135404,2,2,B|448:96,9,60
112,64,138562,6,4,B|112:352|496:320|432:128,1,540
256,176,145076,5,8
256,176,145273,1,8
208,208,145470,2,0,B|208:144,1,60
176,176,145866,1,8
176,176,146061,1,8
144,208,146259,2,4,B|144:144,1,60
208,64,146918,6,0,B|272:64,1,60
352,96,147509,2,0,B|416:96,1,60
320,176,148300,5,8
320,176,148497,1,8
288,160,148694,2,0,B|288:224,1,60
224,176,149089,1,8
224,176,149287,1,8
192,160,149484,2,4,B|192:224,1,60
256,192,150207,12,4,154746
