osu file format v9

[General]
AudioFilename: 30 - Bloody Destiny.mp3
AudioLeadIn: 1996
PreviewTime: 7819
Countdown: 0
SampleSet: Normal
StackLeniency: 0.7
Mode: 0
LetterboxInBreaks: 1

[Editor]
DistanceSpacing: 1
BeatDivisor: 4
GridSize: 4

[Metadata]
Title:Bloody Destiny
Artist:Shoji Meguro
Creator:Shulin
Version:Normal
Source:Shin Megami Tensei: Persona
Tags:yumi kawamura psp kenichi tsuchiya ryota kozuka revelations Dusty

[Difficulty]
HPDrainRate:5
CircleSize:3
OverallDifficulty:5
ApproachRate:5
SliderMultiplier:2.2
SliderTickRate:4

[Events]
//Background and Video events
0,0,"shin-megami-tensei-persona-wallp-1.jpg"
//Break Periods
2,50961,54613
//Storyboard Layer 0 (Background)
//Storyboard Layer 1 (Fail)
//Storyboard Layer 2 (Pass)
//Storyboard Layer 3 (Foreground)
//Storyboard Sound Samples
//Background Colour Transformations
3,100,0,0,0

[TimingPoints]
235,631.578947368421,4,1,0,60,1,0
29603,-117.647058823529,4,1,1,60,0,0
39235,-117.647058823529,4,1,1,40,0,0
40182,-117.647058823529,4,1,1,60,0,0
49813,-100,4,1,0,60,0,0
85182,-117.647058823529,4,1,1,60,0,0
94813,-117.647058823529,4,1,1,40,0,0
95761,-117.647058823529,4,1,1,60,0,0

[Colours]
Combo1 : 0,128,255
Combo2 : 128,128,255
Combo3 : 128,0,255

[HitObjects]
151,36,235,2,0,B|255:100|383:28,2,220,4|8|0
201,145,1813,2,0,B|353:145,1,110,0|8
151,348,2761,6,0,B|255:284|383:356,2,220,4|8|0
201,239,4340,2,0,B|353:239,1,110,0|8
453,42,5287,6,0,B|492:122|355:188|315:104,1,220,4|8
256,21,6234,1,0
192,112,6550,2,0,B|156:188|19:122|59:42,1,220,0|8
59,342,7813,6,0,B|19:261|156:195|196:279,1,220,4|8
256,363,8761,1,0
319,271,9077,2,0,B|355:195|492:261|453:342,1,220,0|8
473,118,10340,5,4
429,16,10656,1,0
342,83,10971,2,0,B|258:43|177:84,2,165,8|0|0
342,193,12234,2,0,B|171:193,2,165,8|8|0
342,303,13498,2,0,B|258:343|177:302,2,165,8|0|0
429,368,14761,1,8
466,264,15077,1,0
496,158,15392,5,4
395,105,15708,1,0
395,105,16024,2,0,B|359:31|247:3|156:28|116:124,3,330,8|0|4|0
180,203,19182,1,0
257,125,19498,1,0
332,203,19813,1,8
155,342,20445,6,0,B|36:342,2,110,4|0|8
256,343,21392,1,0
355,342,21708,2,0,B|474:342,2,110,0|0|8
168,225,22971,6,0,B|169:151|129:98,1,110,4|0
32,123,23603,2,0,B|32:205|76:282,2,165,8|0|0
94,32,24866,1,8
204,20,25182,1,0
308,20,25498,5,4
417,32,25813,1,0
480,123,26129,2,0,B|480:205|436:282,2,165,8|0|0
369,119,27392,2,0,B|343:151|344:225,1,110,8|0
256,192,28024,12,4,29919
336,264,30550,6,0,B|344:352|256:400|168:352|176:264,2,280.499988296629,4|4|8
107,376,33077,2,0,B|108:268|26:199,1,186.999992197752,4|8
110,150,34024,2,0,B|187:225|187:326,1,186.999992197752,4|0
255,374,34971,1,8
328,315,35287,1,0
400,255,35603,6,0,B|448:220|467:169,1,93.4999960988762,4|0
495,97,36235,1,8
495,97,36550,2,0,B|411:36|300:88|300:212,1,280.499988296629,0|8
17,287,38129,6,0,B|101:348|212:296|212:172,1,280.499988296629,4|0
258,97,39392,1,4
258,97,40024,1,8
258,97,40656,6,0,B|357:98|425:189,1,186.999992197752,4|8
368,259,41603,2,0,B|306:176|207:175,1,186.999992197752,0|0
165,258,42550,2,0,B|264:259|332:350,1,186.999992197752,8|4
494,260,43813,5,8
494,260,44129,2,0,B|494:58,1,186.999992197752,4|0
407,36,45077,2,0,B|384:111|312:110,1,93.4999960988762,8|0
273,160,45708,2,0,B|158:248|64:101|177:29,2,280.499988296629,4|0|8
256,192,48235,12,4,50761
361,349,55813,6,0,B|257:285|129:357,2,220,4|8|0
311,240,57392,2,0,B|159:240,1,110,0|8
361,37,58340,6,0,B|257:101|129:29,2,220,4|8|0
311,146,59919,2,0,B|159:146,1,110,0|8
59,343,60866,6,0,B|20:263|157:197|197:281,1,220,4|8
256,364,61813,1,0
320,273,62129,2,0,B|356:197|493:263|453:343,1,220,0|8
453,43,63392,6,0,B|493:124|356:190|316:106,1,220,4|8
256,22,64340,1,0
193,114,64656,2,0,B|157:190|20:124|59:43,1,220,0|8
39,267,65919,5,4
83,369,66235,1,0
175,302,66550,2,0,B|259:342|340:301,2,165,8|0|0
175,192,67813,2,0,B|346:192,2,165,8|8|0
175,82,69077,2,0,B|259:42|340:83,2,165,8|0|0
83,17,70340,1,8
46,121,70656,1,0
16,227,70971,5,4
117,280,71287,1,0
117,280,71603,2,0,B|153:354|265:382|356:357|396:261,3,330,8|0|4|0
332,182,74761,1,0
255,260,75077,1,0
180,182,75392,1,8
357,43,76024,6,0,B|476:43,2,110,4|0|8
256,42,76971,1,0
157,43,77287,2,0,B|38:43,2,110,0|0|8
344,160,78550,6,0,B|343:234|383:287,1,110,4|0
480,262,79182,2,0,B|480:180|436:103,2,165,8|0|0
418,352,80445,1,8
308,364,80761,1,0
204,364,81077,5,4
95,352,81392,1,0
32,262,81708,2,0,B|32:180|76:103,2,165,8|0|0
143,266,82971,2,0,B|169:234|168:160,1,110,8|0
256,192,83603,12,4,85498
176,120,86129,6,0,B|168:32|256:-16|344:32|336:120,2,280.499988296629,4|4|8
405,9,88656,2,0,B|404:117|486:186,1,186.999992197752,4|8
402,235,89603,2,0,B|325:160|325:59,1,186.999992197752,4|0
257,11,90550,1,8
184,70,90866,1,0
112,130,91182,6,0,B|64:165|45:216,1,93.4999960988762,4|0
17,288,91813,1,8
17,288,92129,2,0,B|101:349|212:297|212:173,1,280.499988296629,0|8
495,98,93708,6,0,B|411:37|300:89|300:213,1,280.499988296629,4|0
254,288,94971,1,4
254,288,95603,1,8
254,288,96235,6,0,B|155:287|87:196,1,186.999992197752,4|8
144,126,97182,2,0,B|205:208|304:209,1,186.999992197752,4|0
347,127,98129,2,0,B|248:126|180:35,1,186.999992197752,8|4
18,125,99392,5,8
18,125,99708,2,0,B|18:327,1,186.999992197752
105,349,100656,2,0,B|128:274|200:275,1,93.4999960988762,8|0
239,225,101287,2,0,B|354:137|448:284|335:356,2,280.499988296629,4|0|8
256,192,103813,12,4,106340
