osu file format v9

[General]
AudioFilename: 30 - Bloody Destiny.mp3
AudioLeadIn: 1996
PreviewTime: 7819
Countdown: 0
SampleSet: Normal
StackLeniency: 0.7
Mode: 0
LetterboxInBreaks: 1

[Editor]
DistanceSpacing: 1.1
BeatDivisor: 4
GridSize: 4

[Metadata]
Title:Bloody Destiny
Artist:Shoji Meguro
Creator:Shulin
Version:Easy
Source:Shin Megami Tensei: Persona
Tags:yumi kawamura psp kenichi tsuchiya ryota kozuka revelations Dusty

[Difficulty]
HPDrainRate:2
CircleSize:3
OverallDifficulty:2
ApproachRate:3
SliderMultiplier:1.8
SliderTickRate:2

[Events]
//Background and Video events
0,0,"shin-megami-tensei-persona-wallp-1.jpg"
//Break Periods
2,50961,54373
//Storyboard Layer 0 (Background)
//Storyboard Layer 1 (Fail)
//Storyboard Layer 2 (Pass)
//Storyboard Layer 3 (Foreground)
//Storyboard Sound Samples
//Background Colour Transformations
3,100,0,0,0

[TimingPoints]
235,631.578947368421,4,1,0,60,1,0
29603,-117.647058823529,4,1,1,60,0,0
39235,-117.647058823529,4,1,1,40,0,0
40182,-117.647058823529,4,1,1,60,0,0
49813,-100,4,1,0,60,0,0
85182,-117.647058823529,4,1,1,60,0,0
94813,-117.647058823529,4,1,1,40,0,0
95761,-117.647058823529,4,1,1,60,0,0

[Colours]
Combo1 : 0,128,255
Combo2 : 128,128,255
Combo3 : 128,0,255

[HitObjects]
166,362,235,2,0,B|382:362,2,180,4|8|0
80,362,1813,2,0,B|96:306|64:266,1,90,0|8
47,96,2761,6,0,B|89:236|256:288|449:231|469:74,1,540,0|8
346,22,5287,6,0,B|130:22,2,180,4|8|0
432,22,6865,2,0,B|416:78|448:118,1,90,0|8
465,288,7813,6,0,B|423:148|256:96|63:153|43:310,1,540,0|8
256,296,10340,5,4
299,375,10656,1,0
213,375,10971,2,0,B|48:376,2,135,8|0|0
299,375,12234,2,0,B|464:376,2,135,8|0|0
326,288,13498,6,0,B|406:216|406:88|259:25|102:88|102:224|193:294,2,540,8|0|8
494,121,17919,2,0,B|408:-24|96:-24|-2:146,1,540,0|8
160,244,20445,6,0,B|176:292|176:340,2,90,0|0|8
352,244,21708,2,0,B|336:292|336:340,2,90,0|0|8
400,64,22971,2,0,B|256:12|256:136|92:56,2,315
392,152,25498,5,0
304,152,25813,1,0
256,232,26129,2,0,B|256:372,2,135,8|0|0
208,152,27392,1,8
120,152,27707,1,0
256,192,28024,12,4,29919
148,361,30550,6,0,B|256:289|380:365,2,229.499990424514,4|4|8
168,193,33077,2,0,B|212:117|212:29,1,152.999993616343,4|8
300,47,34024,2,0,B|300:117|344:193,1,152.999993616343,4|0
408,257,34971,1,8
484,305,35287,1,0
408,353,35603,6,0,B|92:353,2,305.999987232686,4|4|4
360,193,38761,2,0,B|360:113|256:57|152:113|152:193,1,305.999987232686,8|4
63,48,40656,6,0,B|122:55|220:21,1,152.999993616343,4|8
299,23,41603,2,0,B|390:55|449:48,1,152.999993616343,4|0
459,131,42550,2,0,B|415:203|416:284,1,152.999993616343,8|4
255,356,43813,5,8
327,311,44129,2,0,B|368:176|256:101|131:176|182:318,1,382.499984040857,4|4
141,60,46656,2,0,B|395:60,1,229.499990424514,0|8
256,192,48235,12,4,50761
346,22,55813,6,0,B|130:22,2,180,4|8|0
432,22,57391,2,0,B|416:78|448:118,1,90,0|8
465,288,58339,6,0,B|423:148|256:96|63:153|43:310,1,540,0|8
166,362,60865,6,0,B|382:362,2,180,4|8|0
80,362,62443,2,0,B|96:306|64:266,1,90,0|8
47,96,63391,6,0,B|89:236|256:288|449:231|469:74,1,540,0|8
256,88,65918,5,4
213,9,66234,1,0
299,9,66549,2,0,B|464:8,2,135,8|0|0
213,9,67812,2,0,B|48:8,2,135,8|0|0
186,96,69076,6,0,B|106:168|106:296|253:359|410:296|410:160|319:90,2,540,8|0|8
18,263,73497,2,0,B|104:408|416:408|514:238,1,540,0|8
352,140,76023,6,0,B|336:92|336:44,2,90,0|0|8
160,140,77286,2,0,B|176:92|176:44,2,90,0|0|8
112,320,78549,2,0,B|256:372|256:248|420:328,2,315
120,232,81076,5,0
208,232,81391,1,0
256,152,81707,2,0,B|256:12,2,135,8|0|0
304,232,82970,1,8
392,232,83285,1,0
256,192,83602,12,4,85497
364,24,86129,6,0,B|256:96|132:20,2,229.499990424514,4|4|8
344,192,88656,2,0,B|300:268|300:356,1,152.999993616343,4|8
212,338,89603,2,0,B|212:268|168:192,1,152.999993616343,4|0
104,128,90550,1,8
28,80,90866,1,0
104,32,91182,6,0,B|420:32,2,305.999987232686,4|4|4
152,192,94340,2,0,B|152:272|256:328|360:272|360:192,1,305.999987232686,8|4
449,337,96235,6,0,B|390:330|292:364,1,152.999993616343,4|8
213,362,97182,2,0,B|122:330|63:337,1,152.999993616343,4|0
53,254,98129,2,0,B|97:182|96:101,1,152.999993616343,8|4
257,29,99392,5,8
185,74,99708,2,0,B|144:209|256:284|381:209|330:67,1,382.499984040857,4|4
371,325,102235,2,0,B|117:325,1,229.499990424514,0|8
256,192,103814,12,4,106340
