osu file format v5

[General]
AudioFilename: Aria of the Soul.mp3
AudioLeadIn: 0
PreviewTime: 97548
Countdown: 0
SampleSet: Soft
StackLeniency: 0.7
Mode: 0
LetterboxInBreaks: 1

[Editor]
DistanceSpacing: 1.5
BeatDivisor: 4
GridSize: 8

[Metadata]
Title:Aria of the Soul
Artist:Shoji Meguro
Creator:Starrodkirby86
Version:Normal
Source:Shin Megami Tensei: Persona
Tags:atlus velvet room poem for everyone's souls

[Difficulty]
HPDrainRate:5
CircleSize:4
OverallDifficulty:4
SliderMultiplier:1.3
SliderTickRate:1

[Events]
//Background and Video events
0,0,"velvet.png"
//Break Periods
2,39380,57433
2,95489,96578
//Storyboard Layer 0 (Background)
//Storyboard Layer 1 (Fail)
//Storyboard Layer 2 (Pass)
//Storyboard Layer 3 (Foreground)
//Storyboard Sound Samples
//Background Colour Transformations
3,100,0,0,160

[TimingPoints]
30047,652.42211710977,4,2,1,50,1,0
107000,652.42211710977,4,2,1,50,1,0
110930,652.42211710977,4,2,1,50,1,0
118610,-100,4,2,1,71,0,0
118793,652.42211710977,4,2,1,50,1,0
121219,-100,4,2,1,74,0,0
123827,-100,4,2,1,78,0,0
126436,-100,4,2,1,80,0,0
129045,-100,4,2,1,83,0,0
131654,-100,4,2,1,85,0,0
132958,-100,4,2,1,89,0,0
134262,-100,4,2,1,91,0,0
136871,-100,4,2,1,93,0,0
138175,-100,4,2,1,94,0,0
139480,-100,4,2,1,100,0,0
139612,652.42211710977,4,2,1,100,1,1
157414,-100,4,2,1,100,0,0
157546,705.882352941176,4,2,1,100,1,0
165663,652.42211710977,4,2,2,100,1,0

[Colours]
Combo1 : 0,128,255
Combo2 : 0,0,255
Combo3 : 0,0,160
Combo4 : 0,64,128

[HitObjects]
192,64,30047,5,2
256,128,30699,1,0
320,192,31351,2,2,C|288:256|224:224|192:288|128:256,1,260,2|6
64,192,33961,5,8
320,64,35266,5,2
256,128,35918,1,0
192,192,36571,2,2,C|224:256|288:224|320:288|384:256,1,260,2|6
448,192,39180,5,8
192,96,58753,6,2,B|256:128|320:96,1,130,2|10
352,192,60058,1,2
256,256,60710,1,0
160,192,61363,1,2
352,192,62668,5,10
320,288,63972,6,2,B|256:256|192:288,1,130,2|10
160,192,65277,1,2
256,128,65930,1,0
352,192,66582,1,2
160,192,67887,5,10
256,256,68539,1,0
352,192,69192,1,12
256,128,69844,6,2,B|128:128|128:224,1,130
256,256,71149,2,2,B|384:256|384:160,1,130,2|6
288,128,72454,6,2,B|192:128,2,65
256,256,73759,1,8
256,192,74411,12,6,77021
256,96,78326,5,2
320,192,78978,1,10
256,288,79631,1,2
192,192,80283,1,10
256,96,80935,6,2,B|96:96,1,130
256,192,82240,2,2,B|416:192,1,130
384,288,83545,5,8
320,288,83871,1,0
256,288,84198,1,2
192,288,84524,1,0
128,288,84850,1,12
128,192,85502,1,0
128,96,86155,6,0,B|192:128|256:96,1,130,0|2
384,192,87460,2,0,B|320:224|256:192,1,130,0|2
128,288,88764,2,0,B|192:320|256:288,1,130,0|2
320,192,90069,5,2
256,192,90396,1,0
192,192,90722,1,4
256,96,91374,1,10
256,192,92027,1,4
256,288,92679,2,2,B|384:160,1,130
256,96,93984,2,2,B|128:224,1,130
256,192,95289,1,4
320,96,97898,6,0,B|160:96,3,130,0|2|0|2
192,192,100508,2,2,B|352:192,1,130
320,288,101813,1,8
256,192,102465,1,2
192,96,103118,5,8
256,96,103444,1,0
320,96,103770,1,10
320,192,104423,1,8
256,192,104749,1,0
192,192,105075,1,10
192,288,105727,2,2,B|352:288,1,130
352,192,107000,5,10
256,192,107652,1,12
160,192,108304,6,2,B|160:96|256:96,1,130
320,96,109609,1,8
256,192,110262,1,4
352,192,110930,2,2,B|352:288|256:288,1,130
192,288,112234,1,8
256,192,112887,1,4
320,288,113539,6,2,B|160:288,1,130,2|2
256,192,114844,1,2
256,192,115496,1,8
192,96,116149,2,2,B|352:96,1,130
320,192,117454,6,0,B|256:224|192:192,1,130,0|4
64,192,118793,5,2
160,320,119445,1,0
256,192,120097,1,2
160,64,120750,1,8
64,192,121402,5,4
160,320,122055,1,0
256,192,122707,1,2
352,64,123359,1,8
448,192,124012,5,4
352,320,124664,1,2
256,192,125317,1,2
160,64,125969,1,8
64,192,126622,5,4
160,320,127274,1,2
256,192,127926,1,4
352,320,128579,1,2
448,192,129231,5,12
384,192,129557,1,0
320,192,129884,1,2
256,192,130210,1,0
192,192,130536,1,12
64,192,131189,5,0
128,192,131515,1,0
192,192,131841,1,4
256,192,132167,1,0
320,192,132493,1,2
256,192,132820,1,0
192,192,133146,1,4
128,192,133472,1,0
64,192,133798,1,10
192,96,134451,6,0,B|352:96,1,130,0|2
448,192,135755,1,2
384,192,136082,1,8
320,192,136408,1,4
320,288,137060,6,2,B|160:288,1,130
64,192,138365,1,2
128,192,138691,1,8
192,192,139018,1,4
448,192,139612,6,0,B|448:96|352:96,1,130,0|2
128,96,140916,2,0,B|128:192|224:192,1,130,0|2
64,192,142221,6,0,B|64:288|160:288,1,130,0|2
384,288,143526,2,2,B|384:192|288:192,1,130
64,64,144831,5,2
256,64,145483,1,4
448,64,146136,1,2
256,192,146788,1,6
448,320,147441,5,2
256,320,148093,1,4
64,320,148745,1,2
256,192,149398,1,6
64,192,150050,6,2,B|64:32|256:32,1,260
256,192,152008,1,8
448,192,152660,2,2,B|448:352|256:352,1,260
256,192,154617,1,4
64,192,155270,5,2
256,192,155922,1,0
448,192,156574,1,2
256,192,157227,1,6
128,192,157898,5,2
256,64,158604,1,2
384,192,159310,1,2
256,320,160193,1,2
256,192,160898,5,4
256,192,161781,12,6,165663
