osu file format v5

[General]
AudioFilename: Aria of the Soul.mp3
AudioLeadIn: 0
PreviewTime: 97548
Countdown: 0
SampleSet: Soft
StackLeniency: 0.7
Mode: 0
LetterboxInBreaks: 1

[Editor]
DistanceSpacing: 1
BeatDivisor: 4
GridSize: 8

[Metadata]
Title:Aria of the Soul
Artist:Shoji Meguro
Creator:Starrodkirby86
Version:Easy
Source:Shin Megami Tensei: Persona
Tags:atlus velvet room poem for everyone's souls

[Difficulty]
HPDrainRate:3
CircleSize:3
OverallDifficulty:3
SliderMultiplier:1.1
SliderTickRate:1

[Events]
//Background and Video events
0,0,"velvet.png"
//Break Periods
2,39380,57313
2,95489,96458
//Storyboard Layer 0 (Background)
//Storyboard Layer 1 (Fail)
//Storyboard Layer 2 (Pass)
//Storyboard Layer 3 (Foreground)
//Storyboard Sound Samples
//Background Colour Transformations
3,100,0,0,160

[TimingPoints]
30047,652.42211710977,4,2,1,50,1,0
107000,652.42211710977,4,2,1,50,1,0
110930,652.42211710977,4,2,1,50,1,0
118610,-100,4,2,1,71,0,0
118793,652.42211710977,4,2,1,50,1,0
121219,-100,4,2,1,74,0,0
123827,-100,4,2,1,78,0,0
126436,-100,4,2,1,80,0,0
129045,-100,4,2,1,83,0,0
131654,-100,4,2,1,85,0,0
132958,-100,4,2,1,89,0,0
134262,-100,4,2,1,91,0,0
136871,-100,4,2,1,93,0,0
138175,-100,4,2,1,94,0,0
139480,-100,4,2,1,100,0,0
139612,652.42211710977,4,2,1,100,1,1
157414,-100,4,2,1,100,0,0
157546,705.882352941176,4,2,1,100,1,0
165663,652.42211710977,4,2,2,100,1,0

[Colours]
Combo1 : 0,128,255
Combo2 : 0,0,255
Combo3 : 0,0,160
Combo4 : 0,64,128

[HitObjects]
192,64,30047,2,0,B|256:64|256:160,1,110,2|2
200,216,31351,2,2,B|328:216,2,110,2|2|10
256,192,33961,5,8
320,320,35266,6,0,B|256:320|256:224,1,110,2|2
312,168,36571,2,2,B|184:168,2,110,2|2|10
256,192,39180,5,8
96,192,58753,6,0,B|96:128|96:64|192:64|256:64|320:64|384:64|384:160|384:200,1,440,0|10
448,256,63972,6,2,C|384:320|320:288|256:320|192:288|128:320|64:256,1,440
160,128,67887,5,8
256,128,68539,1,2
352,128,69192,1,4
352,224,69844,6,0,B|256:224|256:160,1,110,0|2
259,181,71149,2,2,B|262:138|166:138,1,110,2|14
256,192,74411,12,2,77021
192,64,78326,6,0,B|192:192|32:192,1,220,2|8
192,256,80935,1,8
256,192,81588,1,0
320,128,82240,1,2
320,320,83545,6,0,B|320:192|480:192,1,220,2|8
320,128,86155,1,8
256,192,86807,1,0
192,256,87460,1,2
64,128,90069,6,2,C|128:64|192:96|256:64|320:96|384:64|448:128,1,440
320,256,93984,5,8
256,192,94636,1,0
192,128,95289,1,4
352,176,97898,6,2,B|352:112|256:112,1,110
192,128,99203,1,0
256,192,99856,1,8
160,208,100508,6,2,B|160:272|256:272,1,110
320,256,101813,1,0
256,192,102465,1,8
160,192,103118,6,0,B|160:320,2,110
256,192,105075,1,8
352,192,105727,2,2,B|352:64,2,110
256,192,107652,1,12
384,208,108304,6,10,B|304:384|208:0|128:208,4,330
320,160,116801,5,8
256,224,117454,1,0
192,160,118106,1,4
104,160,118793,5,2
192,128,119445,1,0
256,192,120097,1,2
320,256,120750,1,0
416,192,121402,6,0,B|416:64|256:64,1,220,4|2
160,64,123359,1,2
64,64,124012,5,4
128,160,124664,1,2
224,224,125317,1,0
328,256,125969,1,2
416,192,126622,5,4
352,112,127274,1,8
256,64,127926,1,0
160,112,128579,1,8
96,192,129231,5,4
192,256,129884,1,2
256,160,130536,1,8
320,256,131189,1,2
416,192,131841,5,4
320,128,132493,1,2
256,224,133146,1,8
192,128,133798,1,2
96,192,134451,6,4,B|96:320|256:320,1,220
416,192,137060,6,4,B|416:64|256:64,1,220
160,64,139018,1,10
128,192,139612,6,0,B|256:192,1,110,2|8
256,64,140916,2,0,B|256:192,1,110,2|8
256,320,142221,6,0,B|256:192,1,110,4|10
384,192,143526,2,0,B|256:192,1,110,2|8
256,64,144831,5,2
128,96,145483,1,0
32,192,146136,2,2,B|160:192,1,110
256,256,147441,5,8
128,192,148093,1,2
256,128,148745,1,8
384,192,149398,1,2
256,320,150050,5,2
384,288,150703,1,0
480,192,151355,2,2,B|352:192,1,110
256,64,152660,5,2
128,96,153312,1,0
32,192,153965,2,2,B|160:192,1,110
256,96,155270,5,2
160,192,155922,1,8
256,288,156574,1,2
352,192,157227,1,6
128,192,157898,5,2
256,64,158604,1,2
384,192,159310,1,2
256,320,160193,1,2
256,192,160898,5,4
256,192,161781,12,6,165663
