osu file format v14

[General]
AudioFilename: Persona 4 OST - A Corner of Memories.mp3
AudioLeadIn: 0
PreviewTime: 666
Countdown: 1
SampleSet: None
StackLeniency: 0.7
Mode: 1
LetterboxInBreaks: 1
WidescreenStoryboard: 1

[Editor]
Bookmarks: 43709
DistanceSpacing: 0.8
BeatDivisor: 4
GridSize: 4
TimelineZoom: 1

[Metadata]
Title:A Corner of Memories
TitleUnicode:A Corner of Memories
Artist:Shoji Meguro
ArtistUnicode:目黒将司
Creator:chekobelle
Version:Futsuu
Source:Shin Megami Tensei: Persona 4
Tags:
BeatmapID:1523463
BeatmapSetID:721479

[Difficulty]
HPDrainRate:5
CircleSize:5
OverallDifficulty:5
ApproachRate:5
SliderMultiplier:1.6
SliderTickRate:1

[Events]
//Background and Video events
0,0,"p4.jpg",0,0
//Break Periods
//Storyboard Layer 0 (Background)
//Storyboard Layer 1 (Fail)
//Storyboard Layer 2 (Pass)
//Storyboard Layer 3 (Foreground)
//Storyboard Sound Samples

[TimingPoints]
666,652.173913043478,4,1,0,100,1,0
1970,-100,4,1,0,100,0,1
11100,-100,4,1,0,100,0,0
12405,-100,4,1,0,100,0,1
21535,-100,4,1,0,100,0,0
22839,-100,4,1,0,100,0,1
31970,-100,4,1,0,100,0,0
33274,-100,4,1,0,100,0,1
43709,-100,4,1,0,100,0,0

[HitObjects]
149,147,666,5,4,0:0:0:0:
203,125,1318,1,12,0:0:0:0:
277,172,1970,1,4,0:0:0:0:
183,256,3274,1,4,0:0:0:0:
234,215,3926,1,12,0:0:0:0:
309,284,4252,1,4,0:0:0:0:
188,134,7187,1,8,0:0:0:0:
277,150,7839,1,8,0:0:0:0:
339,169,8165,1,8,0:0:0:0:
286,253,9470,1,8,0:0:0:0:
194,269,10122,1,0,0:0:0:0:
167,167,11100,1,4,0:0:0:0:
228,117,11752,1,12,0:0:0:0:
299,221,12405,1,4,0:0:0:0:
218,137,13709,1,4,0:0:0:0:
280,99,14361,1,12,0:0:0:0:
332,169,14687,1,4,0:0:0:0:
218,243,17622,1,4,0:0:0:0:
293,170,18600,1,8,0:0:0:0:
197,166,19252,1,0,0:0:0:0:
292,126,20231,1,8,0:0:0:0:
339,227,20883,1,0,0:0:0:0:
172,176,21535,5,4,0:0:0:0:
231,112,22187,1,12,0:0:0:0:
339,191,22839,1,4,0:0:0:0:
262,142,24144,1,4,0:0:0:0:
331,88,24796,1,12,0:0:0:0:
401,189,25122,1,4,0:0:0:0:
194,130,28057,1,8,0:0:0:0:
301,143,29035,1,8,0:0:0:0:
251,204,30339,1,0,0:0:0:0:
149,182,30992,1,0,0:0:0:0:
202,134,31970,1,4,0:0:0:0:
266,111,32622,1,12,0:0:0:0:
348,167,33274,1,4,0:0:0:0:
211,229,34579,1,4,0:0:0:0:
248,142,35231,1,12,0:0:0:0:
319,217,35557,1,4,0:0:0:0:
253,155,38492,1,4,0:0:0:0:
324,151,39470,1,8,0:0:0:0:
263,240,40774,1,0,0:0:0:0:
162,139,43709,1,8,0:0:0:0:
249,109,44687,1,8,0:0:0:0:
329,204,46318,1,8,0:0:0:0:
213,255,47622,1,0,0:0:0:0:
147,150,48926,1,8,0:0:0:0:
249,99,51535,1,0,0:0:0:0:
320,126,52839,1,8,0:0:0:0:
273,232,54144,1,8,0:0:0:0:
171,229,56752,1,12,0:0:0:0:
230,103,59361,1,8,0:0:0:0:
319,172,61644,1,12,0:0:0:0:
