osu file format v14

[General]
AudioFilename: Eye of Aeon.mp3
AudioLeadIn: 0
PreviewTime: 0
Countdown: 0
SampleSet: Normal
StackLeniency: 0.7
Mode: 3
LetterboxInBreaks: 0
SpecialStyle: 0
WidescreenStoryboard: 0

[Editor]
DistanceSpacing: 1.3
BeatDivisor: 2
GridSize: 32
TimelineZoom: 1.650003

[Metadata]
Title:Eye of Aeon
TitleUnicode:Eye of Aeon
Artist:Shoichiro Sakamoto
ArtistUnicode:坂本 昌一郎
Creator:kwonsuny
Version:Very Easy
Source:11eyes
Tags:lass
BeatmapID:921656
BeatmapSetID:426904

[Difficulty]
HPDrainRate:6
CircleSize:4
OverallDifficulty:7
ApproachRate:5
SliderMultiplier:1.4
SliderTickRate:1

[Events]
//Background and Video events
0,0,"11_Eyes_blue_eyes_dress_feathers_lisette_vertorre_long_hair_white_hair_1920x1080.jpg",0,0
//Break Periods
//Storyboard Layer 0 (Background)
//Storyboard Layer 1 (Fail)
//Storyboard Layer 2 (Pass)
//Storyboard Layer 3 (Foreground)
//Storyboard Sound Samples

[TimingPoints]
26,333.333333333333,4,1,0,10,1,0

[HitObjects]
448,192,1359,128,10,4025:0:0:0:0:
64,192,1359,1,10,0:0:0:0:
192,192,2692,1,0,0:0:0:0:
320,192,4025,128,0,5359:0:0:0:0:
64,192,4025,1,0,0:0:0:0:
64,192,4692,1,0,0:0:0:0:
192,192,5359,1,0,0:0:0:0:
448,192,6692,128,0,9359:0:0:0:0:
64,192,6692,1,0,0:0:0:0:
192,192,8025,1,0,0:0:0:0:
320,192,9359,128,0,12025:0:0:0:0:
64,192,9359,1,0,0:0:0:0:
64,192,10025,1,0,0:0:0:0:
192,192,10692,1,0,0:0:0:0:
448,192,12025,1,0,0:0:0:0:
64,192,12359,1,0,0:0:0:0:
320,192,12692,1,0,0:0:0:0:
192,192,13025,1,0,0:0:0:0:
448,192,13359,1,0,0:0:0:0:
192,192,13692,1,0,0:0:0:0:
320,192,14025,1,0,0:0:0:0:
64,192,14359,1,0,0:0:0:0:
448,192,14692,1,0,0:0:0:0:
64,192,15025,1,0,0:0:0:0:
320,192,15359,1,0,0:0:0:0:
192,192,15692,1,0,0:0:0:0:
448,192,16025,1,0,0:0:0:0:
192,192,16359,1,0,0:0:0:0:
320,192,16692,1,0,0:0:0:0:
64,192,17025,1,0,0:0:0:0:
448,192,17359,1,0,0:0:0:0:
320,192,17692,1,0,0:0:0:0:
192,192,18025,1,0,0:0:0:0:
64,192,18359,1,0,0:0:0:0:
320,192,18692,1,0,0:0:0:0:
64,192,19025,1,0,0:0:0:0:
192,192,19359,1,0,0:0:0:0:
64,192,19692,1,0,0:0:0:0:
448,192,20025,1,0,0:0:0:0:
192,192,20359,1,0,0:0:0:0:
320,192,20692,1,0,0:0:0:0:
64,192,21025,1,0,0:0:0:0:
320,192,21359,1,0,0:0:0:0:
64,192,21692,1,0,0:0:0:0:
448,192,22025,128,0,22692:0:0:0:0:
320,192,22025,1,0,0:0:0:0:
64,192,22692,1,0,0:0:0:0:
192,192,22692,1,0,0:0:0:0:
192,192,23859,1,0,0:0:0:0:
320,192,23859,1,0,0:0:0:0:
320,192,24525,1,0,0:0:0:0:
448,192,24525,1,0,0:0:0:0:
64,192,25359,1,0,0:0:0:0:
320,192,25359,1,0,0:0:0:0:
192,192,26525,1,0,0:0:0:0:
448,192,26525,1,0,0:0:0:0:
448,192,27192,1,0,0:0:0:0:
64,192,27192,1,0,0:0:0:0:
64,192,28025,1,0,0:0:0:0:
192,192,28025,1,0,0:0:0:0:
320,192,29192,1,0,0:0:0:0:
192,192,29192,1,0,0:0:0:0:
320,192,29859,1,0,0:0:0:0:
448,192,29859,1,0,0:0:0:0:
64,192,30692,1,0,0:0:0:0:
448,192,30692,1,0,0:0:0:0:
320,192,31859,1,0,0:0:0:0:
448,192,31859,1,0,0:0:0:0:
192,192,32525,1,0,0:0:0:0:
320,192,32525,1,0,0:0:0:0:
64,192,32859,1,0,0:0:0:0:
192,192,33359,1,0,0:0:0:0:
320,192,33359,128,0,36025:0:0:0:0:
64,192,36025,1,0,0:0:0:0:
448,192,36359,1,0,0:0:0:0:
64,192,36692,1,0,0:0:0:0:
448,192,37025,1,0,0:0:0:0:
64,192,37359,1,0,0:0:0:0:
448,192,37692,1,0,0:0:0:0:
64,192,38025,1,0,0:0:0:0:
64,192,38359,1,0,0:0:0:0:
448,192,38692,1,0,1:0:0:0:
320,192,39192,1,0,0:0:0:0:
192,192,39692,1,0,0:0:0:0:
320,192,40192,1,0,0:0:0:0:
448,192,40692,1,0,0:0:0:0:
64,192,41025,1,0,0:0:0:0:
448,192,41359,1,0,1:0:0:0:
320,192,41859,1,0,0:0:0:0:
192,192,42359,1,0,0:0:0:0:
320,192,42859,1,0,0:0:0:0:
448,192,43359,1,0,0:0:0:0:
64,192,43692,1,0,0:0:0:0:
448,192,44025,1,0,1:0:0:0:
320,192,44525,1,0,0:0:0:0:
192,192,45025,1,0,0:0:0:0:
320,192,45525,1,0,0:0:0:0:
448,192,46025,1,0,0:0:0:0:
64,192,46359,1,0,0:0:0:0:
448,192,46692,1,0,1:0:0:0:
320,192,47192,1,0,0:0:0:0:
192,192,47692,1,0,0:0:0:0:
320,192,48025,1,0,0:0:0:0:
448,192,48359,1,0,0:0:0:0:
64,192,48692,1,0,0:0:0:0:
192,192,49025,1,0,0:0:0:0:
448,192,49359,1,0,0:0:0:0:
320,192,49359,1,0,0:0:0:0:
192,192,49859,1,0,0:0:0:0:
320,192,49859,1,0,0:0:0:0:
64,192,50359,1,0,0:0:0:0:
192,192,50359,1,0,0:0:0:0:
192,192,50859,1,0,0:0:0:0:
320,192,50859,1,0,0:0:0:0:
192,192,51359,1,0,0:0:0:0:
64,192,51359,1,0,0:0:0:0:
64,192,51692,1,0,0:0:0:0:
448,192,52025,1,0,0:0:0:0:
320,192,52025,1,0,0:0:0:0:
320,192,52525,1,0,0:0:0:0:
192,192,52525,1,0,0:0:0:0:
192,192,53025,1,0,0:0:0:0:
64,192,53025,1,0,0:0:0:0:
320,192,53525,1,0,0:0:0:0:
192,192,53525,1,0,0:0:0:0:
64,192,54025,1,0,0:0:0:0:
192,192,54025,1,0,0:0:0:0:
64,192,54359,1,0,0:0:0:0:
448,192,54692,1,0,0:0:0:0:
192,192,55025,1,0,0:0:0:0:
320,192,55359,1,0,0:0:0:0:
64,192,55692,1,0,0:0:0:0:
192,192,56025,1,0,0:0:0:0:
448,192,56359,1,0,0:0:0:0:
64,192,56692,1,0,0:0:0:0:
320,192,57025,1,0,0:0:0:0:
448,192,57359,1,0,0:0:0:0:
192,192,57692,1,0,0:0:0:0:
320,192,58025,1,0,0:0:0:0:
64,192,58359,1,0,0:0:0:0:
448,192,58692,128,0,60025:0:0:0:0:
64,192,59025,1,0,0:0:0:0:
64,192,59359,1,0,0:0:0:0:
64,192,59692,1,0,0:0:0:0:
192,192,60025,1,0,0:0:0:0:
64,192,60359,128,0,60692:0:0:0:0:
320,192,60692,128,0,61025:0:0:0:0:
192,192,61025,128,0,61359:0:0:0:0:
448,192,61359,1,0,0:0:0:0:
320,192,61692,1,0,0:0:0:0:
192,192,62025,1,0,0:0:0:0:
320,192,62359,1,0,0:0:0:0:
448,192,62692,128,0,63025:0:0:0:0:
64,192,63192,128,0,64025:0:0:0:0:
320,192,64359,1,0,0:0:0:0:
448,192,64692,1,0,0:0:0:0:
192,192,65025,1,0,0:0:0:0:
64,192,65359,128,0,65859:0:0:0:0:
192,192,65859,128,0,66359:0:0:0:0:
320,192,66359,128,0,66692:0:0:0:0:
448,192,66692,128,0,67025:0:0:0:0:
192,192,67025,1,0,0:0:0:0:
448,192,67192,128,0,67525:0:0:0:0:
320,192,67525,128,0,68025:0:0:0:0:
192,192,68025,128,0,69025:0:0:0:0:
64,192,69359,1,0,0:0:0:0:
320,192,69692,1,0,0:0:0:0:
192,192,70025,1,0,0:0:0:0:
320,192,70359,1,0,0:0:0:0:
64,192,70692,128,0,71192:0:0:0:0:
448,192,70692,1,0,0:0:0:0:
192,192,71192,128,0,71692:0:0:0:0:
320,192,71692,128,0,72025:0:0:0:0:
448,192,72025,1,0,0:0:0:0:
320,192,72359,1,0,0:0:0:0:
192,192,72692,1,0,0:0:0:0:
320,192,73025,1,0,0:0:0:0:
448,192,73359,128,0,73692:0:0:0:0:
64,192,73859,128,0,74692:0:0:0:0:
320,192,75025,1,0,0:0:0:0:
448,192,75359,1,0,0:0:0:0:
192,192,75692,1,0,0:0:0:0:
64,192,76025,1,0,0:0:0:0:
192,192,76525,1,0,0:0:0:0:
320,192,77025,1,0,0:0:0:0:
448,192,77359,1,0,0:0:0:0:
192,192,77692,1,0,0:0:0:0:
448,192,77859,128,0,78192:0:0:0:0:
64,192,78192,128,0,78692:0:0:0:0:
192,192,78692,128,0,80025:0:0:0:0:
320,192,80025,128,0,80525:0:0:0:0:
64,192,80525,128,0,80692:0:0:0:0:
448,192,80859,1,0,0:0:0:0:
192,192,81025,1,0,0:0:0:0:
64,192,81359,128,0,85359:0:0:0:0:
448,192,81359,1,0,0:0:0:0:
320,192,81859,1,0,0:0:0:0:
192,192,82359,1,0,0:0:0:0:
320,192,82859,1,0,0:0:0:0:
192,192,83359,1,0,0:0:0:0:
192,192,83692,1,0,0:0:0:0:
448,192,84025,1,0,0:0:0:0:
320,192,84525,1,0,0:0:0:0:
192,192,85025,1,0,0:0:0:0:
320,192,85525,1,0,0:0:0:0:
192,192,86025,1,0,0:0:0:0:
64,192,86359,1,0,0:0:0:0:
448,192,86692,1,0,0:0:0:0:
320,192,87192,1,0,0:0:0:0:
192,192,87692,1,0,0:0:0:0:
320,192,88192,1,0,0:0:0:0:
192,192,88692,1,0,0:0:0:0:
64,192,89025,1,0,0:0:0:0:
448,192,89359,1,0,0:0:0:0:
320,192,89859,1,0,0:0:0:0:
64,192,90192,1,0,0:0:0:0:
192,192,90692,128,0,92025:0:0:0:0:
320,192,90859,1,0,0:0:0:0:
448,192,91359,1,0,0:0:0:0:
64,192,91692,1,0,0:0:0:0:
448,192,92025,1,0,0:0:0:0:
192,192,92525,1,0,0:0:0:0:
320,192,92525,1,0,0:0:0:0:
64,192,93025,1,0,0:0:0:0:
192,192,93025,1,0,0:0:0:0:
192,192,93525,1,0,0:0:0:0:
320,192,93525,1,0,0:0:0:0:
64,192,94025,1,0,0:0:0:0:
448,192,94025,1,0,0:0:0:0:
64,192,94359,1,0,0:0:0:0:
448,192,94692,1,0,0:0:0:0:
320,192,94692,1,0,0:0:0:0:
320,192,95192,1,0,0:0:0:0:
192,192,95192,1,0,0:0:0:0:
192,192,95692,1,0,0:0:0:0:
64,192,95692,1,0,0:0:0:0:
320,192,96192,1,0,0:0:0:0:
192,192,96192,1,0,0:0:0:0:
64,192,96692,1,0,0:0:0:0:
448,192,96692,1,0,0:0:0:0:
192,192,97025,1,0,0:0:0:0:
448,192,97359,1,0,0:0:0:0:
320,192,97359,1,0,0:0:0:0:
320,192,97859,1,0,0:0:0:0:
192,192,97859,1,0,0:0:0:0:
64,192,98359,1,0,0:0:0:0:
192,192,98359,1,0,0:0:0:0:
192,192,98859,1,0,0:0:0:0:
320,192,98859,1,0,0:0:0:0:
448,192,99359,1,0,0:0:0:0:
64,192,99359,1,0,0:0:0:0:
192,192,99692,1,0,0:0:0:0:
320,192,100025,1,0,0:0:0:0:
448,192,100025,1,0,0:0:0:0:
192,192,100525,1,0,0:0:0:0:
320,192,100525,1,0,0:0:0:0:
192,192,101025,1,0,0:0:0:0:
64,192,101025,1,0,0:0:0:0:
64,192,101359,128,0,102359:0:0:0:0:
320,192,102692,1,0,0:0:0:0:
448,192,102692,1,0,0:0:0:0:
64,192,103025,1,0,0:0:0:0:
192,192,103359,1,0,0:0:0:0:
320,192,103692,1,0,0:0:0:0:
448,192,104025,1,0,0:0:0:0:
320,192,104359,1,0,0:0:0:0:
192,192,104692,1,0,0:0:0:0:
320,192,105025,1,0,0:0:0:0:
448,192,105359,128,0,106692:0:0:0:0:
64,192,105859,128,0,106692:0:0:0:0:
320,192,107025,1,0,0:0:0:0:
448,192,107359,1,0,0:0:0:0:
192,192,107692,1,0,0:0:0:0:
64,192,108025,1,0,0:0:0:0:
192,192,108525,1,0,0:0:0:0:
320,192,109025,1,0,0:0:0:0:
448,192,109359,1,0,0:0:0:0:
320,192,109692,1,0,0:0:0:0:
64,192,109859,1,0,0:0:0:0:
192,192,110192,1,0,0:0:0:0:
320,192,110692,128,0,112025:0:0:0:0:
192,192,112359,1,0,0:0:0:0:
448,192,112692,1,0,0:0:0:0:
320,192,113025,1,0,0:0:0:0:
64,192,113359,1,0,0:0:0:0:
192,192,113859,1,0,0:0:0:0:
320,192,114359,1,0,0:0:0:0:
448,192,114692,1,0,0:0:0:0:
320,192,115025,1,0,0:0:0:0:
192,192,115359,1,0,0:0:0:0:
320,192,115692,1,0,0:0:0:0:
448,192,116025,128,0,116359:0:0:0:0:
64,192,116359,1,0,0:0:0:0:
320,192,116525,128,0,117359:0:0:0:0:
192,192,117692,1,0,0:0:0:0:
448,192,118025,1,0,0:0:0:0:
320,192,118359,1,0,0:0:0:0:
64,192,118692,1,0,0:0:0:0:
192,192,119192,1,0,0:0:0:0:
320,192,119692,1,0,0:0:0:0:
448,192,120025,1,0,0:0:0:0:
192,192,120359,1,0,0:0:0:0:
320,192,120525,1,0,0:0:0:0:
448,192,120859,1,0,0:0:0:0:
448,192,121359,128,0,122692:0:0:0:0:
64,192,122692,1,0,0:0:0:0:
192,192,123192,1,0,0:0:0:0:
320,192,123525,1,0,0:0:0:0:
64,192,123692,1,0,0:0:0:0:
448,192,123859,1,0,0:0:0:0:
64,192,124025,1,0,0:0:0:0:
192,192,124025,1,0,0:0:0:0:
320,192,124525,1,0,0:0:0:0:
448,192,124525,1,0,0:0:0:0:
192,192,125025,1,0,0:0:0:0:
64,192,125025,1,0,0:0:0:0:
448,192,125525,1,0,0:0:0:0:
320,192,125525,1,0,0:0:0:0:
64,192,126025,1,0,0:0:0:0:
192,192,126025,1,0,0:0:0:0:
192,192,126525,128,0,126859:0:0:0:0:
448,192,126859,1,0,0:0:0:0:
320,192,127025,1,0,0:0:0:0:
192,192,127192,1,0,0:0:0:0:
448,192,127359,1,0,0:0:0:0:
320,192,127525,1,0,0:0:0:0:
192,192,127692,1,0,0:0:0:0:
64,192,127859,1,0,0:0:0:0:
448,192,128025,1,0,0:0:0:0:
192,192,128192,1,0,0:0:0:0:
320,192,128359,1,0,0:0:0:0:
192,192,128525,1,0,0:0:0:0:
64,192,128692,128,0,129025:0:0:0:0:
448,192,129025,128,0,129359:0:0:0:0:
192,192,129359,1,0,0:0:0:0:
64,192,129525,1,0,0:0:0:0:
320,192,129692,1,0,0:0:0:0:
192,192,129859,1,0,0:0:0:0:
448,192,130025,1,0,0:0:0:0:
320,192,130192,1,0,0:0:0:0:
64,192,130359,1,0,0:0:0:0:
448,192,130525,1,0,0:0:0:0:
64,192,130692,128,0,131192:0:0:0:0:
448,192,131192,128,0,131692:0:0:0:0:
64,192,131692,1,0,0:0:0:0:
64,192,132025,128,0,133359:0:0:0:0:
448,192,133359,128,0,134692:0:0:0:0:
320,192,134692,1,0,0:0:0:0:
64,192,134859,1,0,0:0:0:0:
192,192,135025,1,0,0:0:0:0:
448,192,135192,1,0,0:0:0:0:
64,192,135359,1,0,0:0:0:0:
192,192,135525,1,0,0:0:0:0:
448,192,135692,1,0,0:0:0:0:
64,192,135859,1,0,0:0:0:0:
192,192,136025,1,0,0:0:0:0:
448,192,136192,1,0,0:0:0:0:
64,192,136359,1,0,0:0:0:0:
192,192,136525,1,0,0:0:0:0:
448,192,136692,1,0,0:0:0:0:
320,192,136859,1,0,0:0:0:0:
64,192,137025,1,0,0:0:0:0:
320,192,137192,1,0,0:0:0:0:
64,192,137359,128,0,138025:0:0:0:0:
320,192,138192,1,0,0:0:0:0:
192,192,138359,1,0,0:0:0:0:
448,192,138525,1,0,0:0:0:0:
64,192,138692,1,0,0:0:0:0:
192,192,138859,1,0,0:0:0:0:
320,192,139025,1,0,0:0:0:0:
448,192,139192,1,0,0:0:0:0:
64,192,139359,128,0,140025:0:0:0:0:
192,192,140025,128,0,141192:0:0:0:0:
320,192,141192,1,0,0:0:0:0:
448,192,141192,1,0,0:0:0:0:
64,192,141525,1,0,0:0:0:0:
448,192,141692,1,0,0:0:0:0:
320,192,141859,1,0,0:0:0:0:
64,192,142192,128,0,142692:0:0:0:0:
448,192,142692,1,4,0:0:0:0:
