osu file format v14

[General]
AudioFilename: Eye of Aeon.mp3
AudioLeadIn: 0
PreviewTime: 0
Countdown: 0
SampleSet: Normal
StackLeniency: 0.7
Mode: 3
LetterboxInBreaks: 0
SpecialStyle: 0
WidescreenStoryboard: 0

[Editor]
DistanceSpacing: 1.3
BeatDivisor: 4
GridSize: 32
TimelineZoom: 2.250003

[Metadata]
Title:Eye of Aeon
TitleUnicode:Eye of Aeon
Artist:Shoichiro Sakamoto
ArtistUnicode:坂本 昌一郎
Creator:kwonsuny
Version:Hard
Source:11eyes
Tags:lass
BeatmapID:921653
BeatmapSetID:426904

[Difficulty]
HPDrainRate:7
CircleSize:4
OverallDifficulty:7
ApproachRate:5
SliderMultiplier:0.999999904632568
SliderTickRate:1

[Events]
//Background and Video events
0,0,"11_Eyes_blue_eyes_dress_feathers_lisette_vertorre_long_hair_white_hair_1920x1080.jpg",0,0
//Break Periods
//Storyboard Layer 0 (Background)
//Storyboard Layer 1 (Fail)
//Storyboard Layer 2 (Pass)
//Storyboard Layer 3 (Foreground)
//Storyboard Sound Samples

[TimingPoints]
26,333.333333333333,4,1,0,11,1,0

[HitObjects]
448,192,1359,5,0,0:0:0:0:
320,192,1359,1,0,0:0:0:0:
64,192,1359,1,0,0:0:0:0:
192,192,1692,1,0,0:0:0:0:
320,192,2025,1,0,0:0:0:0:
64,192,2359,1,0,0:0:0:0:
448,192,2692,1,0,0:0:0:0:
192,192,2692,1,0,0:0:0:0:
64,192,3025,1,0,0:0:0:0:
192,192,3359,1,0,0:0:0:0:
64,192,3692,1,0,0:0:0:0:
448,192,4025,1,0,0:0:0:0:
192,192,4359,1,0,0:0:0:0:
320,192,4692,1,0,0:0:0:0:
64,192,5025,1,0,0:0:0:0:
320,192,5359,1,0,0:0:0:0:
448,192,5359,1,0,0:0:0:0:
64,192,5692,1,0,0:0:0:0:
192,192,6025,1,0,0:0:0:0:
64,192,6359,1,0,0:0:0:0:
448,192,6692,1,0,0:0:0:0:
320,192,6692,1,0,0:0:0:0:
64,192,6692,1,0,0:0:0:0:
192,192,7025,1,0,0:0:0:0:
320,192,7359,1,0,0:0:0:0:
64,192,7692,1,0,0:0:0:0:
192,192,8025,1,0,0:0:0:0:
448,192,8025,1,0,0:0:0:0:
64,192,8359,1,0,0:0:0:0:
192,192,8692,1,0,0:0:0:0:
64,192,9025,1,0,0:0:0:0:
448,192,9359,1,0,0:0:0:0:
192,192,9692,1,0,0:0:0:0:
320,192,10025,1,0,0:0:0:0:
64,192,10359,1,0,0:0:0:0:
320,192,10692,1,0,0:0:0:0:
448,192,10692,1,0,0:0:0:0:
64,192,11025,1,0,0:0:0:0:
192,192,11359,1,0,0:0:0:0:
64,192,11692,1,0,0:0:0:0:
64,192,12025,1,0,0:0:0:0:
448,192,12025,1,0,0:0:0:0:
192,192,12025,1,0,0:0:0:0:
320,192,12359,1,0,0:0:0:0:
448,192,12359,1,0,0:0:0:0:
320,192,12692,1,0,0:0:0:0:
64,192,12692,1,0,0:0:0:0:
64,192,13025,1,0,0:0:0:0:
448,192,13025,1,0,0:0:0:0:
192,192,13359,1,0,0:0:0:0:
320,192,13359,1,0,0:0:0:0:
64,192,13692,1,0,0:0:0:0:
448,192,13692,1,0,0:0:0:0:
64,192,14025,1,0,0:0:0:0:
320,192,14025,1,0,0:0:0:0:
320,192,14359,1,0,0:0:0:0:
448,192,14359,1,0,0:0:0:0:
64,192,14692,1,0,0:0:0:0:
192,192,14692,1,0,0:0:0:0:
64,192,15025,1,0,0:0:0:0:
448,192,15025,1,0,0:0:0:0:
320,192,15359,1,0,0:0:0:0:
192,192,15359,1,0,0:0:0:0:
64,192,15692,1,0,0:0:0:0:
448,192,15692,1,0,0:0:0:0:
192,192,16025,1,0,0:0:0:0:
320,192,16025,1,0,0:0:0:0:
64,192,16359,1,0,0:0:0:0:
448,192,16359,1,0,0:0:0:0:
192,192,16692,1,0,0:0:0:0:
64,192,16692,1,0,0:0:0:0:
64,192,17025,1,0,0:0:0:0:
448,192,17025,1,0,0:0:0:0:
448,192,17359,1,0,0:0:0:0:
320,192,17359,1,0,0:0:0:0:
192,192,17692,1,0,0:0:0:0:
64,192,17692,1,0,0:0:0:0:
320,192,18025,1,0,0:0:0:0:
192,192,18025,1,0,0:0:0:0:
64,192,18359,1,0,0:0:0:0:
448,192,18359,1,0,0:0:0:0:
192,192,18692,1,0,0:0:0:0:
320,192,18692,1,0,0:0:0:0:
64,192,19025,1,0,0:0:0:0:
448,192,19025,1,0,0:0:0:0:
64,192,19359,1,0,0:0:0:0:
192,192,19359,1,0,0:0:0:0:
320,192,19692,1,0,0:0:0:0:
448,192,19692,1,0,0:0:0:0:
448,192,20025,1,0,0:0:0:0:
320,192,20109,1,0,0:0:0:0:
192,192,20192,1,0,0:0:0:0:
64,192,20275,1,0,0:0:0:0:
448,192,20359,1,0,0:0:0:0:
192,192,20442,1,0,0:0:0:0:
320,192,20525,1,0,0:0:0:0:
448,192,20609,1,0,0:0:0:0:
64,192,20692,1,0,0:0:0:0:
192,192,20775,1,0,0:0:0:0:
320,192,20859,1,0,0:0:0:0:
448,192,20942,1,0,0:0:0:0:
64,192,21025,1,0,0:0:0:0:
320,192,21109,1,0,0:0:0:0:
192,192,21192,1,0,0:0:0:0:
64,192,21275,1,0,0:0:0:0:
320,192,21359,1,0,0:0:0:0:
448,192,21442,1,0,0:0:0:0:
192,192,21525,1,0,0:0:0:0:
64,192,21609,1,0,0:0:0:0:
320,192,21692,1,0,0:0:0:0:
448,192,21775,1,0,0:0:0:0:
320,192,21859,1,0,0:0:0:0:
192,192,21942,1,0,0:0:0:0:
64,192,22025,1,0,0:0:0:0:
192,192,22109,1,0,0:0:0:0:
320,192,22192,1,0,0:0:0:0:
448,192,22275,1,0,0:0:0:0:
64,192,22359,1,0,0:0:0:0:
192,192,22442,1,0,0:0:0:0:
320,192,22525,1,0,0:0:0:0:
448,192,22609,1,0,0:0:0:0:
64,192,22692,1,0,0:0:0:0:
192,192,22692,1,0,0:0:0:0:
448,192,23025,1,0,0:0:0:0:
192,192,23359,1,0,0:0:0:0:
448,192,23525,1,0,0:0:0:0:
320,192,23692,1,0,0:0:0:0:
192,192,23859,1,0,0:0:0:0:
448,192,23859,1,0,0:0:0:0:
64,192,23859,1,0,0:0:0:0:
320,192,24192,1,0,0:0:0:0:
192,192,24359,1,0,0:0:0:0:
320,192,24525,1,0,0:0:0:0:
448,192,24525,1,0,0:0:0:0:
64,192,24525,1,0,0:0:0:0:
192,192,24859,1,0,0:0:0:0:
64,192,25025,1,0,0:0:0:0:
192,192,25359,1,0,0:0:0:0:
320,192,25359,1,0,0:0:0:0:
448,192,25359,1,0,0:0:0:0:
192,192,25692,1,0,0:0:0:0:
64,192,26025,1,0,0:0:0:0:
320,192,26192,1,0,0:0:0:0:
192,192,26359,1,0,0:0:0:0:
64,192,26525,1,0,0:0:0:0:
320,192,26525,1,0,0:0:0:0:
448,192,26525,1,0,0:0:0:0:
192,192,26859,1,0,0:0:0:0:
320,192,27025,1,0,0:0:0:0:
192,192,27192,1,0,0:0:0:0:
448,192,27192,1,0,0:0:0:0:
64,192,27192,1,0,0:0:0:0:
64,192,27525,1,0,0:0:0:0:
320,192,27692,1,0,0:0:0:0:
448,192,27859,1,0,0:0:0:0:
64,192,28025,1,0,0:0:0:0:
192,192,28025,1,0,0:0:0:0:
320,192,28025,1,0,0:0:0:0:
448,192,28359,1,0,0:0:0:0:
64,192,28692,1,0,0:0:0:0:
320,192,28859,1,0,0:0:0:0:
192,192,29025,1,0,0:0:0:0:
64,192,29192,1,0,0:0:0:0:
320,192,29192,1,0,0:0:0:0:
448,192,29192,1,0,0:0:0:0:
192,192,29525,1,0,0:0:0:0:
64,192,29692,1,0,0:0:0:0:
320,192,29859,1,0,0:0:0:0:
448,192,29859,1,0,0:0:0:0:
192,192,29859,1,0,0:0:0:0:
448,192,30192,1,0,0:0:0:0:
64,192,30359,1,0,0:0:0:0:
320,192,30692,1,0,0:0:0:0:
192,192,30692,1,0,0:0:0:0:
448,192,30692,1,0,0:0:0:0:
320,192,31025,1,0,0:0:0:0:
64,192,31359,1,0,0:0:0:0:
192,192,31525,1,0,0:0:0:0:
448,192,31692,1,0,0:0:0:0:
192,192,31859,1,0,0:0:0:0:
320,192,31859,1,0,0:0:0:0:
64,192,31859,1,0,0:0:0:0:
192,192,32192,1,0,0:0:0:0:
320,192,32359,1,0,0:0:0:0:
192,192,32525,1,0,0:0:0:0:
64,192,32525,1,0,0:0:0:0:
448,192,32525,128,0,32859:0:0:0:0:
192,192,32859,1,0,0:0:0:0:
320,192,32859,1,0,0:0:0:0:
64,192,32859,128,0,33359:0:0:0:0:
320,192,33359,128,0,36025:0:0:0:0:
448,192,33359,1,0,0:0:0:0:
192,192,33525,1,0,0:0:0:0:
64,192,33692,1,0,0:0:0:0:
448,192,33859,1,0,0:0:0:0:
192,192,34025,1,0,0:0:0:0:
64,192,34192,1,0,0:0:0:0:
448,192,34359,1,0,0:0:0:0:
192,192,34525,1,0,0:0:0:0:
64,192,34692,1,0,0:0:0:0:
448,192,34859,1,0,0:0:0:0:
192,192,35025,1,0,0:0:0:0:
64,192,35192,1,0,0:0:0:0:
192,192,35359,1,0,0:0:0:0:
448,192,35525,1,0,0:0:0:0:
64,192,35692,1,0,0:0:0:0:
192,192,35859,1,0,0:0:0:0:
64,192,36025,1,0,0:0:0:0:
192,192,36109,1,0,0:0:0:0:
320,192,36192,1,0,0:0:0:0:
192,192,36275,1,0,0:0:0:0:
448,192,36359,1,0,0:0:0:0:
320,192,36442,1,0,0:0:0:0:
192,192,36525,1,0,0:0:0:0:
320,192,36609,1,0,0:0:0:0:
64,192,36692,1,0,0:0:0:0:
448,192,36775,1,0,0:0:0:0:
192,192,36859,1,0,0:0:0:0:
320,192,36942,1,0,0:0:0:0:
64,192,37025,1,0,0:0:0:0:
192,192,37109,1,0,0:0:0:0:
320,192,37192,1,0,0:0:0:0:
448,192,37275,1,0,0:0:0:0:
64,192,37359,1,0,0:0:0:0:
192,192,37442,1,0,0:0:0:0:
448,192,37525,1,0,0:0:0:0:
320,192,37609,1,0,0:0:0:0:
64,192,37692,1,0,0:0:0:0:
320,192,37775,1,0,0:0:0:0:
192,192,37859,1,0,0:0:0:0:
448,192,37942,1,0,0:0:0:0:
320,192,38025,1,0,0:0:0:0:
64,192,38109,1,0,0:0:0:0:
448,192,38192,1,0,0:0:0:0:
192,192,38275,1,0,0:0:0:0:
448,192,38359,1,0,0:0:0:0:
320,192,38442,1,0,0:0:0:0:
192,192,38525,1,0,0:0:0:0:
64,192,38609,1,0,0:0:0:0:
320,192,38692,1,0,1:0:0:0:
448,192,38692,1,0,1:0:0:0:
192,192,38859,1,0,1:0:0:0:
64,192,39025,1,0,1:0:0:0:
320,192,39025,1,0,0:0:0:0:
192,192,39192,1,0,1:0:0:0:
448,192,39192,1,0,1:0:0:0:
64,192,39359,1,0,0:0:0:0:
320,192,39525,1,0,0:0:0:0:
64,192,39692,1,0,0:0:0:0:
448,192,39692,1,0,0:0:0:0:
320,192,39859,1,0,0:0:0:0:
64,192,40025,1,0,0:0:0:0:
448,192,40192,1,0,0:0:0:0:
192,192,40192,1,0,0:0:0:0:
64,192,40359,1,0,0:0:0:0:
320,192,40359,1,0,0:0:0:0:
192,192,40525,1,0,0:0:0:0:
64,192,40692,1,0,1:0:0:0:
448,192,40692,1,0,0:0:0:0:
320,192,40859,1,0,0:0:0:0:
192,192,41025,1,0,0:0:0:0:
64,192,41025,1,0,0:0:0:0:
320,192,41192,1,0,0:0:0:0:
192,192,41359,1,0,0:0:0:0:
448,192,41359,1,0,1:0:0:0:
320,192,41525,1,0,0:0:0:0:
64,192,41692,1,0,1:0:0:0:
192,192,41692,1,0,0:0:0:0:
448,192,41859,1,0,1:0:0:0:
320,192,41859,1,0,0:0:0:0:
64,192,42025,1,0,0:0:0:0:
320,192,42192,1,0,0:0:0:0:
64,192,42359,1,0,0:0:0:0:
448,192,42359,1,0,0:0:0:0:
320,192,42525,1,0,0:0:0:0:
64,192,42692,1,0,0:0:0:0:
192,192,42859,1,0,0:0:0:0:
448,192,42859,1,0,0:0:0:0:
64,192,43025,1,0,0:0:0:0:
320,192,43025,1,0,0:0:0:0:
192,192,43192,1,0,0:0:0:0:
448,192,43359,1,0,0:0:0:0:
64,192,43359,1,0,1:0:0:0:
320,192,43525,1,0,0:0:0:0:
192,192,43692,1,0,0:0:0:0:
64,192,43692,1,0,0:0:0:0:
320,192,43859,1,0,0:0:0:0:
448,192,44025,1,0,1:0:0:0:
64,192,44025,1,0,0:0:0:0:
192,192,44192,1,0,1:0:0:0:
448,192,44359,1,0,0:0:0:0:
320,192,44359,1,0,0:0:0:0:
64,192,44525,1,0,0:0:0:0:
192,192,44525,1,0,0:0:0:0:
448,192,44692,1,0,0:0:0:0:
320,192,44859,1,0,0:0:0:0:
64,192,45025,1,0,0:0:0:0:
448,192,45025,1,0,0:0:0:0:
320,192,45192,1,0,0:0:0:0:
448,192,45359,1,0,0:0:0:0:
64,192,45525,1,0,0:0:0:0:
320,192,45525,1,0,0:0:0:0:
192,192,45692,1,0,0:0:0:0:
448,192,45692,1,0,0:0:0:0:
320,192,45859,1,0,0:0:0:0:
192,192,46025,1,0,0:0:0:0:
64,192,46025,1,0,0:0:0:0:
320,192,46192,1,0,0:0:0:0:
448,192,46359,1,0,0:0:0:0:
64,192,46359,1,0,0:0:0:0:
320,192,46525,1,0,0:0:0:0:
64,192,46692,1,0,0:0:0:0:
192,192,46692,1,0,0:0:0:0:
320,192,46859,1,0,0:0:0:0:
448,192,47025,1,0,0:0:0:0:
64,192,47025,1,0,0:0:0:0:
320,192,47192,1,0,0:0:0:0:
192,192,47192,1,0,0:0:0:0:
448,192,47359,1,0,0:0:0:0:
320,192,47525,1,0,0:0:0:0:
192,192,47692,1,0,0:0:0:0:
64,192,47692,1,0,0:0:0:0:
448,192,47692,1,0,0:0:0:0:
320,192,47859,1,0,0:0:0:0:
448,192,48025,1,0,0:0:0:0:
320,192,48109,1,0,0:0:0:0:
192,192,48192,1,0,0:0:0:0:
320,192,48275,1,0,0:0:0:0:
64,192,48359,1,0,0:0:0:0:
192,192,48442,1,0,0:0:0:0:
320,192,48525,1,0,0:0:0:0:
192,192,48609,1,0,0:0:0:0:
64,192,48692,1,0,0:0:0:0:
192,192,48775,1,0,0:0:0:0:
320,192,48859,1,0,0:0:0:0:
448,192,48942,1,0,0:0:0:0:
64,192,49025,1,0,0:0:0:0:
320,192,49109,1,0,0:0:0:0:
192,192,49192,1,0,0:0:0:0:
448,192,49275,1,0,0:0:0:0:
64,192,49359,1,0,0:0:0:0:
320,192,49359,1,0,0:0:0:0:
448,192,49525,1,0,0:0:0:0:
192,192,49692,1,0,0:0:0:0:
64,192,49692,1,0,0:0:0:0:
320,192,49859,1,0,0:0:0:0:
448,192,49859,1,0,0:0:0:0:
64,192,50025,1,0,0:0:0:0:
192,192,50192,1,0,0:0:0:0:
320,192,50359,1,0,0:0:0:0:
448,192,50359,1,0,0:0:0:0:
192,192,50525,1,0,0:0:0:0:
64,192,50692,1,0,0:0:0:0:
192,192,50859,1,0,0:0:0:0:
448,192,50859,1,0,0:0:0:0:
320,192,51025,1,0,0:0:0:0:
64,192,51025,1,0,0:0:0:0:
192,192,51192,1,0,0:0:0:0:
448,192,51359,1,0,0:0:0:0:
64,192,51359,1,0,0:0:0:0:
192,192,51525,1,0,0:0:0:0:
320,192,51692,1,0,0:0:0:0:
448,192,51692,1,0,0:0:0:0:
192,192,51859,1,0,0:0:0:0:
64,192,52025,1,0,0:0:0:0:
448,192,52025,1,0,0:0:0:0:
320,192,52192,1,0,0:0:0:0:
192,192,52359,1,0,0:0:0:0:
448,192,52359,1,0,0:0:0:0:
320,192,52525,1,0,0:0:0:0:
64,192,52525,1,0,0:0:0:0:
192,192,52692,1,0,0:0:0:0:
320,192,52859,1,0,0:0:0:0:
64,192,53025,1,0,0:0:0:0:
448,192,53025,1,0,0:0:0:0:
320,192,53192,1,0,0:0:0:0:
192,192,53359,1,0,0:0:0:0:
64,192,53525,1,0,0:0:0:0:
320,192,53525,1,0,0:0:0:0:
448,192,53692,1,0,0:0:0:0:
192,192,53692,1,0,0:0:0:0:
320,192,53859,1,0,0:0:0:0:
448,192,54025,1,0,0:0:0:0:
64,192,54025,1,0,0:0:0:0:
192,192,54192,1,0,0:0:0:0:
320,192,54359,1,0,0:0:0:0:
448,192,54359,1,0,0:0:0:0:
192,192,54525,1,0,0:0:0:0:
448,192,54692,1,0,0:0:0:0:
64,192,54692,1,0,0:0:0:0:
192,192,54859,1,0,0:0:0:0:
320,192,55025,1,0,0:0:0:0:
64,192,55025,1,0,0:0:0:0:
192,192,55192,1,0,0:0:0:0:
448,192,55192,1,0,0:0:0:0:
320,192,55359,1,0,0:0:0:0:
448,192,55525,1,0,0:0:0:0:
192,192,55692,1,0,0:0:0:0:
64,192,55692,1,0,0:0:0:0:
448,192,55859,1,0,0:0:0:0:
192,192,56025,1,0,0:0:0:0:
64,192,56192,1,0,0:0:0:0:
448,192,56192,1,0,0:0:0:0:
192,192,56359,1,0,0:0:0:0:
320,192,56359,1,0,0:0:0:0:
448,192,56525,1,0,0:0:0:0:
192,192,56692,1,0,0:0:0:0:
64,192,56692,1,0,0:0:0:0:
320,192,56859,1,0,0:0:0:0:
448,192,57025,1,0,0:0:0:0:
64,192,57025,1,0,0:0:0:0:
320,192,57192,1,0,0:0:0:0:
448,192,57359,1,0,0:0:0:0:
192,192,57359,1,0,0:0:0:0:
320,192,57525,1,0,0:0:0:0:
192,192,57692,1,0,0:0:0:0:
320,192,57859,1,0,0:0:0:0:
64,192,57859,1,0,0:0:0:0:
192,192,58025,1,0,0:0:0:0:
448,192,58192,1,0,0:0:0:0:
192,192,58359,1,0,0:0:0:0:
320,192,58359,1,0,0:0:0:0:
448,192,58525,1,0,0:0:0:0:
64,192,58692,1,0,0:0:0:0:
192,192,58775,1,0,0:0:0:0:
320,192,58859,1,0,0:0:0:0:
192,192,58942,1,0,0:0:0:0:
448,192,59025,1,0,0:0:0:0:
320,192,59109,1,0,0:0:0:0:
192,192,59192,1,0,0:0:0:0:
320,192,59275,1,0,0:0:0:0:
64,192,59359,1,0,0:0:0:0:
192,192,59442,1,0,0:0:0:0:
448,192,59525,1,0,0:0:0:0:
320,192,59609,1,0,0:0:0:0:
64,192,59692,1,0,0:0:0:0:
320,192,59775,1,0,0:0:0:0:
192,192,59859,1,0,0:0:0:0:
448,192,59942,1,0,0:0:0:0:
64,192,60025,1,0,0:0:0:0:
192,192,60025,1,0,0:0:0:0:
448,192,60192,1,0,0:0:0:0:
320,192,60359,1,0,0:0:0:0:
64,192,60359,1,0,0:0:0:0:
192,192,60525,1,0,0:0:0:0:
448,192,60525,1,0,0:0:0:0:
64,192,60692,1,0,0:0:0:0:
448,192,60692,1,0,0:0:0:0:
192,192,60859,1,0,0:0:0:0:
320,192,60859,1,0,0:0:0:0:
448,192,61025,1,0,0:0:0:0:
320,192,61025,1,0,0:0:0:0:
64,192,61192,1,0,0:0:0:0:
192,192,61192,1,0,0:0:0:0:
448,192,61359,1,0,0:0:0:0:
320,192,61359,1,0,0:0:0:0:
320,192,61692,1,0,0:0:0:0:
192,192,61692,1,0,0:0:0:0:
192,192,62025,1,0,0:0:0:0:
64,192,62025,1,0,0:0:0:0:
192,192,62359,1,0,0:0:0:0:
320,192,62359,1,0,0:0:0:0:
64,192,62692,1,0,0:0:0:0:
192,192,62692,128,0,63192:0:0:0:0:
448,192,62859,1,0,0:0:0:0:
64,192,63025,1,0,0:0:0:0:
448,192,63192,128,0,64025:0:0:0:0:
320,192,63192,1,0,0:0:0:0:
64,192,63359,1,0,0:0:0:0:
320,192,63525,1,0,0:0:0:0:
192,192,63692,1,0,0:0:0:0:
320,192,63859,1,0,0:0:0:0:
64,192,64025,1,0,0:0:0:0:
320,192,64192,1,0,0:0:0:0:
192,192,64359,1,0,0:0:0:0:
448,192,64359,1,0,0:0:0:0:
320,192,64525,1,0,0:0:0:0:
448,192,64525,1,0,0:0:0:0:
192,192,64692,1,0,0:0:0:0:
448,192,64692,1,0,0:0:0:0:
320,192,64859,1,0,0:0:0:0:
64,192,64859,1,0,0:0:0:0:
64,192,65025,1,0,0:0:0:0:
192,192,65025,1,0,0:0:0:0:
448,192,65192,1,0,0:0:0:0:
64,192,65192,1,0,0:0:0:0:
192,192,65359,1,0,0:0:0:0:
320,192,65359,1,0,0:0:0:0:
448,192,65525,1,0,0:0:0:0:
192,192,65692,1,0,0:0:0:0:
320,192,65859,1,0,0:0:0:0:
64,192,65859,1,0,0:0:0:0:
192,192,66025,1,0,0:0:0:0:
320,192,66192,1,0,0:0:0:0:
448,192,66359,1,0,0:0:0:0:
192,192,66359,1,0,0:0:0:0:
320,192,66525,1,0,0:0:0:0:
192,192,66692,1,0,0:0:0:0:
64,192,66692,1,0,0:0:0:0:
448,192,66859,1,0,0:0:0:0:
192,192,67025,1,0,0:0:0:0:
64,192,67025,1,0,0:0:0:0:
448,192,67192,128,0,67525:0:0:0:0:
320,192,67192,1,0,0:0:0:0:
192,192,67359,1,0,0:0:0:0:
320,192,67525,128,0,68025:0:0:0:0:
64,192,67525,1,0,0:0:0:0:
192,192,67692,1,0,0:0:0:0:
448,192,67859,1,0,0:0:0:0:
192,192,68025,128,0,69025:0:0:0:0:
64,192,68025,1,0,0:0:0:0:
448,192,68192,1,0,0:0:0:0:
320,192,68359,1,0,0:0:0:0:
448,192,68525,1,0,0:0:0:0:
64,192,68692,1,0,0:0:0:0:
448,192,68859,1,0,0:0:0:0:
320,192,69025,1,0,0:0:0:0:
448,192,69192,1,0,0:0:0:0:
64,192,69359,1,0,0:0:0:0:
192,192,69442,1,0,0:0:0:0:
320,192,69525,1,0,0:0:0:0:
192,192,69609,1,0,0:0:0:0:
448,192,69692,1,0,0:0:0:0:
320,192,69775,1,0,0:0:0:0:
192,192,69859,1,0,0:0:0:0:
320,192,69942,1,0,0:0:0:0:
64,192,70025,1,0,0:0:0:0:
320,192,70109,1,0,0:0:0:0:
448,192,70192,1,0,0:0:0:0:
192,192,70275,1,0,0:0:0:0:
448,192,70359,1,0,0:0:0:0:
192,192,70442,1,0,0:0:0:0:
64,192,70525,1,0,0:0:0:0:
320,192,70609,1,0,0:0:0:0:
64,192,70692,1,0,0:0:0:0:
192,192,70692,1,0,0:0:0:0:
320,192,70859,1,0,0:0:0:0:
192,192,71025,1,0,0:0:0:0:
320,192,71192,1,0,0:0:0:0:
448,192,71192,1,0,0:0:0:0:
192,192,71359,1,0,0:0:0:0:
320,192,71525,1,0,0:0:0:0:
192,192,71692,1,0,0:0:0:0:
448,192,71692,1,0,0:0:0:0:
320,192,71859,1,0,0:0:0:0:
448,192,72025,1,0,0:0:0:0:
64,192,72025,1,0,0:0:0:0:
192,192,72359,1,0,0:0:0:0:
320,192,72359,1,0,0:0:0:0:
64,192,72692,1,0,0:0:0:0:
320,192,72692,1,0,0:0:0:0:
192,192,73025,1,0,0:0:0:0:
320,192,73025,1,0,0:0:0:0:
320,192,73359,128,0,73692:0:0:0:0:
448,192,73359,1,0,0:0:0:0:
192,192,73525,1,0,0:0:0:0:
64,192,73692,1,0,0:0:0:0:
448,192,73859,128,0,74692:0:0:0:0:
192,192,73859,1,0,0:0:0:0:
320,192,74025,1,0,0:0:0:0:
192,192,74192,1,0,0:0:0:0:
64,192,74359,1,0,0:0:0:0:
192,192,74525,1,0,0:0:0:0:
64,192,74692,1,0,0:0:0:0:
192,192,74859,1,0,0:0:0:0:
320,192,75025,1,0,0:0:0:0:
448,192,75025,1,0,0:0:0:0:
448,192,75192,1,0,0:0:0:0:
64,192,75192,1,0,0:0:0:0:
320,192,75359,1,0,0:0:0:0:
448,192,75359,1,0,0:0:0:0:
192,192,75525,1,0,0:0:0:0:
320,192,75525,1,0,0:0:0:0:
64,192,75692,1,0,0:0:0:0:
192,192,75692,1,0,0:0:0:0:
448,192,75859,1,0,0:0:0:0:
64,192,75859,1,0,0:0:0:0:
192,192,76025,1,0,0:0:0:0:
320,192,76025,1,0,0:0:0:0:
448,192,76192,1,0,0:0:0:0:
64,192,76359,1,0,0:0:0:0:
320,192,76525,1,0,0:0:0:0:
448,192,76525,1,0,0:0:0:0:
64,192,76692,1,0,0:0:0:0:
192,192,76859,1,0,0:0:0:0:
320,192,77025,1,0,0:0:0:0:
64,192,77025,1,0,0:0:0:0:
192,192,77192,1,0,0:0:0:0:
64,192,77359,1,0,0:0:0:0:
448,192,77359,1,0,0:0:0:0:
320,192,77525,1,0,0:0:0:0:
64,192,77692,1,0,0:0:0:0:
192,192,77692,1,0,0:0:0:0:
448,192,77859,1,0,0:0:0:0:
320,192,77859,1,0,0:0:0:0:
64,192,78192,1,0,0:0:0:0:
448,192,78192,1,0,0:0:0:0:
320,192,78359,1,0,0:0:0:0:
192,192,78442,1,0,0:0:0:0:
320,192,78525,1,0,0:0:0:0:
192,192,78609,1,0,0:0:0:0:
64,192,78692,128,0,80025:0:0:0:0:
448,192,78692,1,0,0:0:0:0:
192,192,78859,1,0,0:0:0:0:
320,192,79025,1,0,0:0:0:0:
192,192,79192,1,0,0:0:0:0:
448,192,79359,1,0,0:0:0:0:
192,192,79525,1,0,0:0:0:0:
320,192,79692,1,0,0:0:0:0:
192,192,79859,1,0,0:0:0:0:
448,192,80025,1,0,0:0:0:0:
320,192,80109,1,0,0:0:0:0:
192,192,80192,1,0,0:0:0:0:
320,192,80275,1,0,0:0:0:0:
64,192,80359,1,0,0:0:0:0:
192,192,80442,1,0,0:0:0:0:
320,192,80525,1,0,0:0:0:0:
192,192,80609,1,0,0:0:0:0:
448,192,80692,1,0,0:0:0:0:
192,192,80775,1,0,0:0:0:0:
320,192,80859,1,0,0:0:0:0:
64,192,80942,1,0,0:0:0:0:
448,192,81025,1,0,0:0:0:0:
192,192,81109,1,0,0:0:0:0:
320,192,81192,1,0,0:0:0:0:
64,192,81275,1,0,0:0:0:0:
448,192,81359,128,0,86359:0:0:0:0:
320,192,81359,1,0,0:0:0:0:
64,192,81525,1,0,0:0:0:0:
192,192,81692,1,0,0:0:0:0:
64,192,81859,1,0,0:0:0:0:
320,192,82025,1,0,0:0:0:0:
64,192,82192,1,0,0:0:0:0:
192,192,82359,1,0,0:0:0:0:
64,192,82525,1,0,0:0:0:0:
320,192,82692,1,0,0:0:0:0:
64,192,82859,1,0,0:0:0:0:
192,192,83025,1,0,0:0:0:0:
64,192,83192,1,0,0:0:0:0:
320,192,83359,1,0,0:0:0:0:
64,192,83525,1,0,0:0:0:0:
192,192,83692,1,0,0:0:0:0:
64,192,83859,1,0,0:0:0:0:
320,192,84025,1,0,0:0:0:0:
64,192,84192,1,0,0:0:0:0:
192,192,84359,1,0,0:0:0:0:
64,192,84525,1,0,0:0:0:0:
320,192,84692,1,0,0:0:0:0:
64,192,84859,1,0,0:0:0:0:
192,192,85025,1,0,0:0:0:0:
64,192,85192,1,0,0:0:0:0:
320,192,85359,1,0,0:0:0:0:
64,192,85525,1,0,0:0:0:0:
192,192,85692,1,0,0:0:0:0:
64,192,85859,1,0,0:0:0:0:
320,192,86025,1,0,0:0:0:0:
64,192,86192,1,0,0:0:0:0:
192,192,86359,1,0,0:0:0:0:
64,192,86525,1,0,0:0:0:0:
320,192,86692,1,0,0:0:0:0:
448,192,86692,1,0,0:0:0:0:
192,192,86859,1,0,0:0:0:0:
64,192,87025,1,0,0:0:0:0:
320,192,87025,1,0,0:0:0:0:
448,192,87192,1,0,0:0:0:0:
64,192,87359,1,0,0:0:0:0:
192,192,87359,1,0,0:0:0:0:
320,192,87525,1,0,0:0:0:0:
64,192,87692,1,0,0:0:0:0:
448,192,87692,1,0,0:0:0:0:
192,192,87859,1,0,0:0:0:0:
320,192,88025,1,0,0:0:0:0:
448,192,88025,1,0,0:0:0:0:
192,192,88192,1,0,0:0:0:0:
448,192,88359,1,0,0:0:0:0:
64,192,88359,1,0,0:0:0:0:
320,192,88525,1,0,0:0:0:0:
64,192,88692,1,0,0:0:0:0:
192,192,88692,1,0,0:0:0:0:
320,192,88859,1,0,0:0:0:0:
448,192,89025,1,0,0:0:0:0:
192,192,89025,1,0,0:0:0:0:
320,192,89192,1,0,0:0:0:0:
64,192,89359,1,0,0:0:0:0:
192,192,89359,1,0,0:0:0:0:
320,192,89525,1,0,0:0:0:0:
64,192,89692,1,0,0:0:0:0:
448,192,89692,1,0,0:0:0:0:
192,192,89859,1,0,0:0:0:0:
320,192,90025,1,0,0:0:0:0:
448,192,90025,1,0,0:0:0:0:
192,192,90192,1,0,0:0:0:0:
64,192,90359,1,0,0:0:0:0:
448,192,90359,1,0,0:0:0:0:
192,192,90525,1,0,0:0:0:0:
448,192,90692,1,0,0:0:0:0:
320,192,90775,1,0,0:0:0:0:
192,192,90859,1,0,0:0:0:0:
320,192,90942,1,0,0:0:0:0:
64,192,91025,1,0,0:0:0:0:
192,192,91109,1,0,0:0:0:0:
320,192,91192,1,0,0:0:0:0:
192,192,91275,1,0,0:0:0:0:
448,192,91359,1,0,0:0:0:0:
192,192,91442,1,0,0:0:0:0:
320,192,91525,1,0,0:0:0:0:
64,192,91609,1,0,0:0:0:0:
448,192,91692,1,0,0:0:0:0:
320,192,91775,1,0,0:0:0:0:
192,192,91859,1,0,0:0:0:0:
64,192,91942,1,0,0:0:0:0:
192,192,92025,1,0,0:0:0:0:
320,192,92025,1,0,0:0:0:0:
448,192,92192,1,0,0:0:0:0:
192,192,92359,1,0,0:0:0:0:
448,192,92525,1,0,0:0:0:0:
64,192,92525,1,0,0:0:0:0:
320,192,92692,1,0,0:0:0:0:
448,192,92859,1,0,0:0:0:0:
320,192,93025,1,0,0:0:0:0:
64,192,93025,1,0,0:0:0:0:
192,192,93192,1,0,0:0:0:0:
448,192,93359,1,0,0:0:0:0:
192,192,93525,1,0,0:0:0:0:
64,192,93525,1,0,0:0:0:0:
320,192,93692,1,0,0:0:0:0:
64,192,93859,1,0,0:0:0:0:
192,192,94025,1,0,0:0:0:0:
320,192,94025,1,0,0:0:0:0:
192,192,94192,1,0,0:0:0:0:
320,192,94359,1,0,0:0:0:0:
64,192,94359,1,0,0:0:0:0:
448,192,94359,1,0,0:0:0:0:
64,192,94525,1,0,0:0:0:0:
192,192,94692,1,0,0:0:0:0:
320,192,94692,1,0,0:0:0:0:
448,192,94859,1,0,0:0:0:0:
192,192,95025,1,0,0:0:0:0:
64,192,95192,1,0,0:0:0:0:
448,192,95192,1,0,0:0:0:0:
320,192,95359,1,0,0:0:0:0:
64,192,95525,1,0,0:0:0:0:
448,192,95692,1,0,0:0:0:0:
320,192,95692,1,0,0:0:0:0:
192,192,95859,1,0,0:0:0:0:
448,192,96025,1,0,0:0:0:0:
320,192,96192,1,0,0:0:0:0:
64,192,96192,1,0,0:0:0:0:
448,192,96359,1,0,0:0:0:0:
64,192,96525,1,0,0:0:0:0:
192,192,96692,1,0,0:0:0:0:
320,192,96692,1,0,0:0:0:0:
192,192,96859,1,0,0:0:0:0:
448,192,97025,1,0,0:0:0:0:
320,192,97025,1,0,0:0:0:0:
64,192,97025,1,0,0:0:0:0:
64,192,97192,1,0,0:0:0:0:
320,192,97359,1,0,0:0:0:0:
192,192,97359,1,0,0:0:0:0:
448,192,97525,1,0,0:0:0:0:
192,192,97692,1,0,0:0:0:0:
64,192,97859,1,0,0:0:0:0:
448,192,97859,1,0,0:0:0:0:
320,192,98025,1,0,0:0:0:0:
64,192,98192,1,0,0:0:0:0:
320,192,98359,1,0,0:0:0:0:
448,192,98359,1,0,0:0:0:0:
192,192,98525,1,0,0:0:0:0:
64,192,98692,1,0,0:0:0:0:
192,192,98859,1,0,0:0:0:0:
320,192,98859,1,0,0:0:0:0:
448,192,99025,1,0,0:0:0:0:
64,192,99192,1,0,0:0:0:0:
192,192,99359,1,0,0:0:0:0:
320,192,99359,1,0,0:0:0:0:
192,192,99525,1,0,0:0:0:0:
320,192,99692,1,0,0:0:0:0:
448,192,99692,1,0,0:0:0:0:
64,192,99692,1,0,0:0:0:0:
64,192,99859,1,0,0:0:0:0:
320,192,100025,1,0,0:0:0:0:
192,192,100025,1,0,0:0:0:0:
448,192,100192,1,0,0:0:0:0:
192,192,100359,1,0,0:0:0:0:
64,192,100525,1,0,0:0:0:0:
448,192,100525,1,0,0:0:0:0:
320,192,100692,1,0,0:0:0:0:
64,192,100859,1,0,0:0:0:0:
320,192,101025,1,0,0:0:0:0:
448,192,101025,1,0,0:0:0:0:
192,192,101192,1,0,0:0:0:0:
64,192,101359,1,0,0:0:0:0:
320,192,101442,1,0,0:0:0:0:
192,192,101525,1,0,0:0:0:0:
64,192,101609,1,0,0:0:0:0:
448,192,101692,1,0,0:0:0:0:
192,192,101775,1,0,0:0:0:0:
320,192,101859,1,0,0:0:0:0:
448,192,101942,1,0,0:0:0:0:
64,192,102025,1,0,0:0:0:0:
192,192,102109,1,0,0:0:0:0:
320,192,102192,1,0,0:0:0:0:
448,192,102275,1,0,0:0:0:0:
64,192,102359,1,0,0:0:0:0:
320,192,102442,1,0,0:0:0:0:
64,192,102525,1,0,0:0:0:0:
448,192,102609,1,0,0:0:0:0:
64,192,102692,1,0,0:0:0:0:
192,192,102692,1,0,0:0:0:0:
192,192,103025,1,0,0:0:0:0:
64,192,103192,1,0,0:0:0:0:
320,192,103359,1,0,0:0:0:0:
192,192,103525,1,0,0:0:0:0:
448,192,103692,1,0,0:0:0:0:
320,192,103859,1,0,0:0:0:0:
448,192,104025,1,0,0:0:0:0:
320,192,104359,1,0,0:0:0:0:
192,192,104692,1,0,0:0:0:0:
320,192,105025,1,0,0:0:0:0:
64,192,105359,1,0,0:0:0:0:
448,192,105359,1,0,0:0:0:0:
192,192,105525,1,0,0:0:0:0:
320,192,105692,1,0,0:0:0:0:
64,192,105859,128,0,107025:0:0:0:0:
448,192,105859,1,0,0:0:0:0:
320,192,106025,1,0,0:0:0:0:
448,192,106192,1,0,0:0:0:0:
320,192,106359,1,0,0:0:0:0:
192,192,106525,1,0,0:0:0:0:
448,192,106692,1,0,0:0:0:0:
192,192,106859,1,0,0:0:0:0:
320,192,107025,1,0,0:0:0:0:
448,192,107192,1,0,0:0:0:0:
320,192,107359,1,0,0:0:0:0:
192,192,107525,1,0,0:0:0:0:
320,192,107692,1,0,0:0:0:0:
64,192,107859,1,0,0:0:0:0:
64,192,108025,1,0,0:0:0:0:
192,192,108525,1,0,0:0:0:0:
320,192,109025,1,0,0:0:0:0:
448,192,109359,1,0,0:0:0:0:
320,192,109692,1,0,0:0:0:0:
64,192,109859,1,0,0:0:0:0:
192,192,110192,1,0,0:0:0:0:
320,192,110692,128,0,112025:0:0:0:0:
448,192,110692,1,0,0:0:0:0:
192,192,110859,1,0,0:0:0:0:
64,192,111025,1,0,0:0:0:0:
192,192,111192,1,0,0:0:0:0:
64,192,111359,1,0,0:0:0:0:
192,192,111525,1,0,0:0:0:0:
448,192,111692,1,0,0:0:0:0:
192,192,111859,1,0,0:0:0:0:
448,192,112025,1,0,0:0:0:0:
192,192,112192,1,0,0:0:0:0:
320,192,112359,1,0,0:0:0:0:
64,192,112359,1,0,0:0:0:0:
448,192,112525,1,0,0:0:0:0:
192,192,112525,1,0,0:0:0:0:
320,192,112692,1,0,0:0:0:0:
64,192,112692,1,0,0:0:0:0:
192,192,112859,1,0,0:0:0:0:
320,192,112859,1,0,0:0:0:0:
64,192,113025,1,0,0:0:0:0:
192,192,113025,1,0,0:0:0:0:
448,192,113192,1,0,0:0:0:0:
64,192,113192,1,0,0:0:0:0:
64,192,113359,1,0,0:0:0:0:
192,192,113359,1,0,0:0:0:0:
320,192,113359,1,0,0:0:0:0:
448,192,113692,1,0,0:0:0:0:
192,192,113859,1,0,0:0:0:0:
320,192,114359,1,0,0:0:0:0:
64,192,114359,1,0,0:0:0:0:
448,192,114692,1,0,0:0:0:0:
320,192,115025,1,0,0:0:0:0:
64,192,115025,1,0,0:0:0:0:
192,192,115359,1,0,0:0:0:0:
320,192,115692,1,0,0:0:0:0:
64,192,115692,1,0,0:0:0:0:
448,192,116025,128,0,116359:0:0:0:0:
64,192,116025,1,0,0:0:0:0:
320,192,116192,1,0,0:0:0:0:
192,192,116359,1,0,0:0:0:0:
320,192,116525,128,0,117359:0:0:0:0:
64,192,116525,1,0,0:0:0:0:
448,192,116692,1,0,0:0:0:0:
64,192,116859,1,0,0:0:0:0:
192,192,117025,1,0,0:0:0:0:
448,192,117192,1,0,0:0:0:0:
64,192,117359,1,0,0:0:0:0:
192,192,117525,1,0,0:0:0:0:
320,192,117692,1,0,0:0:0:0:
448,192,117859,1,0,0:0:0:0:
320,192,118025,1,0,0:0:0:0:
192,192,118192,1,0,0:0:0:0:
320,192,118359,1,0,0:0:0:0:
64,192,118525,1,0,0:0:0:0:
320,192,118692,1,0,0:0:0:0:
448,192,118692,1,0,0:0:0:0:
192,192,119192,1,0,0:0:0:0:
320,192,119692,1,0,0:0:0:0:
448,192,120025,1,0,0:0:0:0:
192,192,120359,1,0,0:0:0:0:
320,192,120525,1,0,0:0:0:0:
448,192,120859,1,0,0:0:0:0:
64,192,121359,1,0,0:0:0:0:
320,192,121442,1,0,0:0:0:0:
192,192,121525,1,0,0:0:0:0:
320,192,121609,1,0,0:0:0:0:
448,192,121692,1,0,0:0:0:0:
192,192,121775,1,0,0:0:0:0:
320,192,121859,1,0,0:0:0:0:
192,192,121942,1,0,0:0:0:0:
64,192,122025,1,0,0:0:0:0:
192,192,122109,1,0,0:0:0:0:
320,192,122192,1,0,0:0:0:0:
192,192,122275,1,0,0:0:0:0:
448,192,122359,1,0,0:0:0:0:
320,192,122442,1,0,0:0:0:0:
192,192,122525,1,0,0:0:0:0:
320,192,122609,1,0,0:0:0:0:
64,192,122692,1,0,0:0:0:0:
192,192,122775,1,0,0:0:0:0:
320,192,122859,1,0,0:0:0:0:
448,192,122942,1,0,0:0:0:0:
64,192,123025,1,0,0:0:0:0:
320,192,123109,1,0,0:0:0:0:
192,192,123192,1,0,0:0:0:0:
448,192,123275,1,0,0:0:0:0:
320,192,123359,1,0,0:0:0:0:
192,192,123442,1,0,0:0:0:0:
448,192,123525,1,0,0:0:0:0:
192,192,123609,1,0,0:0:0:0:
64,192,123692,1,0,0:0:0:0:
320,192,123775,1,0,0:0:0:0:
192,192,123859,1,0,0:0:0:0:
320,192,123942,1,0,0:0:0:0:
192,192,124025,1,0,0:0:0:0:
64,192,124025,1,0,0:0:0:0:
320,192,124359,1,8,0:0:0:0:
448,192,124359,1,8,0:0:0:0:
64,192,124442,1,0,0:0:0:0:
192,192,124442,1,0,0:0:0:0:
320,192,124525,1,0,0:0:0:0:
448,192,124525,1,0,0:0:0:0:
192,192,124859,1,0,0:0:0:0:
64,192,124859,1,0,0:0:0:0:
448,192,124942,1,0,0:0:0:0:
320,192,124942,1,0,0:0:0:0:
192,192,125025,1,8,0:0:0:0:
64,192,125025,1,8,0:0:0:0:
320,192,125359,1,0,0:0:0:0:
448,192,125359,1,0,0:0:0:0:
64,192,125442,1,0,0:0:0:0:
192,192,125442,1,0,0:0:0:0:
320,192,125525,1,0,0:0:0:0:
448,192,125525,1,0,0:0:0:0:
192,192,125692,1,8,0:0:0:0:
320,192,125692,1,8,0:0:0:0:
192,192,125859,1,0,0:0:0:0:
64,192,125859,1,0,0:0:0:0:
448,192,125942,1,0,0:0:0:0:
320,192,125942,1,0,0:0:0:0:
192,192,126025,1,0,0:0:0:0:
64,192,126025,1,0,0:0:0:0:
320,192,126359,1,8,0:0:0:0:
448,192,126359,1,8,0:0:0:0:
64,192,126442,1,0,0:0:0:0:
192,192,126442,1,0,0:0:0:0:
320,192,126525,128,0,126859:0:0:0:0:
448,192,126525,1,0,0:0:0:0:
448,192,126859,1,0,0:0:0:0:
192,192,126942,1,0,0:0:0:0:
320,192,127025,1,0,0:0:0:0:
64,192,127109,1,0,0:0:0:0:
448,192,127192,1,0,0:0:0:0:
320,192,127275,1,0,0:0:0:0:
448,192,127359,1,0,0:0:0:0:
192,192,127442,1,0,0:0:0:0:
320,192,127525,1,0,0:0:0:0:
64,192,127609,1,0,0:0:0:0:
448,192,127692,1,0,0:0:0:0:
320,192,127775,1,0,0:0:0:0:
192,192,127859,1,0,0:0:0:0:
64,192,127942,1,0,0:0:0:0:
448,192,128025,1,0,0:0:0:0:
64,192,128109,1,0,0:0:0:0:
192,192,128192,1,0,0:0:0:0:
320,192,128275,1,0,0:0:0:0:
64,192,128359,1,0,0:0:0:0:
192,192,128442,1,0,0:0:0:0:
320,192,128525,1,0,0:0:0:0:
448,192,128609,1,0,0:0:0:0:
64,192,128692,1,0,0:0:0:0:
192,192,128775,1,0,0:0:0:0:
320,192,128859,1,0,0:0:0:0:
192,192,128942,1,0,0:0:0:0:
448,192,129025,1,0,0:0:0:0:
320,192,129109,1,0,0:0:0:0:
192,192,129192,1,0,0:0:0:0:
64,192,129275,1,0,0:0:0:0:
320,192,129359,1,0,0:0:0:0:
64,192,129442,1,0,0:0:0:0:
192,192,129525,1,0,0:0:0:0:
320,192,129609,1,0,0:0:0:0:
64,192,129692,1,0,0:0:0:0:
192,192,129775,1,0,0:0:0:0:
320,192,129859,1,0,0:0:0:0:
192,192,129942,1,0,0:0:0:0:
64,192,130025,1,0,0:0:0:0:
320,192,130109,1,0,0:0:0:0:
448,192,130192,1,0,0:0:0:0:
320,192,130275,1,0,0:0:0:0:
192,192,130359,1,0,0:0:0:0:
320,192,130442,1,0,0:0:0:0:
448,192,130525,1,0,0:0:0:0:
320,192,130609,1,0,0:0:0:0:
64,192,130692,128,0,131192:0:0:0:0:
448,192,130859,1,0,0:0:0:0:
320,192,131025,1,0,0:0:0:0:
192,192,131025,1,0,0:0:0:0:
448,192,131192,128,0,131692:0:0:0:0:
320,192,131359,1,0,0:0:0:0:
192,192,131525,1,0,0:0:0:0:
320,192,131692,128,0,132025:0:0:0:0:
64,192,131692,1,0,0:0:0:0:
192,192,131859,1,0,0:0:0:0:
64,192,132025,128,0,133359:0:0:0:0:
448,192,132025,1,0,0:0:0:0:
192,192,132192,1,0,0:0:0:0:
320,192,132359,1,0,0:0:0:0:
448,192,132359,1,0,0:0:0:0:
192,192,132525,1,0,0:0:0:0:
448,192,132692,1,0,0:0:0:0:
192,192,132859,1,0,0:0:0:0:
320,192,133025,1,0,0:0:0:0:
448,192,133025,1,0,0:0:0:0:
192,192,133192,1,0,0:0:0:0:
320,192,133359,1,0,0:0:0:0:
448,192,133442,1,0,0:0:0:0:
192,192,133525,1,0,0:0:0:0:
64,192,133609,1,0,0:0:0:0:
320,192,133692,1,0,0:0:0:0:
448,192,133775,1,0,0:0:0:0:
192,192,133859,1,0,0:0:0:0:
64,192,133942,1,0,0:0:0:0:
320,192,134025,1,0,0:0:0:0:
448,192,134109,1,0,0:0:0:0:
192,192,134192,1,0,0:0:0:0:
64,192,134275,1,0,0:0:0:0:
320,192,134359,1,0,0:0:0:0:
448,192,134442,1,0,0:0:0:0:
192,192,134525,1,0,0:0:0:0:
64,192,134609,1,0,0:0:0:0:
448,192,134692,1,0,0:0:0:0:
320,192,134775,1,0,0:0:0:0:
192,192,134859,1,0,0:0:0:0:
320,192,134942,1,0,0:0:0:0:
64,192,135025,1,0,0:0:0:0:
192,192,135109,1,0,0:0:0:0:
448,192,135192,1,0,0:0:0:0:
320,192,135275,1,0,0:0:0:0:
192,192,135359,1,0,0:0:0:0:
320,192,135442,1,0,0:0:0:0:
64,192,135525,1,0,0:0:0:0:
192,192,135609,1,0,0:0:0:0:
448,192,135692,1,0,0:0:0:0:
192,192,135775,1,0,0:0:0:0:
64,192,135859,1,0,0:0:0:0:
192,192,135942,1,0,0:0:0:0:
448,192,136025,1,0,0:0:0:0:
320,192,136109,1,0,0:0:0:0:
448,192,136192,1,0,0:0:0:0:
192,192,136275,1,0,0:0:0:0:
64,192,136359,1,0,0:0:0:0:
192,192,136442,1,0,0:0:0:0:
448,192,136525,1,0,0:0:0:0:
320,192,136609,1,0,0:0:0:0:
448,192,136692,1,0,0:0:0:0:
192,192,136775,1,0,0:0:0:0:
64,192,136859,1,0,0:0:0:0:
192,192,136942,1,0,0:0:0:0:
320,192,137025,1,0,0:0:0:0:
448,192,137109,1,0,0:0:0:0:
64,192,137192,1,0,0:0:0:0:
320,192,137275,1,0,0:0:0:0:
64,192,137359,128,0,138025:0:0:0:0:
448,192,137525,1,0,0:0:0:0:
192,192,137692,1,0,0:0:0:0:
320,192,137692,1,0,0:0:0:0:
448,192,137859,1,0,0:0:0:0:
192,192,138025,1,0,0:0:0:0:
320,192,138192,1,0,0:0:0:0:
192,192,138275,1,0,0:0:0:0:
64,192,138359,1,0,0:0:0:0:
448,192,138525,1,0,0:0:0:0:
192,192,138525,1,0,0:0:0:0:
64,192,138692,1,0,0:0:0:0:
320,192,138775,1,0,0:0:0:0:
192,192,138859,1,0,0:0:0:0:
448,192,138942,1,0,0:0:0:0:
64,192,139025,1,0,0:0:0:0:
320,192,139109,1,0,0:0:0:0:
192,192,139192,1,0,0:0:0:0:
448,192,139275,1,0,0:0:0:0:
64,192,139359,1,0,0:0:0:0:
192,192,139359,1,0,0:0:0:0:
320,192,139442,1,0,0:0:0:0:
448,192,139442,1,0,0:0:0:0:
64,192,139525,1,0,0:0:0:0:
192,192,139525,1,0,0:0:0:0:
320,192,139609,1,0,0:0:0:0:
448,192,139609,1,0,0:0:0:0:
192,192,139692,1,0,0:0:0:0:
64,192,139692,1,0,0:0:0:0:
320,192,139775,1,0,0:0:0:0:
448,192,139775,1,0,0:0:0:0:
192,192,139859,1,0,0:0:0:0:
64,192,139859,1,0,0:0:0:0:
320,192,139942,1,0,0:0:0:0:
448,192,139942,1,0,0:0:0:0:
64,192,140025,128,0,141025:0:0:0:0:
192,192,140025,128,0,141025:0:0:0:0:
448,192,141025,1,0,0:0:0:0:
320,192,141192,1,0,0:0:0:0:
448,192,141192,1,0,0:0:0:0:
64,192,141525,1,0,0:0:0:0:
448,192,141525,1,0,0:0:0:0:
192,192,141692,1,0,0:0:0:0:
448,192,141692,1,0,0:0:0:0:
320,192,141859,128,0,142192:0:0:0:0:
192,192,141859,1,0,0:0:0:0:
64,192,142192,128,0,142692:0:0:0:0:
192,192,142192,1,0,0:0:0:0:
448,192,142359,1,0,0:0:0:0:
192,192,142442,1,0,0:0:0:0:
448,192,142525,1,0,0:0:0:0:
192,192,142609,1,0,0:0:0:0:
320,192,142692,1,0,0:0:0:0:
448,192,142692,1,0,0:0:0:0:
