osu file format v9

[General]
AudioFilename: Aeon of Eyes.mp3
AudioLeadIn: 500
PreviewTime: 60006
Countdown: 0
SampleSet: Normal
StackLeniency: 0.7
Mode: 0
LetterboxInBreaks: 1

[Editor]
DistanceSpacing: 0.8
BeatDivisor: 4
GridSize: 8

[Metadata]
Title:Eye of Aeon
Artist:Shoichiro Sakamoto
Creator:KanaRin
Version:Normal
Source:11eyes
Tags:kanpakyin aesopl19193 Sandpig Rucker lass 5pb.games lkp

[Difficulty]
HPDrainRate:4
CircleSize:4
OverallDifficulty:3
ApproachRate:5
SliderMultiplier:0.999999999999999
SliderTickRate:1

[Events]
//Background and Video events
0,0,"BG.jpg"
//Break Periods
2,34205,37473
2,102873,112139
//Storyboard Layer 0 (Background)
//Storyboard Layer 1 (Fail)
//Storyboard Layer 2 (Pass)
//Storyboard Layer 3 (Foreground)
//Storyboard Sound Samples
//Background Colour Transformations
3,100,163,162,255

[TimingPoints]
1340,333.333333333333,4,2,1,50,1,0
22673,-100,4,1,1,50,0,0
27923,-100,4,1,0,50,0,0
28089,-100,4,1,1,50,0,0
33256,-100,4,2,1,50,0,0
33423,-100,4,1,1,0,0,0
38673,-100,4,1,2,50,0,0
60006,-100,4,1,2,50,0,1
81339,-100,4,1,2,50,0,0
113339,-100,4,2,1,50,0,0
124006,-100,4,1,1,50,0,1
142673,-100,4,1,1,50,0,0

[Colours]
Combo1 : 255,164,119
Combo2 : 255,255,255
Combo3 : 253,187,66

[HitObjects]
166,159,1340,5,4
166,159,1673,1,2
166,159,2006,1,0
166,159,2339,2,0,B|63:159,2,99.9999999999999,0|8|0
153,238,3339,2,0,B|357:239,1,200,0|2
331,316,4339,2,0,B|256:294|252:182|348:158,1,200,0|2
271,109,5339,6,0,B|171:171|73:96,2,200,8|2|4
272,28,7006,1,0
272,28,7339,2,0,B|262:128|270:236,1,200,2|8
346,204,8339,2,0,B|339:262|348:316,2,99.9999999999999,0|2|0
425,196,9339,6,0,B|423:145|363:117,1,99.9999999999999,4|0
336,193,10006,2,0,B|285:167|218:172,1,99.9999999999999
257,249,10673,2,0,B|199:251|161:290,1,99.9999999999999,8|0
231,331,11339,2,0,B|441:331,2,200,0|6|0
250,253,13006,1,0
250,253,13339,2,0,B|309:256|346:208,1,99.9999999999999,8|0
397,158,14006,2,0,B|442:123|505:128,2,99.9999999999999,0|0|2
316,158,15006,2,0,B|109:159,1,200,0|2
123,238,16006,6,0,B|67:254|41:309,2,99.9999999999999,8|0|0
125,318,17006,2,0,B|130:215|124:115,1,200,2|0
201,140,18006,1,0
201,140,18339,2,0,B|195:97|203:39,2,99.9999999999999,2|8|8
229,214,19339,2,0,B|262:267|321:281,1,99.9999999999999,8|8
311,196,20006,6,0,B|412:222|512:195,2,200,8|8|8
353,128,21673,2,0,B|299:109|272:66,1,99.9999999999999,8|8
348,39,22339,1,8
348,39,22673,6,0,B|136:40,1,200,4|0
120,115,23673,2,0,B|60:91|61:40,2,99.9999999999999,8|0|8
117,195,24673,1,0
117,195,24839,1,0
117,195,25006,6,0,B|98:286|98:286|158:317|129:394,2,200,8|8|8
117,195,26506,1,4
186,235,26839,2,4,B|293:232,1,99.9999999999999
331,166,27506,1,0
331,166,27673,2,0,B|442:160,2,99.9999999999999,8|4|8
328,85,28673,5,0
328,85,28839,1,8
328,85,29006,2,8,B|293:74|258:73,1,50
211,117,29506,2,8,B|158:121|99:115,1,99.9999999999999
120,195,30173,1,0
120,195,30339,2,0,B|78:196|78:196|60:206|60:206|16:207,2,99.9999999999999,4|0|8
118,275,31339,5,0
118,275,31506,1,8
118,275,31673,2,8,B|154:279|188:286,1,50
247,289,32173,2,4,B|282:251|353:233,1,99.9999999999999
343,318,32839,1,4
343,318,33339,2,0,B|342:107,1,200,4|0
182,127,38673,6,0,B|148:133|148:133|124:162|89:156,2,99.9999999999999,0|8|0
186,207,39673,1,8
186,207,39839,2,0,B|187:315,1,99.9999999999999
266,301,40506,1,0
266,301,40673,2,0,B|265:342|252:367,2,50,0|0|8
337,265,41339,6,0,B|344:211|338:146,1,99.9999999999999,0|8
312,135,41839,2,0,B|306:98|313:63,1,50
229,87,42339,2,0,B|181:90|193:121|133:124,2,99.9999999999999,8|0|8
230,167,43339,1,0
230,167,43506,1,0
230,167,43673,2,0,B|232:214|230:277,1,99.9999999999999,8|0
152,246,44339,5,8
152,246,44506,2,0,B|151:297|139:349,1,99.9999999999999
100,337,45006,1,8
100,337,45173,1,0
72,301,45339,2,0,B|68:248|11:224,1,99.9999999999999,0|8
0,299,46006,2,0,B|30:209|30:209|-7:160|29:96,1,200,0|4
96,140,47006,5,8
96,140,47173,2,0,B|144:125|202:124,1,99.9999999999999
207,203,47839,1,0
207,203,48006,2,0,B|257:195|312:202,1,99.9999999999999,0|8
294,280,48673,2,0,B|343:294|372:314|372:314|394:297|449:286|491:297,2,200,0|4|0
214,277,50339,1,8
214,277,50506,1,0
214,277,50673,6,0,B|108:277,1,99.9999999999999,0|8
138,201,51339,2,0,B|109:201|109:201|70:188|70:188|28:187,2,99.9999999999999,0|8|0
135,120,52339,1,8
135,120,52506,2,0,B|215:127|292:122,1,150,0|8
263,199,53339,1,0
263,199,53506,2,0,B|317:208|370:204,2,99.9999999999999,0|0|0
252,237,54339,5,8
224,266,54506,1,0
185,277,54673,2,0,B|73:277,2,99.9999999999999,0|8|0
239,336,55673,1,0
239,336,55839,2,0,B|314:335|344:338,1,99.9999999999999
385,272,56506,5,0
385,272,56673,1,0
385,272,56839,1,0
385,272,57006,2,0,B|420:256|420:256|456:273|494:271,2,99.9999999999999,8|0|8
344,202,58006,1,0
344,202,58173,2,0,B|311:223|311:223|283:206|243:213,1,99.9999999999999
224,136,58839,5,0
224,136,59006,2,0,B|185:152|164:175,1,50,8|0
141,167,59339,2,0,B|110:187|75:184,2,50,0|0|8
160,244,60006,5,4
131,318,60339,1,8
131,318,60506,2,0,B|91:305|68:303,2,50
211,319,61173,1,0
211,319,61339,2,0,B|314:319,1,99.9999999999999,0|8
306,238,62006,2,0,B|365:233|375:166,1,99.9999999999999,0|8
298,147,62673,6,0,B|265:96|203:93,2,99.9999999999999,0|8|0
224,179,63673,1,8
224,179,64006,2,0,B|187:176|129:161|129:161|88:176|22:170,2,200
219,259,65673,5,8
219,259,65839,1,0
219,259,66006,2,0,B|219:364,2,99.9999999999999,0|8|0
296,279,67006,2,0,B|314:220|371:197,1,99.9999999999999
383,279,67673,1,8
383,279,67839,1,0
383,279,68006,6,0,B|388:184|388:184|358:145|371:75,1,200
294,112,69006,1,8
294,112,69339,2,0,B|270:98|240:94,1,50
206,99,69673,2,0,B|173:97|138:85,2,50,8|0|0
206,139,70173,1,0
205,178,70339,2,0,B|205:281,1,99.9999999999999,8|0
283,262,71006,5,8
283,262,71173,2,0,B|278:320|285:369,1,99.9999999999999
357,330,71839,1,0
357,330,72006,2,0,B|383:288|444:274,1,99.9999999999999,0|8
434,355,72673,2,0,B|424:250|430:146,1,200
434,75,73673,2,0,B|370:76|370:76|337:126|238:109,1,200,8|8
273,34,74673,5,0
273,34,74839,1,0
273,34,75006,1,8
273,34,75173,1,0
273,34,75339,2,0,B|222:54|170:59,1,99.9999999999999,0|8
200,134,76006,2,0,B|157:159|107:209,1,99.9999999999999,0|8
190,234,76673,5,0
190,234,76839,1,0
190,234,77006,2,0,B|187:291|164:348,2,99.9999999999999,8|4|8
190,234,77839,1,0
272,248,78173,2,4,B|305:181|325:86,1,150
256,192,78839,12,4,81339
257,195,81673,5,8
257,195,81839,2,0,B|151:190,1,99.9999999999999
179,113,82506,1,0
179,113,82673,2,0,B|124:113|67:99,2,99.9999999999999,0|8|0
256,93,83673,1,8
320,140,84006,2,0,B|334:189|398:200,1,99.9999999999999,0|8
393,199,84506,1,0
342,260,84839,5,0
342,260,85006,2,0,B|280:261|280:261|236:279|236:279|133:278,1,200,8|8
149,198,86006,1,0
149,198,86173,1,0
149,198,86339,2,0,B|89:200|115:225|35:228,2,99.9999999999999,8|0|8
139,118,87339,5,0
139,118,87506,1,0
139,118,87673,2,0,B|201:115|259:119,1,99.9999999999999,8|0
238,117,88173,1,0
237,197,88506,1,0
237,197,88673,2,0,B|292:186|339:231,1,99.9999999999999,0|8
266,271,89339,6,0,B|291:323|264:376,2,99.9999999999999,0|8|0
202,319,90339,1,8
202,319,90506,1,0
202,319,90673,2,0,B|112:306|112:306|64:338|-2:321,2,200,0|4|0
187,240,92339,1,8
187,240,92506,2,0,B|81:205,1,99.9999999999999
115,131,93173,5,0
115,131,93339,2,0,B|64:109,4,50,0|0|8|0|0
191,105,94339,1,8
191,105,94673,6,0,B|250:129|250:129|309:93|397:108,1,200
355,181,95673,1,8
355,181,95839,2,0,B|410:195|446:240,1,99.9999999999999
410,260,96339,2,0,B|451:298|460:347,2,99.9999999999999,8|0|8
330,270,97339,6,0,B|232:302|232:231|117:277,1,200
107,195,98339,1,8
107,195,98506,1,0
107,195,98673,2,0,B|52:211|38:273,2,99.9999999999999,0|8|0
183,170,99673,1,8
258,195,100006,2,0,B|324:198|355:178|355:178|392:197|459:197,2,200,0|0|0
273,273,101673,2,0,B|232:280|215:307,1,50,8|0
188,282,102006,2,0,B|160:305|130:312,2,50,0|0|8
123,233,102673,1,4
180,153,113339,6,0,B|132:158|80:153,2,99.9999999999999,8|2|0
202,230,114339,1,2
259,174,114673,2,0,B|359:169|339:235|463:234,2,200,8|2|8
277,251,116339,1,2
277,251,116506,2,0,B|111:250,1,150
59,294,117339,6,0,B|23:249|61:194,1,99.9999999999999,8|2
125,160,118006,2,0,B|159:108|114:59,1,99.9999999999999,0|2
54,112,118673,2,0,B|259:113,1,200,8|2
236,191,119673,1,0
236,191,119839,1,0
236,191,120006,6,0,B|273:190|273:190|310:203|310:203|346:203,2,99.9999999999999,8|2|0
239,271,121006,1,2
239,271,121339,2,0,B|170:272|170:272|107:293|107:293|42:292,1,200,0|2
77,219,122339,1,0
155,201,122673,1,8
234,201,123006,1,0
234,201,123173,2,0,B|347:199,1,99.9999999999999
353,80,124006,6,0,B|306:64|306:64|281:77|240:72,1,99.9999999999999,4|8
176,72,124673,1,0
176,72,124839,2,0,B|68:72,1,99.9999999999999
95,149,125506,1,0
95,149,125673,1,8
95,149,125839,1,0
95,149,126006,2,0,B|38:145|38:145|-4:149,2,99.9999999999999,0|8|0
141,213,127006,5,8
141,213,127173,1,0
141,213,127339,2,0,B|171:215|198:224,1,50
230,216,127673,2,0,B|262:220|291:212,1,50,8|0
317,200,128006,2,0,B|371:202|426:197,2,99.9999999999999,0|8|0
294,122,129006,6,0,B|262:80|200:70,1,99.9999999999999,8|0
210,152,129673,2,0,B|164:134|111:146,1,99.9999999999999,8|0
141,219,130339,2,0,B|88:233|58:275,1,99.9999999999999,8|0
133,303,131006,2,0,B|148:360|217:367,2,99.9999999999999,8|0|8
211,288,132006,2,0,B|297:276|297:276|361:313|420:301,1,200
388,224,133006,1,8
388,224,133173,1,0
464,245,133506,5,0
464,245,133673,1,8
464,245,133839,1,0
464,245,134006,2,0,B|466:135,2,99.9999999999999,0|8|0
386,223,135006,1,8
386,223,135173,2,0,B|366:260|334:267,1,50
301,197,135673,2,0,B|255:198|235:201|184:194,1,99.9999999999999,8|0
181,118,136339,2,0,B|140:130|124:155,6,50,8|0|0|0|8|0|4
256,192,137506,12,4,138673
255,196,139006,5,10
255,196,139173,1,0
255,196,139339,1,0
255,196,139506,2,0,B|182:183|103:182,1,150,2|2
111,261,140339,1,8
111,261,140506,2,0,B|66:245|6:246,2,99.9999999999999,0|0|4
155,327,141506,5,0
155,327,141673,1,2
155,327,141839,1,0
224,287,142173,1,8
343,290,142673,1,4
