osu file format v9

[General]
AudioFilename: Aeon of Eyes.mp3
AudioLeadIn: 500
PreviewTime: 60006
Countdown: 0
SampleSet: Normal
StackLeniency: 0.7
Mode: 0
LetterboxInBreaks: 1

[Editor]
Bookmarks: 12006,22673,38673,60006,81339,102673,124006
DistanceSpacing: 1.3
BeatDivisor: 4
GridSize: 8

[Metadata]
Title:Eye of Aeon
Artist:Shoichiro Sakamoto
Creator:KanaRin
Version:Insane
Source:11eyes
Tags:kanpakyin aesopl19193 Sandpig Rucker lass 5pb.games lkp

[Difficulty]
HPDrainRate:8
CircleSize:4
OverallDifficulty:7
ApproachRate:8
SliderMultiplier:0.799999999999999
SliderTickRate:1

[Events]
//Background and Video events
0,0,"BG.jpg"
//Break Periods
2,33539,35923
2,86873,91256
//Storyboard Layer 0 (Background)
//Storyboard Layer 1 (Fail)
//Storyboard Layer 2 (Pass)
//Storyboard Layer 3 (Foreground)
//Storyboard Sound Samples
//Background Colour Transformations
3,100,163,162,255

[TimingPoints]
1340,333.333333333333,4,1,1,25,1,0
1340,-200,4,1,1,25,0,0
12006,-200,4,1,1,29,0,0
13006,-133.333333333333,4,1,1,29,0,0
16673,-200,4,1,1,29,0,0
17339,-200,4,1,1,37,0,0
21339,-133.333333333333,4,1,1,51,0,0
22006,-50,4,1,1,55,0,0
22173,-50,4,1,1,62,0,0
22339,-50,4,1,1,69,0,0
22673,-50,4,1,1,78,0,0
25006,-133.333333333333,4,1,1,78,0,0
25339,-133.333333333333,4,1,0,78,0,0
25673,-50,4,1,1,78,0,0
28006,-50,4,1,0,78,0,0
28339,-50,4,1,1,78,0,0
30339,-133.333333333333,4,1,1,78,0,0
30673,-133.333333333333,4,1,0,78,0,0
31006,-50,4,1,1,78,0,0
32839,-133.333333333333,4,1,1,78,0,0
33339,-133.333333333333,4,1,0,78,0,0
36673,-133.333333333333,4,2,0,0,0,0
37006,-133.333333333333,4,2,0,10,0,0
37339,-133.333333333333,4,2,0,21,0,0
37673,-133.333333333333,4,2,0,31,0,0
38006,-133.333333333333,4,2,0,41,0,0
38256,-133.333333333333,4,2,0,0,0,0
38673,-50,4,1,1,78,0,0
60006,-50,4,1,1,76,0,1
60173,-50,4,1,2,78,0,1
65173,-50,4,1,1,78,0,1
65506,-50,4,1,2,78,0,1
67839,-50,4,1,1,78,0,1
70006,-50,4,1,2,78,0,1
70673,-50,4,1,1,78,0,1
70839,-50,4,1,2,78,0,1
76006,-50,4,1,1,78,0,1
76173,-50,4,1,2,78,0,1
77839,-133.333333333333,4,1,1,78,0,1
78173,-133.333333333333,4,1,2,78,0,1
78506,-133.333333333333,4,1,1,78,0,1
78839,-133.333333333333,4,1,2,78,0,1
79839,-50,4,1,1,86,0,1
81006,-133.333333333333,4,1,1,78,0,1
81339,-133.333333333333,4,1,2,78,0,0
81506,-133.333333333333,4,2,0,0,0,0
92006,-50,4,1,1,72,0,0
102673,-50,4,2,1,77,0,0
102839,-50,4,2,1,53,0,0
110173,-133.333333333333,4,2,1,53,0,0
110839,-50,4,2,1,0,0,0
112173,-50,4,2,2,53,0,0
121339,-50,4,2,2,59,0,0
121673,-50,4,2,2,69,0,0
122006,-50,4,2,2,79,0,0
122673,-50,4,2,2,69,0,0
123339,-50,4,2,2,76,0,0
123673,-50,4,2,2,78,0,0
124006,-50,4,1,1,65,0,1
127006,-50,4,1,2,65,0,1
127089,-50,4,1,1,65,0,1
127673,-50,4,1,2,65,0,1
127756,-50,4,1,1,65,0,1
128339,-50,4,1,2,65,0,1
128423,-50,4,1,1,65,0,1
129006,-50,4,1,2,65,0,1
129256,-50,4,1,1,65,0,1
129423,-50,4,1,2,65,0,1
130673,-50,4,1,1,65,0,1
131006,-50,4,1,2,65,0,1
131673,-50,4,1,1,65,0,1
133673,-50,4,1,1,70,0,1
134339,-50,4,1,1,72,0,1
134673,-50,4,1,1,69,0,1
135006,-50,4,1,2,69,0,1
135339,-50,4,1,1,69,0,1
135673,-50,4,1,2,69,0,1
136006,-50,4,1,1,69,0,1
136339,-50,4,1,2,69,0,1
136673,-50,4,1,1,69,0,1
137006,-50,4,1,2,69,0,1
137339,-50,4,1,1,69,0,1
140339,-50,4,1,1,73,0,1
140506,-50,4,1,2,74,0,1
141006,-50,4,1,1,65,0,1
141173,-50,4,1,2,71,0,1
142173,-133.333333333333,4,1,1,65,0,1
142673,-133.333333333333,4,1,1,68,0,0
143339,-133.333333333333,4,2,1,51,0,0
144006,-133.333333333333,4,2,1,34,0,0
144673,-133.333333333333,4,2,1,11,0,0
145339,-133.333333333333,4,2,0,0,0,0

[Colours]
Combo1 : 255,164,119
Combo2 : 255,255,255
Combo3 : 253,187,66

[HitObjects]
64,256,1340,2,0,B|96:312|160:312|192:256,1,160,10|8
128,80,3673,1,0
128,80,4006,2,0,B|128:164,2,79.9999999999999,0|0|8
448,128,6673,6,0,B|416:72|352:72|320:128,1,160,10|8
384,304,9006,1,0
384,304,9339,2,0,B|384:220,2,79.9999999999999,0|0|8
352,304,11006,6,0,B|272:304,1,79.9999999999999
272,304,12006,1,4
136,80,13006,5,0
136,80,13339,2,0,B|256:80,1,119.999996423721,8|0
392,192,14673,1,0
256,304,15339,2,0,B|192:304,2,59.9999982118606,0|0|8
392,192,16673,6,0,B|312:192,1,79.9999999999999,0|4
392,112,18339,1,0
392,112,18673,2,0,B|392:192,2,79.9999999999999
368,128,20339,6,0,B|288:128,1,79.9999999999999,0|8
280,104,21339,2,0,B|280:224,1,119.999996423721,0|0
280,232,22089,1,0
280,240,22173,1,0
279,247,22256,1,0
277,254,22339,1,0
275,261,22423,1,0
271,268,22506,1,0
266,274,22589,1,0
261,280,22673,6,0,B|208:294|175:248,1,79.9999999999999,4|0
104,200,23006,2,0,B|160:136|284:144,1,160
440,56,23673,1,0
440,56,23839,2,0,B|448:144|396:216,1,160,4|0
256,56,24506,1,4
256,264,24839,1,0
256,264,25006,6,0,B|256:200,1,59.9999982118606,0|4
256,56,25673,6,0,B|144:80|120:176,1,160
200,344,26339,1,0
200,344,26506,2,0,B|264:288|224:168,1,160,4|0
120,72,27173,1,4
328,72,27506,1,0
400,144,27673,2,0,B|472:216,2,79.9999999999999,0|0|4
192,328,28339,6,0,B|240:248|168:152,1,160
320,56,29006,1,0
320,56,29173,2,0,B|272:136|344:232,1,160,4|0
176,88,29839,1,4
336,296,30173,1,0
336,296,30339,6,0,B|272:296,1,59.9999982118606,0|4
96,192,31006,6,0,B|200:192|232:88,1,160
432,72,31673,1,0
432,72,31839,2,0,B|344:112|344:216,1,160,4|0
192,112,32506,1,4
256,256,32839,6,0,B|256:192,1,59.9999982118606,4|0
256,160,33339,1,4
256,192,36673,12,0,38339
352,80,38673,6,0,B|312:144|312:144|312:240,1,160,4|2
376,312,39173,2,0,B|416:248|416:248|416:152,1,160,0|0
352,80,39673,5,2
240,80,39839,2,0,B|200:144|200:144|224:256,1,160
312,184,40339,1,2
112,288,40673,1,0
120,184,40839,1,0
217,226,41006,1,0
304,96,41339,6,0,B|400:96|400:96|472:136,1,160,4|2
304,184,41839,2,0,B|208:184|208:184|136:144,1,160
304,96,42339,1,2
304,304,42673,1,0
304,304,42839,2,0,B|216:280|216:280|168:216,1,160,0|0
192,120,43339,2,0,B|259:69,1,79.9999999999999,4|0
336,136,43673,1,0
120,264,44006,6,0,B|152:192|152:192|136:112,1,160,4|2
256,48,44506,2,0,B|224:120|224:120|240:200,1,160,0|0
216,304,45006,5,2
320,304,45173,2,0,B|320:232|320:232|400:168,1,160
456,256,45673,1,2
304,112,46006,1,0
376,40,46173,1,0
448,112,46339,1,0
256,264,46673,6,0,B|160:264|160:264|96:224,1,160,4|2
256,152,47173,2,0,B|352:152|352:152|416:192,1,160,0|2
256,264,47673,1,0
152,80,48006,1,0
360,80,48339,1,4
152,80,48673,6,0,B|104:80,2,40,4|0|0
176,184,49006,1,4
176,184,49089,1,0
176,184,49173,1,0
256,248,49339,6,0,B|304:248|328:176,1,79.9999999999999,4|0
312,96,49673,1,8
256,248,49839,2,0,B|304:344|408:280,1,160
344,200,50339,1,8
344,200,50506,2,0,B|272:352,1,160,0|2
256,56,51172,1,2
256,56,51339,2,0,B|184:208,1,160
392,216,52006,6,0,B|336:208|336:136,1,79.9999999999999
376,64,52339,1,8
392,216,52506,2,0,B|392:320|288:320,1,160
256,224,53006,1,8
136,56,53339,1,2
376,56,53673,1,2
136,56,54006,5,0
80,128,54173,1,0
72,152,54256,1,0
80,176,54339,1,12
136,240,54506,1,8
232,192,54673,6,0,B|288:184|304:128,1,79.9999999999999,4|0
304,48,55006,1,8
232,192,55173,2,0,B|168:288|272:344,1,160
320,256,55673,1,8
320,256,55839,2,0,B|128:296,1,160,0|2
416,128,56507,1,2
416,128,56673,2,0,B|224:168,1,160,0|0
144,64,57339,5,0
368,64,57673,1,8
152,184,58006,2,0,B|96:208|48:184,1,79.9999999999999
96,120,58339,2,0,B|64:96|80:40,1,79.9999999999999,8|4
184,272,58839,1,4
184,272,59006,2,0,B|224:312|288:312|328:272,1,160,0|4
256,80,59673,1,4
256,96,59756,1,0
256,112,59839,1,0
256,128,59922,1,0
256,144,60006,1,4
56,192,60339,5,8
56,192,60506,2,0,B|56:152|96:112,1,79.9999999999999,0|0
192,80,60839,2,0,B|192:136|136:168,1,79.9999999999999,0|8
256,328,61339,1,0
376,96,61673,1,8
376,96,61839,2,0,B|304:168|376:272,1,160
358,242,62339,2,0,B|320:176|208:176,1,160,8|0
220,176,62839,2,0,B|220:273,1,79.9999999999999,0|8
56,128,63339,5,0
136,56,63506,1,0
216,128,63673,1,8
336,296,64006,5,0
336,296,64173,2,0,B|384:296|424:240,1,79.9999999999999,0|8
328,192,64506,1,0
256,120,64673,1,0
184,192,64839,1,8
256,264,65006,1,8
128,96,65339,5,4
384,96,65673,1,8
128,96,66006,1,0
384,96,66339,1,8
384,96,66506,2,0,B|440:160|440:160|432:264,1,160
368,312,67006,1,8
368,312,67173,2,0,B|312:248|312:248|320:144,1,160
216,104,67673,1,8
112,168,67839,5,0
112,168,68006,2,0,B|112:272,1,79.9999999999999,0|2
256,96,68506,1,2
256,200,68673,1,0
256,96,68839,1,2
416,40,69173,1,2
416,40,69339,2,0,B|416:96|392:128,1,79.9999999999999,0|2
398,117,69673,2,0,B|384:168|336:192,1,79.9999999999999,0|2
353,181,70006,2,0,B|320:216|256:216,1,79.9999999999999,8|0
282,214,70256,1,0
282,214,70339,1,8
176,216,70506,1,8
176,216,70673,1,4
368,296,71006,5,8
368,296,71173,2,0,B|392:216|392:216|352:120,1,160
288,72,71673,2,0,B|248:152,1,79.9999999999999,8|0
264,248,72006,2,0,B|168:248|168:248|120:192,1,160,0|8
288,72,72673,2,0,B|384:72|384:72|432:128,1,160,0|8
176,312,73339,5,0
256,248,73506,1,0
336,312,73673,1,8
176,72,74006,1,0
256,136,74173,1,0
336,72,74339,2,0,B|416:72|416:72|480:160,1,160,8|0
336,224,74839,5,0
336,224,74922,1,0
336,224,75006,2,0,B|336:120,2,79.9999999999999,8|0|0
240,272,75506,2,0,B|136:248,2,79.9999999999999,8|8|0
304,360,76006,6,0,B|376:336|376:336|416:232,1,160,4|8
406,257,76506,2,0,B|352:192|352:192|384:112,1,160
379,122,77006,2,0,B|320:48,1,79.9999999999999,8|0
256,136,77339,1,0
400,304,77673,5,8
400,304,77839,2,0,B|400:232,1,59.9999982118606,4|0
400,224,78339,1,8
400,80,78673,5,4
112,80,79006,1,8
112,80,79173,1,0
256,56,79506,5,0
256,80,79589,1,0
256,104,79673,1,8
256,200,79839,2,0,B|224:304|128:336,1,160,4|0
256,200,80339,5,0
256,200,80505,2,0,B|288:96|384:64,1,160,4|4
256,200,81006,6,0,B|256:264,1,59.9999982118606,4|4
256,192,81506,12,0,86673
312,80,92006,6,0,B|368:80|368:80|416:104|416:104|448:160,1,160,6|8
344,168,92506,2,0,B|288:168|288:168|240:192|240:192|208:248,1,160,0|0
320,256,93006,2,0,B|376:256|376:256|424:280|424:280|456:336,1,160,2|0
352,344,93506,2,0,B|184:344,1,160
144,256,94006,2,0,B|232:256,2,79.9999999999999,0|0|8
200,80,94673,6,0,B|144:80|144:80|96:104|96:104|64:160,1,160,2|8
168,168,95173,2,0,B|224:168|224:168|272:192|272:192|304:248,1,160
192,256,95673,2,0,B|136:256|136:256|88:280|88:280|56:336,1,160,2|0
160,344,96173,2,0,B|328:344,1,160
368,256,96673,2,0,B|280:256,2,79.9999999999999,0|0|8
416,88,97339,5,6
96,160,97673,1,8
96,160,97839,1,0
416,232,98173,1,0
416,232,98339,1,2
96,296,98673,1,0
96,296,98839,2,0,B|176:296|176:296|240:208,1,160
256,48,99339,5,0
192,160,99506,1,0
320,160,99673,1,8
256,312,100006,5,2
400,64,100339,1,8
400,64,100506,1,0
112,64,100839,1,0
112,64,101006,1,2
400,64,101339,5,0
400,64,101506,2,0,B|400:232,1,160,0|0
312,168,102006,1,8
256,248,102173,1,0
256,248,102256,1,0
256,248,102339,2,0,B|256:328,2,79.9999999999999,4|0|4
88,48,103006,5,2
54,135,103173,1,0
127,194,103339,1,2
206,143,103506,1,0
181,52,103673,1,2
360,56,104006,5,2
464,192,104340,1,0
360,328,104673,1,2
256,192,105006,1,0
104,152,105339,6,0,B|64:120|96:32|168:48,1,160,2|0
200,144,105839,2,0,B|192:200|320:200|312:144,1,160,0|0
348,47,106339,2,0,B|416:32|448:120|408:152,1,160,0|0
240,144,107006,5,2
216,232,107173,1,0
304,208,107339,1,2
296,296,107506,1,0
216,328,107673,1,2
136,296,107839,1,0
88,216,108006,6,0,B|168:184|192:80,1,160,2|0
112,48,108506,2,0,B|128:136|240:184,1,160
264,96,109006,1,2
352,72,109173,1,0
432,112,109339,1,2
272,296,109673,1,0
304,216,109839,1,2
96,208,110173,6,0,B|128:176|184:176,1,89.999997317791
256,192,110839,12,0,112006
376,80,112339,5,2
440,144,112506,1,0
376,80,112673,1,2
288,64,112839,1,0
203,89,113006,1,2
162,167,113173,1,0
202,244,113339,6,0,B|276:261|326:164,1,160,4|8
239,145,113839,2,0,B|243:235|336:285,1,160
394,228,114339,1,8
101,209,114673,5,0
167,210,115006,1,8
186,273,115340,1,0
132,311,115673,1,8
80,272,116006,2,0,B|64:192|160:128,1,160,0|8
208,72,116506,2,0,B|192:168|296:232,1,160
352,264,117006,1,8
128,72,117339,1,0
328,112,117673,5,10
320,200,117839,1,0
328,112,118006,1,2
392,168,118173,1,0
328,112,118339,1,10
240,120,118506,1,2
240,120,118673,6,0,B|160:168|152:264,1,160,4|8
256,224,119173,2,0,B|192:152|104:168,1,160,0|0
177,264,119673,2,0,B|208:304|264:296,1,79.9999999999999,8|0
344,328,120006,5,0
136,240,120339,1,8
136,240,120506,2,0,B|208:232|272:160,2,160,0|2|2
56,192,121339,2,0,B|56:112|144:64,1,160,4|0
371,65,122006,2,0,B|456:112|456:192,1,160,0|0
208,280,122673,6,0,B|168:248|176:208,1,79.9999999999999,4|0
304,280,123006,2,0,B|344:248|336:208,1,79.9999999999999
256,64,123339,1,4
256,80,123423,1,0
256,96,123506,1,0
256,112,123589,1,0
256,128,123673,2,0,B|256:176,3,40,4|0|4|0
256,192,124006,6,0,B|240:256|160:256|144:192,1,160,4|8
256,192,124506,2,0,B|320:208|320:288|256:304,1,160
256,192,125006,2,0,B|272:128|352:128|368:192,1,160,8|0
256,192,125506,2,0,B|192:176|192:96|256:80,1,160
368,192,126006,6,0,B|352:240|304:272,1,79.9999999999999
368,192,126339,2,0,B|392:240|368:280,1,79.9999999999999,8|0
368,192,126673,1,0
312,104,126839,2,0,B|312:64,2,40,2|0|8
200,120,127173,2,0,B|152:80,2,40,2|0|0
152,216,127506,2,0,B|96:216,2,40,2|0|8
352,304,127839,6,0,B|384:336,2,40,2|0|0
160,304,128173,2,0,B|128:336,2,40,2|0|8
256,112,128506,2,0,B|256:64,2,40,2|0|0
256,272,128839,1,2
256,272,128923,1,0
256,272,129006,2,0,B|296:264|296:264|320:208,1,79.9999999999999,8|8
408,112,129339,6,0,B|400:72|400:72|432:48,1,79.9999999999999,4|0
408,184,129673,2,0,B|448:176|448:176|472:208,1,79.9999999999999,8|0
336,184,130006,2,0,B|344:224|344:224|312:248,1,79.9999999999999
336,112,130339,2,0,B|296:120|296:120|272:88,1,79.9999999999999,8|0
408,184,130673,6,0,B|368:256|368:256|296:288,1,160,4|8
328,352,131173,2,0,B|288:280|288:280|216:248,1,160
144,248,131673,2,0,B|216:184,1,79.9999999999999,4|0
296,168,132006,5,4
160,64,132339,1,8
160,64,132506,1,0
368,96,132839,1,0
368,96,133006,2,0,B|408:168|408:168|400:256,1,160,8|4
288,224,133506,6,0,B|288:184|240:160,1,79.9999999999999,0|8
240,280,133839,1,0
344,192,134006,1,4
360,184,134089,1,0
376,176,134172,2,0,B|416:152|456:184,2,79.9999999999999,0|8|8
432,56,134673,6,0,B|440:16,3,40,4|0|0|0
432,56,135006,2,0,B|408:96|336:104,1,79.9999999999999,8|0
264,112,135339,2,0,B|272:72,3,40,4|0|0|0
264,112,135672,2,0,B|240:152|168:160,1,79.9999999999999,8|0
104,184,136006,6,0,B|77:143,2,40,4|0|0
85,272,136339,2,0,B|44:298,2,40,8|0|0
173,291,136673,2,0,B|199:331,2,40,4|0|0
192,202,137006,2,0,B|232:175,2,40,8|0|0
136,240,137339,6,0,B|168:320|288:320,1,160,4|8
264,319,137839,2,0,B|360:320|416:256,1,160
409,263,138256,1,0
409,263,138339,1,8
464,168,138506,1,0
464,168,138589,1,0
464,168,138673,5,4
408,80,138839,1,0
352,160,139006,1,8
312,56,139173,1,0
256,144,139339,1,4
200,56,139506,1,0
160,160,139673,1,8
104,80,139839,1,0
48,168,140006,6,0,B|56:256|128:304,1,160,4|8
288,64,140673,1,0
376,120,140839,1,0
400,224,141006,1,8
400,224,141173,2,0,B|384:312|288:336,1,160,4|4
200,288,141673,1,0
256,200,141839,1,4
256,40,142173,6,0,B|256:128,1,89.999997317791,4|4
256,192,142839,12,0,145339
