osu file format v9

[General]
AudioFilename: Aeon of Eyes.mp3
AudioLeadIn: 500
PreviewTime: 60006
Countdown: 0
SampleSet: Normal
StackLeniency: 0.7
Mode: 0
LetterboxInBreaks: 1

[Editor]
Bookmarks: 12006,22673,38673,60006,81339,102673
DistanceSpacing: 0.8
BeatDivisor: 4
GridSize: 8

[Metadata]
Title:Eye of Aeon
Artist:Shoichiro Sakamoto
Creator:KanaRin
Version:Easy
Source:11eyes
Tags:kanpakyin aesopl19193 Sandpig Rucker lass 5pb.games lkp

[Difficulty]
HPDrainRate:3
CircleSize:3
OverallDifficulty:2
ApproachRate:2
SliderMultiplier:0.799999999999999
SliderTickRate:1

[Events]
//Background and Video events
0,0,"BG.jpg"
//Break Periods
2,102873,111779
//Storyboard Layer 0 (Background)
//Storyboard Layer 1 (Fail)
//Storyboard Layer 2 (Pass)
//Storyboard Layer 3 (Foreground)
//Storyboard Sound Samples
//Background Colour Transformations
3,100,163,162,255

[TimingPoints]
1340,333.333333333333,4,1,1,25,1,0
19673,-100,4,1,0,25,0,0
33673,-100,4,1,0,0,0,0
37006,-100,4,1,0,25,0,0
38506,-100,4,1,1,25,0,0
124006,-100,4,1,1,25,0,1
142673,-100,4,1,1,25,0,0

[Colours]
Combo1 : 255,164,119
Combo2 : 255,255,255
Combo3 : 253,187,66

[HitObjects]
184,120,1340,1,4
256,48,2006,1,0
328,120,2673,1,8
256,192,3339,1,0
328,264,4006,5,0
400,192,4673,1,0
328,120,5339,1,8
256,192,6006,1,0
184,264,6673,5,0
256,336,7339,1,0
328,264,8006,1,8
256,192,8673,1,0
184,112,9339,5,0
104,192,10006,1,0
184,272,10673,1,8
256,192,11339,1,0
352,192,12006,6,0,B|432:184|512:192,1,160
440,296,13339,2,0,B|440:376,2,79.9999999999999,8|0|0
312,328,14673,6,0,B|232:336|152:328,1,160
168,200,16006,2,0,B|168:120,2,79.9999999999999,8|0|0
288,160,17339,6,0,B|448:160,1,160
408,280,18673,2,0,B|248:280,1,160,8|0
120,280,20006,5,4
32,184,20673,1,4
152,152,21339,1,4
192,104,21673,1,0
248,136,22006,1,0
208,184,22339,1,0
224,248,22673,6,0,B|328:328|488:344,1,280,4|4
456,216,24506,2,0,B|368:128,1,120,4|0
320,96,25339,6,0,B|176:88|40:120,1,280,4|4
112,224,27173,2,0,B|64:336,1,120,4|0
128,360,28006,6,0,B|216:320|312:392|408:352,1,280,4|4
328,248,29839,2,0,B|368:200|432:184,1,120,4|0
432,120,30673,6,0,B|304:88|152:80,1,280,4|0
184,208,32506,2,0,B|120:272,1,79.9999999999999,4|0
256,192,33339,12,0,36006
152,72,37339,5,0
112,120,37673,1,0
104,184,38006,1,0
112,248,38339,1,0
144,304,38673,6,0,B|240:360|376:368,1,240,4|8
432,344,40006,2,0,B|488:232|480:96,1,240,0|8
424,88,41339,2,0,B|304:72|176:88,1,240,0|8
128,112,42673,5,0
72,144,43006,1,8
40,200,43339,1,0
32,264,43673,1,8
72,312,44006,6,0,B|184:360|184:360|304:336|304:336,1,240,0|8
336,280,45339,2,0,B|368:256|368:256|480:256|480:256|504:168,1,240,0|8
504,104,46673,2,0,B|408:56|408:56|280:104|280:104,1,240,0|8
240,152,48006,6,0,B|240:192|240:192|200:224|200:224,1,79.9999999999999,0|8
144,232,48673,2,0,B|56:232,1,79.9999999999999,0|8
48,296,49339,6,0,B|160:320|288:304,1,240,4|8
320,248,50673,2,0,B|376:144|488:72,1,240,0|8
448,24,52006,2,0,B|320:16|192:32,1,240,0|8
160,72,53339,5,0
128,128,53673,1,8
112,192,54006,1,0
104,256,54339,1,8
112,320,54673,6,0,B|216:360|216:360|344:360|344:360,1,240,0|8
400,336,56006,2,0,B|440:304|440:304|440:208|440:208|368:144|368:144,1,240,0|8
312,176,57339,2,0,B|232:112|232:112|96:112|96:112,1,240,0|8
40,144,58673,2,0,B|40:304,1,160
40,368,59673,1,8
104,368,60006,6,0,B|192:352|264:368,1,160,4|0
304,320,61006,1,8
360,352,61339,2,0,B|440:336|440:336|480:264|480:264,1,160
504,208,62339,1,8
456,168,62673,6,0,B|471:89|471:89|428:21|428:21,2,160
400,192,64339,2,0,B|320:184|240:192,1,160,8|8
184,224,65339,6,0,B|112:256|112:256|32:232|32:232,1,160
24,168,66339,1,8
80,136,66673,2,0,B|88:56|88:56|160:16|160:16,1,160
216,40,67673,1,8
272,72,68006,6,0,B|408:96|464:208|464:208,1,240,0|8
424,256,69339,2,0,B|320:320|192:328,1,240
208,264,70673,6,0,B|128:248|40:264,1,160,4|0
32,200,71673,1,0
88,176,72006,2,0,B|160:136|160:136|168:56|168:56,1,160
232,40,73006,1,0
296,56,73339,6,0,B|376:80|376:80|456:56|456:56,2,160
232,40,75006,2,0,B|200:112|208:200,1,160,8|8
256,240,76006,6,0,B|320:296|320:296|312:376|312:376,1,160
248,368,77006,1,8
184,368,77339,2,0,B|64:368|64:368|16:296|16:296,1,200
256,192,78673,12,4,80006
80,184,81339,6,0,B|184:128|312:96|312:96,1,240,4|8
368,88,82673,2,0,B|392:176|392:176|472:192|472:192|488:264|488:264,1,240,0|8
488,320,84006,2,0,B|384:360|248:368,1,240,0|8
192,360,85339,5,0
128,336,85673,1,8
80,288,86006,1,0
64,224,86339,1,8
72,160,86673,6,0,B|136:64|264:24,1,240,0|8
328,24,88006,2,0,B|400:24|400:24|448:96|448:96|400:168|400:168,1,240,0|8
432,216,89339,2,0,B|368:320|232:344,1,240,0|8
184,312,90673,2,0,B|96:320,3,79.9999999999999,0|8|0|8
40,328,92006,6,0,B|8:224|16:88,1,240,4|8
72,64,93339,2,0,B|136:40|240:48|240:48|296:104|296:104,1,240,0|8
344,64,94673,2,0,B|432:144|480:264,1,240,0|8
432,304,96006,5,0
376,272,96339,1,8
328,320,96673,1,0
264,296,97006,1,8
200,312,97339,6,0,B|80:336|80:336|8:240|8:240,1,240,0|8
8,176,98673,2,0,B|8:120|8:120|112:120|112:120|136:40|136:40,1,240,0|8
200,40,100006,2,0,B|240:152|240:152|368:152|368:152,1,240,0|8
256,192,101339,12,4,102673
256,192,113339,5,4
40,192,114673,1,0
256,192,116006,1,0
472,192,117339,1,0
256,192,118673,5,0
152,120,119339,1,0
88,232,120006,1,0
200,304,120673,1,0
256,192,121339,5,0
320,192,121673,1,0
384,192,122006,1,0
448,192,122339,1,0
448,256,122673,5,0
384,256,123006,1,0
320,256,123339,1,0
256,256,123673,1,0
192,256,124006,6,0,B|112:248|112:248|72:168|72:168,1,160,4|0
112,120,125006,1,8
176,120,125339,2,0,B|240:176|240:176|304:136,1,160
360,104,126339,1,8
424,88,126673,6,0,B|480:208|432:320|432:320,1,240,0|8
368,320,128006,2,0,B|288:320|288:320|256:384|256:384|160:384|160:384,1,240,0|8
104,384,129339,6,0,B|56:320|56:320|56:240|56:240,1,160
96,192,130339,1,8
64,136,130673,2,0,B|64:56|64:56|144:56|144:56,1,160
208,56,131673,1,8
272,56,132006,6,0,B|352:56|352:56|400:120|400:120|360:192|360:192,1,240,0|8
320,240,133339,2,0,B|240:240,3,79.9999999999999,0|8|0|8
176,256,134673,6,0,B|136:264|96:256,1,79.9999999999999,4|8
48,216,135339,2,0,B|40:176|48:136,1,79.9999999999999,0|8
88,88,136006,2,0,B|208:64|328:88,1,240,0|8
376,128,137339,6,0,B|392:168|384:208,1,79.9999999999999,0|8
368,264,138006,2,0,B|336:296|296:312,1,79.9999999999999,0|8
240,328,138673,2,0,B|104:352|8:280,1,240,0|8
256,192,140006,12,4,142673
