osu file format v9

[General]
AudioFilename: Aeon of Eyes.mp3
AudioLeadIn: 500
PreviewTime: 60006
Countdown: 0
SampleSet: Soft
StackLeniency: 0.7
Mode: 0
LetterboxInBreaks: 1

[Editor]
Bookmarks: 102006
DistanceSpacing: 1.2
BeatDivisor: 4
GridSize: 4

[Metadata]
Title:Eye of Aeon
Artist:Shoichiro Sakamoto
Creator:KanaRin
Version:Aeon
Source:11eyes
Tags:kanpakyin aesopl19193 Sandpig Rucker lass 5pb.games lkp

[Difficulty]
HPDrainRate:8
CircleSize:4
OverallDifficulty:7
ApproachRate:8
SliderMultiplier:1.9
SliderTickRate:1

[Events]
//Background and Video events
0,0,"BG.jpg"
//Break Periods
2,85206,91256
//Storyboard Layer 0 (Background)
//Storyboard Layer 1 (Fail)
//Storyboard Layer 2 (Pass)
//Storyboard Layer 3 (Foreground)
//Storyboard Sound Samples
//Background Colour Transformations
3,100,163,162,255

[TimingPoints]
1340,333.333333333333,4,1,1,25,1,0
1673,-200,4,2,1,50,0,0
3923,-200,4,1,1,25,0,0
4089,-200,4,2,1,40,0,0
6590,-200,4,1,1,25,0,0
6756,-200,4,2,1,40,0,0
9256,-200,4,1,1,25,0,0
9423,-200,4,2,1,50,0,0
14590,-200,4,1,1,25,0,0
14756,-200,4,2,1,50,0,0
17256,-200,4,1,1,27,0,0
17423,-200,4,2,1,50,0,0
20006,-100,4,1,1,15,0,0
20339,-100,4,1,1,25,0,0
20673,-100,4,1,1,34,0,0
21006,-100,4,1,1,40,0,0
21339,-100,4,1,1,44,0,0
21673,-100,4,1,1,50,0,0
22006,-100,4,1,1,55,0,0
22339,-100,4,1,1,80,0,0
23006,-100,4,1,1,60,0,0
33006,-200,4,1,1,45,0,0
33339,-100,4,1,1,65,0,0
35589,-100,4,1,1,0,0,0
35756,-100,4,1,1,80,0,0
36006,-100,4,1,1,15,0,0
36339,-100,4,1,1,25,0,0
36673,-100,4,1,1,32,0,0
37006,-100,4,1,1,31,0,0
37339,-100,4,1,1,41,0,0
37673,-100,4,1,1,46,0,0
38006,-100,4,1,1,56,0,0
38339,-100,4,1,1,60,0,0
38673,-100,4,1,1,90,0,0
38756,-100,4,1,1,70,0,0
39173,-100,4,1,1,91,0,0
39256,-100,4,1,1,70,0,0
39673,-100,4,1,1,90,0,0
39756,-100,4,1,1,70,0,0
40173,-100,4,1,1,90,0,0
40256,-100,4,1,1,70,0,0
40673,-100,4,1,1,90,0,0
40756,-100,4,1,1,70,0,0
41006,-100,4,1,1,90,0,0
41089,-100,4,1,1,70,0,0
41339,-100,4,1,1,70,0,0
41423,-100,4,1,1,70,0,0
41839,-100,4,1,1,90,0,0
41923,-100,4,1,1,70,0,0
42339,-100,4,1,1,90,0,0
42423,-100,4,1,1,70,0,0
42839,-100,4,1,1,90,0,0
42923,-100,4,1,1,70,0,0
43256,-100,4,1,1,90,0,0
43423,-100,4,1,1,70,0,0
43589,-100,4,1,1,90,0,0
43756,-100,4,1,1,70,0,0
44006,-100,4,1,1,70,0,0
44173,-100,4,1,1,70,0,0
44423,-100,4,1,1,90,0,0
44589,-100,4,1,1,70,0,0
44923,-100,4,1,1,90,0,0
45089,-100,4,1,1,70,0,0
45423,-100,4,1,1,90,0,0
45589,-100,4,1,1,70,0,0
45923,-100,4,1,1,90,0,0
46089,-100,4,1,1,70,0,0
46256,-100,4,1,1,90,0,0
46423,-100,4,1,1,70,0,0
46673,-100,4,1,1,90,0,0
46756,-100,4,1,1,70,0,0
47089,-100,4,1,1,90,0,0
47256,-100,4,1,1,70,0,0
47589,-100,4,1,1,90,0,0
47756,-100,4,1,1,70,0,0
48089,-100,4,1,1,90,0,0
48256,-100,4,1,1,70,0,0
48673,-100,4,1,1,25,0,0
48839,-100,4,1,1,29,0,0
49006,-100,4,1,1,55,0,0
49173,-100,4,1,1,69,0,0
49339,-100,4,1,1,70,0,0
49506,-100,4,1,1,70,0,0
49756,-100,4,1,1,90,0,0
49923,-100,4,1,1,70,0,0
50256,-100,4,1,1,90,0,0
50423,-100,4,1,1,70,0,0
50756,-100,4,1,1,90,0,0
50923,-100,4,1,1,70,0,0
51256,-100,4,1,1,90,0,0
51423,-100,4,1,1,70,0,0
51673,-100,4,1,1,90,0,0
51756,-100,4,1,1,70,0,0
52006,-100,4,1,1,90,0,0
52089,-100,4,1,1,70,0,0
52423,-100,4,1,1,90,0,0
52589,-100,4,1,1,70,0,0
52923,-100,4,1,1,90,0,0
53089,-100,4,1,1,70,0,0
53423,-100,4,1,1,90,0,0
53589,-100,4,1,1,70,0,0
53923,-100,4,1,1,90,0,0
54089,-100,4,1,1,70,0,0
54256,-100,4,1,1,90,0,0
54423,-100,4,1,1,70,0,0
54673,-100,4,1,1,90,0,0
54756,-100,4,1,1,70,0,0
55089,-100,4,1,1,90,0,0
55256,-100,4,1,1,70,0,0
55589,-100,4,1,1,90,0,0
55756,-100,4,1,1,70,0,0
56089,-100,4,1,1,90,0,0
56256,-100,4,1,1,70,0,0
56589,-100,4,1,1,90,0,0
56756,-100,4,1,1,70,0,0
56923,-100,4,1,1,90,0,0
57089,-100,4,1,1,70,0,0
57256,-100,4,1,1,90,0,0
57423,-100,4,1,1,70,0,0
57756,-100,4,1,1,90,0,0
57923,-100,4,1,1,70,0,0
58256,-100,4,1,1,90,0,0
58423,-100,4,1,1,70,0,0
58673,-100,4,1,1,41,0,0
58839,-100,4,1,1,56,0,0
59006,-100,4,1,1,66,0,0
59173,-100,4,1,1,76,0,0
59339,-100,4,1,1,66,0,0
60006,-100,4,1,2,70,0,1
60339,-100,4,1,1,70,0,1
70589,-100,4,1,1,70,0,1
70756,-100,4,1,1,70,0,1
84923,-100,4,1,1,0,0,0
85089,-100,4,1,1,65,0,0
91923,-100,4,1,1,90,0,0
92089,-100,4,1,1,70,0,0
92423,-100,4,1,1,90,0,0
92589,-100,4,1,1,70,0,0
92923,-100,4,1,1,90,0,0
93089,-100,4,1,1,70,0,0
93423,-100,4,1,1,90,0,0
93589,-100,4,1,1,70,0,0
94006,-100,4,1,1,90,0,0
94089,-100,4,1,1,70,0,0
94339,-100,4,1,1,90,0,0
94423,-100,4,1,1,70,0,0
94589,-100,4,1,1,90,0,0
94756,-100,4,1,1,70,0,0
95089,-100,4,1,1,90,0,0
95256,-100,4,1,1,70,0,0
95589,-100,4,1,1,90,0,0
95756,-100,4,1,1,70,0,0
96089,-100,4,1,1,90,0,0
96256,-100,4,1,1,70,0,0
96673,-100,4,1,1,90,0,0
96756,-100,4,1,1,70,0,0
97006,-100,4,1,1,90,0,0
97089,-100,4,1,1,70,0,0
97256,-100,4,1,1,90,0,0
97423,-100,4,1,1,70,0,0
97756,-100,4,1,1,90,0,0
97923,-100,4,1,1,70,0,0
98256,-100,4,1,1,90,0,0
98423,-100,4,1,1,70,0,0
98756,-100,4,1,1,90,0,0
98923,-100,4,1,1,70,0,0
99339,-100,4,1,1,90,0,0
99423,-100,4,1,1,70,0,0
99673,-100,4,1,1,90,0,0
99756,-100,4,1,1,70,0,0
99923,-100,4,1,1,90,0,0
100089,-100,4,1,1,70,0,0
100423,-100,4,1,1,90,0,0
100589,-100,4,1,1,70,0,0
100923,-100,4,1,1,90,0,0
101089,-100,4,1,1,70,0,0
102673,-100,4,2,1,0,0,0
102756,-100,4,1,1,70,0,0
103006,-100,4,2,1,50,0,0
104006,-133.333333333333,4,2,1,50,0,0
105339,-200,4,2,1,65,0,0
105339,-200,4,2,1,51,0,0
105589,-200,4,2,1,0,0,0
105756,-200,4,2,1,70,0,0
105839,-100,4,2,1,50,0,0
108006,-133.333333333333,4,2,1,50,0,0
110173,-200,4,2,1,50,0,0
110423,-200,4,2,1,0,0,0
110589,-200,4,2,1,50,0,0
110673,-133.333333333333,4,2,1,50,0,0
111839,-133.333333333333,4,2,1,0,0,0
112089,-133.333333333333,4,2,1,50,0,0
112339,-100,4,2,1,50,0,0
113339,-133.333333333333,4,2,2,50,0,0
114339,-133.333333333333,4,2,2,50,0,0
114673,-100,4,2,2,50,0,0
116006,-200,4,2,2,50,0,0
117256,-200,4,2,2,0,0,0
117423,-200,4,2,2,50,0,0
118673,-133.333333333333,4,2,2,50,0,0
119673,-100,4,2,2,50,0,0
121339,-200,4,2,2,50,0,0
122006,-100,4,2,2,50,0,0
123923,-100,4,1,1,90,0,0
124089,-100,4,1,1,70,0,0
124423,-100,4,1,1,90,0,0
124589,-100,4,1,1,70,0,0
124923,-100,4,1,1,90,0,0
125089,-100,4,1,1,70,0,0
125423,-100,4,1,1,90,0,0
125589,-100,4,1,1,70,0,0
125923,-100,4,1,1,90,0,0
126089,-100,4,1,1,70,0,0
126506,-100,4,2,2,70,0,1
130673,-100,4,1,1,70,0,1
133339,-100,4,1,1,70,0,0
133589,-100,4,2,2,70,0,0
133756,-100,4,1,1,70,0,0
134256,-100,4,2,2,70,0,0
134423,-100,4,1,1,70,0,0
134673,-100,4,1,1,70,0,1
140006,-200,4,1,1,70,0,1
140089,-200,4,1,1,0,0,1
140923,-200,4,1,1,70,0,1
141173,-100,4,1,1,70,0,1
142673,-100,4,2,1,70,0,1
142839,-100,4,2,1,50,0,1
143173,-100,4,2,1,30,0,1
143506,-100,4,2,1,10,0,1
143839,-100,4,2,1,0,0,1
145339,-100,4,2,1,0,0,0

[Colours]
Combo1 : 255,164,119
Combo2 : 255,255,255
Combo3 : 253,187,66

[HitObjects]
160,96,1340,1,0
352,96,1673,1,2
352,288,2006,1,0
160,288,2339,1,2
160,96,2673,5,8
160,288,3006,1,2
352,288,3339,1,0
352,96,3673,1,2
448,192,4006,5,0
64,192,4339,1,2
352,192,4673,5,0
160,192,5006,1,2
160,192,5339,5,8
352,192,5673,1,2
64,192,6006,5,0
448,192,6339,1,2
352,320,6673,5,0
256,96,7006,1,2
160,320,7339,1,0
256,96,7673,1,2
160,320,8006,5,8
256,96,8339,1,2
352,320,8673,1,0
256,96,9006,1,2
176,248,9339,6,0,B|208:312|296:313|327:247,1,190
255,192,10339,1,0
328,131,10673,2,0,B|296:66|208:65|177:131,1,190,8|0
255,192,11673,1,2
71,92,12006,6,0,B|58:202,1,95,6|2
160,224,12673,2,0,B|173:114,1,95,0|2
256,192,13340,2,0,B|243:302,1,95,8|2
345,324,14006,2,0,B|358:214,1,95,0|2
416,64,14673,6,0,B|320:64,1,95,0|2
96,64,15340,2,0,B|192:64,1,95,0|2
403,159,16006,6,0,B|307:159,1,95,8|2
109,159,16673,2,0,B|205:159,1,95,0|2
36,310,17340,5,0
57,217,17673,1,2
121,147,18006,1,0
208,110,18340,1,2
476,310,18673,5,8
455,217,19006,1,2
391,147,19339,1,0
303,110,19673,1,2
100,74,20006,6,0,B|74:124,3,47.5,8|0|0|0
98,142,20339,2,0,B|117:199,3,47.5,8|0|0|0
87,209,20673,2,0,B|77:257,3,47.5,8|0|0|0
109,264,21006,2,0,B|138:311,3,47.5,8|0|0|0
156,324,21339,5,8
180,328,21423,1,0
204,328,21506,1,0
228,324,21589,1,0
252,316,21673,1,8
272,304,21756,1,0
288,288,21839,1,0
304,268,21923,1,0
316,248,22006,5,8
332,232,22089,1,0
352,220,22173,1,0
376,216,22256,1,0
400,208,22339,1,8
412,188,22423,1,0
420,164,22506,1,0
416,140,22589,1,0
408,120,22673,1,4
104,160,23006,6,0,B|48:144|48:72,1,95,8|0
144,88,23339,2,0,B|176:48|240:48,2,95
216,152,23839,2,0,B|304:240|200:344,1,190,4|0
128,320,24339,1,0
128,320,24506,2,0,B|336:328,1,190,4|0
400,280,25006,2,0,B|448:272,2,47.5
312,200,25339,5,4
240,264,25506,1,0
208,176,25673,2,0,B|224:112|288:104,1,95
312,200,26006,1,0
240,264,26173,1,0
144,256,26339,1,0
72,192,26506,6,0,B|24:96|128:16,1,190,4|0
440,192,27006,1,0
440,192,27173,2,0,B|488:288|384:368,1,190,4|0
336,252,27673,1,0
336,252,27756,1,0
336,252,27839,1,0
184,168,28006,5,4
112,112,28173,2,0,B|64:80|88:16,2,95
184,168,28673,2,0,B|176:224|104:240,2,95
216,80,29173,6,0,B|416:80,1,190,4|0
296,304,29673,1,0
296,304,29839,2,0,B|96:304,1,190,4|0
16,200,30339,5,0
64,200,30423,1,0
112,200,30506,1,0
160,200,30589,1,0
208,200,30673,1,4
16,200,31006,5,0
208,200,31173,1,0
160,280,31339,1,0
64,120,31506,1,0
160,120,31673,1,0
64,280,31839,6,0,B|-32:200|72:112,1,190,4|0
256,192,32339,1,0
432,280,32506,2,0,B|528:200|424:112,1,190,4|0
256,192,33006,2,0,B|256:288,1,95,0|4
256,192,33506,12,0,35673
104,88,36006,5,0
144,88,36089,1,0
184,88,36173,1,0
224,88,36256,1,0
264,88,36339,1,8
304,88,36423,1,0
341,94,36506,1,0
378,98,36589,1,0
412,114,36673,5,0
437,141,36756,1,0
453,175,36839,1,0
458,212,36923,1,0
452,249,37006,1,8
435,282,37089,1,0
409,310,37173,1,0
374,324,37256,1,0
336,328,37339,5,0
296,328,37423,1,0
256,328,37506,1,0
216,328,37589,1,0
176,328,37673,1,8
136,328,37756,1,0
96,328,37839,1,0
56,328,37923,1,0
56,288,38006,6,0,B|0:288,3,47.5
104,256,38339,2,0,B|152:256,3,47.5,8|0|8|0
104,256,38673,6,0,B|48:224|72:152,1,95,2|0
176,208,39006,1,8
208,296,39173,2,0,B|216:360|136:368,1,95,2|0
104,256,39506,1,0
176,208,39673,2,0,B|368:208,1,190,10|0
480,304,40173,6,0,B|368:304,2,95,2|8|0
280,176,40673,2,0,B|392:176,2,95,2|0|10
448,64,41173,1,0
376,120,41340,6,0,B|344:80|368:24,1,95,2|0
448,64,41673,1,8
488,152,41840,2,0,B|464:200|392:208,1,95,2|0
376,120,42173,1,0
448,64,42340,2,0,B|496:112|480:160,1,95,10|0
408,208,42673,1,0
312,208,42840,2,0,B|200:208,2,95,2|8|0
408,208,43340,5,2
217,208,43506,1,0
240,280,43673,5,10
432,280,43840,1,0
328,120,44006,6,0,B|304:64|232:72,2,95,2|0|8
248,168,44506,2,0,B|208:208|248:280,1,95,2|0
328,224,44840,1,0
248,168,45006,2,0,B|56:168,1,190,10|0
16,80,45506,5,2
112,80,45673,1,8
152,168,45840,1,0
56,168,46006,1,2
16,256,46173,1,0
64,336,46340,1,10
112,256,46506,1,0
160,336,46673,6,0,B|216:304|200:224,1,95,2|0
112,256,47006,1,8
64,176,47173,2,0,B|8:200|16:288,1,95,2|0
112,256,47506,1,0
208,256,47673,2,0,B|400:256,1,190,10|0
452,156,48173,5,2
364,84,48340,1,8
256,120,48506,1,0
208,224,48673,5,2
216,272,48756,1,0
248,304,48840,1,10
296,312,48923,1,0
344,304,49006,1,8
376,272,49090,1,0
384,224,49173,1,8
360,184,49256,1,0
320,152,49340,6,0,B|280:120|216:128,2,95,6|0|8
72,200,49840,2,0,B|112:240|168:240,2,95,2|0|0
88,104,50340,6,0,B|32:104|-8:168,1,95,10|0
0,336,50673,1,0
176,264,50840,2,0,B|216:216|208:152,1,95,2|8
16,168,51173,1,0
120,328,51340,2,0,B|160:368|216:352,1,95,2|0
376,272,51673,1,10
376,272,51756,1,0
376,272,51839,1,0
272,192,52006,6,0,B|224:192|224:192|184:144,2,95,2|0|8
272,104,52506,2,0,B|304:64|304:64|360:56,2,95,2|0|0
360,144,53006,2,0,B|400:168|400:168|408:232,1,95,10|0
312,216,53340,1,0
224,240,53506,2,0,B|32:280,1,190,2|0
38,280,54006,5,2
8,96,54173,1,0
182,51,54340,1,10
225,241,54506,1,0
304,296,54673,6,0,B|336:264|336:264|344:208,2,95,2|0|8
424,120,55173,2,0,B|432:176|432:176|472:208,2,95,2|0|0
304,296,55673,2,0,B|80:296,1,190,10|0
114,296,56173,5,2
40,120,56340,1,8
216,56,56506,1,0
296,232,56673,1,2
208,272,56840,5,0
224,176,57006,1,10
296,232,57173,1,0
376,296,57340,6,0,B|416:248|384:176,2,95,2|0|8
464,72,57840,2,0,B|488:176,2,95,2|0|0
376,296,58340,1,10
464,72,58506,1,0
376,120,58673,5,0
348,120,58756,1,0
320,120,58840,1,2
292,120,58923,1,0
264,120,59006,1,8
236,120,59090,1,0
208,120,59173,1,0
180,120,59256,1,0
152,120,59340,6,0,B|68:120,3,47.5,2|0|0|0
180,196,59673,2,0,B|236:196,3,47.5,10|0|0|0
148,268,60006,1,4
416,344,60340,6,0,B|464:344|464:344|496:304,2,95,8|0|0
352,232,60840,2,0,B|304:232|304:232|264:272,2,95,0|8|0
448,248,61340,6,0,B|504:208|504:208|504:80,1,190,0|8
64,136,62006,2,0,B|8:176|8:176|8:304,1,190,0|8
96,264,62506,1,0
176,312,62673,6,0,B|232:312|232:312|232:312|288:368|288:368|352:368,1,190,0|8
392,288,63173,1,0
392,288,63340,6,0,B|440:248|440:248|440:96,1,190,0|8
264,0,63840,2,0,B|216:40|216:40|216:192,1,190
392,288,64340,5,8
216,167,64506,1,0
280,352,64673,1,0
336,168,64840,1,0
184,288,65006,1,8
392,288,65173,1,0
216,167,65340,6,0,B|112:240|200:344,1,190,0|8
264,264,65840,2,0,B|376:216|304:96,1,190
240,48,66340,2,0,B|144:48,1,95,8|0
64,104,66673,5,0
80,208,66839,1,0
64,104,67006,1,0
80,208,67173,2,0,B|192:208|264:288,1,190
176,328,67673,2,0,B|208:368|272:376,1,95,8|0
344,336,68006,6,0,B|424:272|368:136,1,190,0|8
280,56,68506,2,0,B|200:160|296:256,1,190
352,280,69006,1,8
424,216,69173,1,0
368,136,69340,5,0
328,104,69423,1,0
280,88,69506,1,0
232,96,69590,1,0
192,128,69673,1,8
184,176,69756,1,0
208,216,69840,1,0
216,264,69923,1,0
192,304,70006,5,0
160,336,70090,1,0
112,352,70173,1,0
64,344,70256,1,0
32,312,70340,1,8
16,264,70423,1,0
32,216,70506,1,0
200,128,70673,6,0,B|248:112|320:128,1,95
384,160,71006,1,8
464,216,71173,2,0,B|432:336|304:280,1,190
304,200,71673,1,8
224,256,71840,1,0
152,312,72006,6,0,B|96:264|96:264|112:144,1,190,0|8
360,72,72673,2,0,B|416:120|416:120|400:240,1,190,0|8
320,288,73173,1,0
240,240,73340,2,0,B|240:368,2,95,0|0|8
160,288,73840,1,0
80,240,74006,6,0,B|-8:160|96:56,1,190,0|8
432,144,74506,2,0,B|520:224|416:328,1,190
352,256,75006,6,0,B|352:360,2,95,8|0|0
248,96,75506,1,0
200,280,75673,1,8
328,136,75840,1,0
152,208,76006,5,0
184,120,76173,2,0,B|248:152|240:216,1,95,0|8
152,208,76506,1,0
88,136,76673,2,0,B|64:72|136:32,1,95
184,120,77006,5,8
112,296,77173,1,0
400,256,77340,6,0,B|512:224|496:96,1,190,0|8
408,152,77840,2,0,B|296:144|280:16,1,190
224,112,78340,2,0,B|224:216,1,95,8|0
304,264,78673,5,0
384,216,78839,2,0,B|360:168|296:160,1,95,0|8
304,264,79173,1,0
384,320,79339,2,0,B|440:328|472:256,1,95
384,216,79673,5,8
224,312,79839,1,0
384,216,80006,5,0
420,204,80089,1,0
444,176,80173,1,0
464,144,80256,1,0
468,108,80339,1,8
456,72,80423,1,0
432,44,80506,1,0
400,24,80589,1,0
364,8,80673,5,0
328,12,80756,1,0
292,28,80839,1,0
264,52,80923,1,0
248,88,81006,1,8
256,124,81089,1,0
272,160,81173,2,0,B|273:219,2,47.5,0|0|4
256,192,81423,12,0,85006
160,72,92006,6,0,B|64:72|64:72,2,95,2|0|8
224,168,92506,2,0,B|336:168|336:168,2,95,2|0|0
104,224,93006,6,0,B|144:304|144:304|264:304,1,190,10|0
176,176,93506,2,0,B|136:96|136:96|16:96,1,190,2|0
104,224,94006,2,0,B|48:224,2,47.5,2|0|0
200,328,94339,2,0,B|152:328,2,47.5,10|0|0
256,152,94673,6,0,B|256:56,2,95,2|0|8
352,232,95173,2,0,B|352:336,2,95,2|0|0
448,152,95673,2,0,B|472:112|472:112|472:48,2,95,10|0|0
352,232,96173,2,0,B|160:232,1,190,2|0
128,112,96673,2,0,B|128:40,2,47.5,2|0|0
56,216,97006,2,0,B|56:288,2,47.5,10|0|0
240,256,97339,6,0,B|152:208,2,95,2|0|8
336,176,97839,2,0,B|416:88,2,95,2|0|0
240,104,98339,2,0,B|176:135|175:223|241:254,1,190,10|0
336,328,98839,2,0,B|400:296|401:208|335:177,1,190,2|0
336,56,99339,2,0,B|400:56,2,47.5,2|0|0
216,32,99673,2,0,B|160:32,2,47.5,10|0|0
352,144,100006,6,0,B|456:144|456:144,2,95,2|0|8
168,200,100506,2,0,B|72:200,2,95,2|0|0
256,296,101006,5,10
256,104,101173,1,8
256,296,101339,5,0
240,296,101423,1,0
224,296,101506,1,2
208,296,101589,1,0
192,296,101673,1,8
176,296,101756,1,0
160,296,101839,1,0
144,296,101923,1,0
128,296,102006,6,0,B|80:296,3,47.5,2|0|0|0
160,216,102339,2,0,B|216:216,3,47.5,10|0|0|0
224,136,102673,1,0
360,40,103006,21,2
448,40,103173,1,0
408,120,103339,1,2
328,176,103506,21,0
368,248,103673,1,2
280,248,103839,1,0
168,320,104006,22,0,B|120:252|168:176,1,142.499995753169,0|2
344,64,104673,2,0,B|392:128|344:208,1,142.499995753169,0|2
256,336,105339,22,0,B|280:288|224:256|264:176,1,142.5,0|2
144,140,107006,5,2
184,228,107173,1,0
224,140,107339,1,2
264,228,107506,1,0
312,140,107673,1,2
344,228,107839,1,0
416,304,108006,6,0,B|352:328|248:304,1,142.499995753169,0|2
96,80,108673,2,0,B|160:56|264:80,1,142.499995753169,0|2
256,328,109339,5,2
256,168,109673,2,0,B|256:256,1,71.2499978765846,0|2
136,64,110173,6,0,B|88:112|184:168|112:208,1,142.5,0|2
256,192,110839,12,0,112006
256,192,112339,5,2
256,192,112506,1,0
184,120,112673,5,2
184,264,112839,1,0
328,264,113006,1,2
328,120,113173,1,0
208,72,113339,6,0,B|120:64|96:176,1,142.499995753169,2|8
296,304,114006,2,0,B|384:312|408:200,1,142.499995753169,2|8
120,64,114673,5,2
384,64,115006,1,8
384,328,115339,1,2
120,328,115673,1,8
256,336,116006,22,0,B|280:288|224:256|264:176,1,142.5,0|2
256,192,116673,12,0,117339
256,192,117673,5,10
256,192,117840,1,0
328,264,118007,5,2
328,120,118173,1,0
184,120,118340,1,10
184,264,118507,1,0
304,312,118673,6,0,B|392:320|416:208,1,142.499995753169,2|8
216,80,119340,2,0,B|128:72|104:184,1,142.499995753169,2|8
256,328,120006,5,2
256,136,120339,2,0,B|256:240,1,95,8|2
256,40,120839,1,0
256,40,121006,1,8
376,320,121339,6,0,B|424:248|336:208|384:120,1,190,0|2
256,192,122089,12,2,123506
56,48,124006,6,0,B|160:48|232:136,1,190,2|0
352,64,124506,2,0,B|360:152|288:240,1,190,2|0
216,360,125006,2,0,B|144:296|176:168,1,190,2|0
84,72,125506,2,0,B|180:48|300:96,1,190,2|0
376,184,126006,2,0,B|288:208|184:168,1,190,2|0
280,48,126506,5,0
304,56,126589,1,0
324,72,126673,1,0
340,88,126756,1,0
352,108,126839,1,0
360,132,126923,1,0
364,156,127006,6,0,B|388:196,3,47.5,8|0|0|0
396,220,127339,1,0
404,244,127423,1,0
404,268,127506,1,0
396,292,127589,1,0
380,308,127673,6,0,B|356:316|324:316,3,47.5,8|0|0|0
308,316,128006,1,0
284,312,128089,1,0
264,300,128173,1,0
244,284,128256,1,0
224,272,128339,5,8
200,268,128423,1,0
176,272,128506,1,0
156,284,128589,1,0
140,304,128673,1,0
124,320,128756,1,0
100,328,128839,1,0
76,324,128923,1,0
60,304,129006,6,0,B|48:280|52:256,3,47.5,8|0|0|0
52,236,129339,1,0
56,212,129423,1,0
72,192,129506,1,0
92,176,129589,1,0
112,164,129673,6,0,B|132:136|188:132,3,47.5,8|0|0|0
172,128,130006,1,0
188,112,130089,1,0
200,92,130173,1,0
216,72,130256,1,0
236,60,130339,2,0,B|264:48|304:52,3,47.5,8|0|0|0
308,52,130673,6,0,B|416:84|448:188,1,190,2|0
452,268,131173,2,0,B|344:236|312:132,1,190,2|0
264,248,131673,6,0,B|224:284|152:260,1,95,10|0
232,160,132006,2,0,B|268:132|340:144,1,95,2|0
416,240,132339,2,0,B|420:288|384:328,1,95,10|0
136,164,132673,2,0,B|132:116|168:76,1,95,2|0
344,44,133006,2,0,B|400:56|436:108,1,95,10|0
112,320,133339,5,2
448,184,133673,1,8
88,160,134006,1,2
420,24,134339,1,8
256,260,134673,5,0
256,72,134839,1,0
256,260,135006,1,8
124,124,135173,1,0
256,260,135339,5,0
416,156,135506,1,0
256,260,135673,1,8
324,84,135839,1,0
256,260,136006,5,0
212,76,136173,1,0
256,260,136339,1,8
112,136,136506,1,0
256,260,136673,5,0
68,244,136839,1,0
256,260,137006,1,8
444,244,137173,1,0
264,60,137339,6,0,B|240:96|240:160,1,95
320,324,137673,2,0,B|344:288|344:224,1,95,8|0
416,56,138006,2,0,B|440:92|440:156,1,95
256,192,138339,5,8
256,192,138506,1,0
164,192,138673,5,0
344,192,138839,1,0
164,192,139006,1,8
344,192,139173,1,0
256,288,139339,5,0
256,96,139506,1,0
256,288,139673,1,8
256,96,139839,1,0
372,56,140006,6,0,B|308:88|168:16|80:76,1,285,0|8
132,156,141173,1,0
256,256,141506,6,0,B|256:360,2,95,0|8|0
256,64,142173,1,0
256,64,142339,1,8
256,192,142673,12,0,145339
