osu file format v5

[General]
AudioFilename: With Your Smile.mp3
AudioLeadIn: 0
PreviewTime: -1
Countdown: 0
SampleSet: Normal
StackLeniency: 0.7
Mode: 0
LetterboxInBreaks: 1

[Metadata]
Title:With Your Smile
Artist:Shoichiro Hirata Plus Junko Hirata
Creator:Alace
Version:Normal
Source:
Tags:

[Difficulty]
HPDrainRate:5
CircleSize:4
OverallDifficulty:6
SliderMultiplier:1.2
SliderTickRate:2

[Events]
//Background and Video events
0,0,"Blissly2-full.jpg"
1,-1760,"movie.avi"
//Break Periods
//Storyboard Layer 0 (Background)
//Storyboard Layer 1 (Failing)
//Storyboard Layer 2 (Passing)
//Storyboard Layer 3 (Foreground)
//Storyboard Sound Samples
//Background Colour Transformations
3,100,0,0,0

[TimingPoints]
440,444.444444444444,4,2,1,100,1
18995,444.444444444444,4,2,1,22,0
21784,444.444444444444,4,2,1,100,1
28017,444.444444444444,4,1,1,100,0
29127,444.444444444444,4,2,1,100,0
34458,444.444444444444,4,1,1,100,0
34681,444.444444444444,4,2,1,100,0
50229,444.444444444444,4,1,0,66,0
50784,444.444444444444,4,1,0,81,0
51229,444.444444444444,4,1,0,100,0
55227,444.444444444444,4,2,1,100,0
56893,444.444444444444,4,1,0,100,0
60447,444.444444444444,4,2,0,100,0
66666,444.444444444444,4,1,1,100,0
66888,444.444444444444,4,1,0,100,0
71220,444.444444444444,4,2,0,100,0
80549,444.444444444444,4,1,0,100,0
81215,444.444444444444,4,1,0,82,0
81660,444.444444444444,4,1,0,70,0
82104,444.444444444444,4,2,1,100,0
89101,444.444444444444,4,2,1,71,0
92655,444.444444444444,4,2,1,57,0
95542,444.444444444444,4,1,1,47,0
95876,444.444444444444,4,1,1,32,0
96098,444.444444444444,4,1,1,18,0

[Colours]
Combo1 : 255,128,255
Combo2 : 1,147,254
Combo3 : 255,255,83
Combo4 : 206,103,0

[HitObjects]
64,160,7995,2,0,B|144:232|240:160,1,180,0|2
152,56,9106,1,0
280,56,9551,1,2
336,88,9773,1,0
392,56,9995,1,0
336,176,10440,5,2
368,232,10662,1,0
336,288,10884,2,0,B|272:328|216:280,3,120,0|2|0|2
160,288,12440,1,0
96,288,12662,1,0
24,176,13106,1,2
96,64,13551,1,2
448,184,15106,5,0
392,144,15328,1,2
336,264,15773,1,0
280,144,16217,1,2
224,264,16662,1,0
176,312,16884,1,0
128,360,17106,1,2
40,256,17551,1,0
40,192,17773,1,0
40,128,17995,2,0,B|128:80|224:136,1,180,2|0
216,192,18884,2,0,B|224:352|376:336|456:312|496:224|480:128|448:80|424:64|424:64|424:64|424:64,1,480,2|2
112,112,21784,5,4
240,112,22228,1,2
176,224,22672,1,4
104,336,23117,1,2
232,336,23561,1,4
360,336,24006,2,4,B|432:312|456:256,1,120
456,200,24672,5,2
456,136,24895,1,2
456,64,25117,2,0,B|392:32|328:64,3,120,2|8|2|8
336,120,26672,1,8
336,184,26895,1,2
264,296,27339,1,8
184,192,27783,1,8
256,192,28006,12,2,28895
112,184,29339,6,0,B|200:248|288:184,1,180,0|2
408,192,30450,1,8
408,56,30895,1,2
368,112,31117,1,8
344,48,31339,1,8
248,144,31783,1,2
208,192,32006,1,2
272,200,32228,1,8
376,280,32672,1,2
440,304,32895,1,8
424,240,33117,2,0,B|456:224|456:224|424:208|424:208|456:192|456:192|424:176|424:176|456:160|456:160|424:144|424:144|456:128|456:128|424:112|424:112|456:96|456:96|424:64|424:64,1,360,8|2
296,72,34895,1,0
232,72,35117,6,0,B|192:136,1,60,4|2
136,120,35561,2,0,B|112:176,1,60,4|2
96,240,36006,2,0,B|152:288|216:232|216:232,2,120,4|4|4
152,120,37339,5,4
216,120,37561,2,2,B|272:72|336:128|336:128,2,120
216,184,38672,1,4
176,240,38895,1,2
224,288,39117,1,4
280,328,39339,1,2
336,288,39561,2,4,B|384:232|328:168|328:168,2,120
200,288,40895,5,4
144,248,41117,1,2
144,112,41561,1,2
192,64,41783,1,4
256,80,42006,2,2,B|360:88|408:144|392:184,1,180,2|4
392,240,42895,5,2
336,280,43117,1,4
208,328,43561,1,4
160,280,43783,1,4
48,208,44228,1,2
104,176,44450,1,4
48,144,44672,1,2
136,48,45117,1,4
200,48,45339,1,4
264,48,45561,2,0,B|448:48,1,180,2|8
448,112,46450,6,0,B|448:296,1,180,8|8
384,296,47339,6,0,B|192:296,1,180,8|8
136,296,48228,5,8
40,200,48672,1,2
136,112,49117,1,8
264,112,49561,2,0,B|352:72|448:120,1,180,2|0
440,184,50450,6,0,B|440:248,1,60
376,240,50895,2,0,B|376:176,1,60
312,184,51339,2,0,B|312:256,1,60,0|4
248,216,51783,1,4
256,192,52006,12,4,52895
208,200,53117,5,0
256,240,53339,1,0
304,200,53561,1,0
256,152,53783,1,8
64,200,54450,5,8
64,136,54672,2,0,B|168:56,1,120,8|4
224,48,55339,2,0,B|320:128|328:136|336:136,3,120,4|4|4|4
416,216,57117,5,0
368,264,57339,2,0,B|280:312|192:256,1,180,8|8
199,191,58228,2,0,B|282:139|376:192,1,180,8|0
472,112,59339,1,0
344,64,59783,1,0
216,112,60228,1,0
80,112,60672,5,8
32,160,60895,1,2
136,240,61339,1,2
192,280,61561,2,0,B|248:312|320:280,1,120,10|2
440,280,62450,2,2,B|472:224|440:152,3,120,10|2|10|2
440,96,64006,1,2
376,96,64228,2,0,B|288:48|192:96,1,180,8|8
136,96,65117,2,0,B|16:208|136:280|248:344|352:272,1,420,8|2
400,136,67117,5,8
344,96,67339,1,0
296,136,67561,1,0
240,96,67783,1,0
184,136,68006,2,0,B|40:136|40:136|56:176,1,180,8|8
96,216,68895,1,8
192,304,69339,1,0
248,264,69561,1,0
376,264,70006,1,0
480,184,70450,1,0
376,104,70895,1,0
176,104,71561,6,0,B|64:168|64:168|176:208,1,240,4|2
264,296,72895,1,2
328,296,73117,2,2,B|456:296,3,120
464,160,74895,5,8
408,120,75117,2,0,B|320:64|232:72,1,180,2|8
104,72,76228,1,2
32,184,76672,1,8
144,120,77117,1,2
64,224,77561,1,8
192,224,78006,1,2
240,176,78228,1,8
264,240,78450,1,8
216,288,78672,5,2
344,288,79117,1,8
448,208,79561,1,2
448,72,80006,1,8
312,72,80450,1,2
248,72,80672,6,0,B|176:72,1,60,0|0
192,136,81117,2,0,B|256:136,1,60
248,200,81561,2,0,B|176:200,2,60
216,256,82228,5,0
336,304,82672,1,0
456,256,83117,2,0,B|352:184,1,120
456,104,84006,1,0
320,104,84450,2,0,B|192:104,1,120
64,104,85339,1,0
64,232,85783,5,0
112,280,86006,1,2
160,232,86228,1,0
208,280,86450,1,2
336,280,86895,2,0,B|432:200,1,120,2|2
424,72,87783,1,2
288,72,88228,1,2
152,72,88672,2,2,B|120:72,2,30
152,200,89339,6,0,B|200:248,1,60,0|2
248,200,89783,2,0,B|296:248,1,60,0|2
400,312,90450,1,2
400,176,90895,1,0
400,40,91339,1,2
264,40,91783,2,0,B|184:128|184:128|232:176,1,180,0|2
360,168,92895,5,2
424,168,93117,1,0
424,232,93339,1,2
360,232,93561,1,2
232,192,94006,1,2
96,192,94450,1,2
176,88,94895,1,2
304,88,95339,1,2
384,192,95783,1,0
424,248,96006,1,0
360,256,96228,1,0
256,192,96450,12,0,99561
