osu file format v5

[General]
AudioFilename: With Your Smile.mp3
AudioLeadIn: 0
PreviewTime: -1
Countdown: 0
SampleSet: Soft
StackLeniency: 0.7
Mode: 0
LetterboxInBreaks: 1

[Metadata]
Title:With Your Smile
Artist:Shoichiro Hirata Plus Junko Hirata
Creator:Alace
Version:Easy
Source:
Tags:

[Difficulty]
HPDrainRate:3
CircleSize:4
OverallDifficulty:5
SliderMultiplier:1
SliderTickRate:2

[Events]
//Background and Video events
0,0,"Blissly2-full.jpg"
1,-1760,"movie.avi"
//Break Periods
//Storyboard Layer 0 (Background)
//Storyboard Layer 1 (Failing)
//Storyboard Layer 2 (Passing)
//Storyboard Layer 3 (Foreground)
//Storyboard Sound Samples
//Background Colour Transformations
3,100,0,0,0

[TimingPoints]
440,444.444444444444,4,2,1,100,1
18886,444.444444444444,4,2,1,47,0
21329,444.444444444444,4,2,1,100,0
21784,444.444444444444,4,2,1,100,1
33126,444.444444444444,4,2,1,52,0
35014,444.444444444444,4,2,1,100,0
52450,444.444444444444,4,1,0,100,0
54005,444.444444444444,4,2,1,100,0
66888,444.444444444444,4,1,0,100,0
74663,444.444444444444,4,2,1,100,0
81993,444.444444444444,4,1,1,100,0
86657,444.444444444444,4,2,1,100,0
89101,444.444444444444,4,2,1,68,0
92655,444.444444444444,4,2,1,47,0
96431,444.444444444444,4,2,1,7,0

[Colours]
Combo1 : 255,128,255
Combo2 : 1,147,254
Combo3 : 255,255,83
Combo4 : 206,103,0

[HitObjects]
64,104,7995,2,0,B|136:152|216:96,1,150,0|0
328,104,9106,2,0,B|392:136|424:216|328:256,1,200,0|0
208,256,10440,6,0,B|208:312,2,50
88,256,11328,1,0
88,136,11773,1,0
208,136,12217,1,0
208,136,12440,1,0
208,136,12662,2,0,B|272:88|328:64|384:152,1,200
32,312,15106,6,0,B|176:264,1,150
144,144,16217,2,0,B|224:168|328:248,1,200
408,312,17551,1,0
408,312,17773,1,0
408,312,17995,2,0,B|448:248|464:200|456:168,1,150
256,192,18884,12,0,20662
144,208,21784,6,0,B|216:136,1,100,4|2
296,48,22672,2,0,B|376:120,1,100,4|2
472,184,23561,2,0,B|472:296,1,100,4|2
352,280,24450,2,0,B|248:272,1,100,4|2
128,264,25339,5,4
24,208,25783,1,2
128,152,26228,1,4
24,88,26672,1,2
128,32,27117,1,4
232,88,27561,1,2
336,32,28006,1,4
440,88,28450,1,2
440,208,28895,1,0
440,328,29339,6,0,B|376:352|328:360|296:320,1,150,4|2
320,208,30450,2,0,B|264:200|184:200|136:272,1,200,2|2
56,184,31783,1,0
56,184,32006,1,0
56,184,32228,1,0
144,104,32672,1,2
144,104,32895,1,2
256,192,33117,12,0,34672
200,192,35117,6,0,B|256:272|376:296,1,200,8|8
440,200,36450,1,0
440,80,36895,1,8
336,144,37339,2,0,B|272:152|184:208,1,150,8|2
112,112,38450,6,0,B|-8:168|32:288|112:304,1,250,0|8
216,304,40006,1,0
336,304,40450,1,8
456,304,40895,2,0,B|344:152|496:200|448:88|368:24,1,300,0|2
264,56,42672,5,8
144,56,43117,1,0
48,128,43561,1,8
144,192,44006,1,0
264,192,44450,1,8
368,136,44895,1,0
448,224,45339,1,8
368,312,45783,1,0
248,312,46228,6,0,B|248:256,2,50,8|0|0
128,312,47117,1,8
128,312,47339,1,0
16,264,47783,2,0,B|16:320,2,50,0|8|2
16,144,48672,1,2
16,24,49117,1,2
112,88,49561,2,0,B|128:144|168:224|224:304|304:312|352:248|480:232|472:88,1,550,2|0
280,80,52895,5,4
280,80,53117,1,0
280,80,53339,1,0
280,80,53561,1,0
280,80,53783,1,0
160,80,54228,2,0,B|56:80,1,100,8|2
64,200,55117,2,0,B|168:200,1,100,8|2
280,200,56006,2,0,B|384:200,1,100,8|2
496,200,56895,6,0,B|496:312,1,100,8|2
376,312,57783,2,0,B|320:216,1,100,8|2
208,224,58672,2,0,B|168:320,1,100,8|2
48,312,59561,2,0,B|16:216,1,100,8|2
72,112,60450,5,8
160,32,60895,1,2
240,120,61339,1,8
320,32,61783,1,2
392,120,62228,1,8
456,224,62672,1,2
400,328,63117,1,8
280,328,63561,1,2
160,328,64006,6,0,B|24:248|56:192|216:192|72:96,1,300,8|2
192,64,65783,5,8
312,64,66228,1,2
432,64,66672,1,8
432,184,67117,5,4
432,184,67339,1,0
432,184,67561,1,0
432,184,67783,1,0
432,184,68006,2,0,B|536:288|432:352,1,200
320,328,69339,5,0
256,328,69561,2,0,B|152:328,3,100
24,208,71561,6,0,B|56:136|184:80,1,200
296,72,72895,1,0
352,72,73117,2,0,B|456:72,3,100
456,192,74895,6,2,B|408:288|360:320,2,150,2|10|2
344,144,76672,1,2
232,184,77117,1,2
120,136,77561,1,2
8,184,78006,1,2
8,184,78228,1,8
8,184,78450,2,0,B|32:296|256:344|304:344,1,350,2|8
416,336,80450,5,2
416,216,80895,5,8
416,96,81339,5,2
296,96,81783,5,8
176,96,82228,6,0,B|88:160,1,100,0|8
216,144,83117,2,0,B|296:208,1,100,0|8
176,192,84006,2,0,B|80:240,1,100,0|8
208,240,84895,2,0,B|312:288,1,100,0|8
192,344,85783,6,0,B|304:344|336:296,1,150,2|0
440,256,86895,1,2
440,136,87339,1,0
320,136,87783,1,2
200,136,88228,2,0,B|128:120|56:168,1,150,0|0
64,288,89339,6,0,B|184:336|216:328,1,150,0|2
328,328,90450,1,0
448,328,90895,1,2
448,208,91339,1,0
328,208,91783,1,2
224,272,92228,1,2
224,272,92450,1,2
104,272,92895,5,0
104,272,93117,1,0
104,272,93339,1,0
104,272,93561,1,0
24,184,94006,1,0
104,96,94450,1,0
184,184,94895,1,0
264,272,95339,1,0
344,184,95783,1,0
344,184,96006,1,0
256,192,96450,12,0,99561
