osu file format v5

[General]
AudioFilename: Serious.mp3
AudioLeadIn: 2007
PreviewTime: -1
Countdown: 1
SampleSet: Normal
StackLeniency: 0.7
Mode: 0
LetterboxInBreaks: 1

[Metadata]
Title:Serious
Artist:Shogo Sakai
Creator:Real1
Version:Hard
Source:MOTHER 3
Tags:

[Difficulty]
HPDrainRate:6
CircleSize:6
OverallDifficulty:6
SliderMultiplier:0.999999999999999
SliderTickRate:2

[Events]
//Background and Video events
0,0,"shot.PNG"
//Break Periods
//Storyboard Layer 0 (Background)
//Storyboard Layer 1 (Failing)
//Storyboard Layer 2 (Passing)
//Storyboard Layer 3 (Foreground)
//Storyboard Sound Samples
//Background Colour Transformations
3,100,128,0,0

[TimingPoints]
564,428.571428571429,4,1,0,70,1

[Colours]
Combo1 : 218,218,218
Combo2 : 206,0,206
Combo3 : 255,169,128
Combo4 : 176,0,0

[HitObjects]
256,56,564,5,0
256,104,778,1,0
256,152,992,2,4,B|256:208,2,50
352,176,1849,5,0
360,224,2064,1,0
312,208,2278,1,0
272,232,2492,1,0
232,208,2706,1,0
184,208,2921,1,0
136,208,3135,2,2,B|48:208,2,50
112,272,3992,6,0,B|168:288,1,50
160,336,4421,2,2,B|112:352,1,50
48,248,5064,5,8
96,248,5278,1,8
144,248,5492,1,8
192,248,5706,1,8
328,192,6349,5,0
328,240,6564,1,0
296,280,6778,1,0
264,240,6992,1,0
232,200,7206,1,0
200,160,7421,5,0
136,176,7849,1,0
176,208,8064,1,0
144,248,8278,1,0
184,336,8706,1,0
144,304,8921,1,0
184,272,9135,1,0
384,304,9778,6,2,B|280:304,1,99.9999999999999
240,304,10421,1,0
192,304,10635,1,0
144,304,10849,1,0
96,304,11064,1,0
48,304,11278,2,2,B|48:200,1,99.9999999999999
48,160,11921,1,2
48,112,12135,1,2
48,64,12349,1,2
144,32,12778,5,0
96,40,12992,1,0
112,88,13206,2,0,B|168:88,1,50
160,136,13635,1,0
144,184,13849,2,2,B|144:240,1,50
184,256,14278,2,4,B|240:256,3,50
232,152,15563,5,0
272,120,15778,1,0
320,112,15992,2,0,B|376:112,1,50
464,88,16635,1,4
296,328,17278,6,0,B|240:328,2,50,0|0|0
344,328,17921,1,0
392,328,18135,2,0,B|448:328,2,50
344,328,18778,1,0
296,328,18992,1,4
256,264,19421,6,0,B|336:192,2,99.9999999999999
160,232,20706,1,0
192,136,21135,5,4
288,104,21563,1,8
312,200,21992,1,4
248,128,22421,1,8
152,144,22849,2,4,B|152:304,1,150
256,312,23921,6,4,B|200:312,2,50
304,312,24563,5,4
328,224,24992,1,8
328,136,25421,1,4
328,224,25849,1,8
392,160,26278,2,4,B|392:328,1,150
152,272,27349,6,0,B|96:272,2,50,0|0|0
104,224,27992,2,0,B|96:120,1,99.9999999999999
120,80,28635,1,0
168,64,28849,2,2,B|264:24,1,99.9999999999999
240,72,29492,6,0,B|272:160,2,50
280,40,30135,1,0
296,88,30349,1,0
272,128,30563,1,0
240,168,30778,1,0
208,208,30992,1,0
176,248,31206,1,0
168,296,31421,2,0,B|280:296,1,99.9999999999999
312,280,32063,2,2,B|312:384,1,99.9999999999999
264,384,32706,1,0
240,344,32921,2,0,B|280:312,3,50
344,264,33778,6,0,B|240:264,1,99.9999999999999
192,264,34421,2,4,B|192:376,1,99.9999999999999
232,264,35278,6,0,B|128:168,1,99.9999999999999
120,168,35921,1,0
160,144,36135,1,0
120,112,36349,1,0
144,64,36564,1,0
192,48,36778,1,0
200,96,36992,2,0,B|200:192,1,50
200,192,37421,1,0
200,240,37635,1,0
240,224,37849,6,0,B|296:224,2,50
280,192,38492,1,0
328,192,38706,1,0
360,232,38921,2,2,B|488:232,1,99.9999999999999
456,280,39564,1,0
416,312,39778,2,2,B|360:368,1,50
328,344,40206,5,0
288,312,40421,1,0
320,272,40635,1,0
288,232,40849,1,0
328,200,41064,1,0
296,160,41278,1,0
272,120,41492,1,0
304,80,41706,2,2,B|344:48,1,50
392,56,42135,2,6,B|392:112,1,50
376,152,42564,5,0
336,184,42778,1,0
288,200,42992,1,4
240,216,43206,1,4
208,176,43421,2,6,B|88:64|-8:176,1,200
224,192,45135,5,2
224,288,45564,1,0
120,288,45992,1,2
120,184,46421,1,0
120,80,46849,1,2
120,176,47278,1,0
168,248,47706,5,2
168,200,47921,1,2
168,152,48135,1,2
296,192,48564,5,4
328,96,48992,1,8
296,192,49421,1,4
392,192,49849,1,8
296,192,50278,2,4,B|296:40,1,150
192,48,51349,6,0,B|248:48,2,50
192,96,51992,5,4
192,96,52421,1,8
288,104,52849,1,4
288,104,53278,1,8
360,168,53706,2,4,B|360:352,1,150
264,296,54778,5,8
264,296,54992,1,8
256,192,55421,5,4
