osu file format v5

[General]
AudioFilename: Serious.mp3
AudioLeadIn: 1996
PreviewTime: -1
Countdown: 1
SampleSet: Normal
StackLeniency: 0.7
Mode: 0
LetterboxInBreaks: 1

[Metadata]
Title:Serious
Artist:Shogo Sakai
Creator:Real1
Version:Easy
Source:MOTHER 3
Tags:

[Difficulty]
HPDrainRate:6
CircleSize:4
OverallDifficulty:4
SliderMultiplier:0.799999999999999
SliderTickRate:1

[Events]
//Background and Video events
0,0,"shot.PNG"
//Break Periods
//Storyboard Layer 0 (Background)
//Storyboard Layer 1 (Failing)
//Storyboard Layer 2 (Passing)
//Storyboard Layer 3 (Foreground)
//Storyboard Sound Samples
//Background Colour Transformations
3,100,128,0,0

[TimingPoints]
564,428.571428571429,4,1,0,70,1

[Colours]
Combo1 : 217,217,236
Combo2 : 174,0,0
Combo3 : 168,0,168
Combo4 : 255,200,145

[HitObjects]
256,32,564,2,0,B|128:232|256:352,1,320
168,328,2706,1,2
168,264,3135,1,2
168,200,3564,1,2
128,152,3992,5,0
192,152,4421,2,2,B|224:272|360:312,1,240
408,272,6135,5,2
360,312,6564,1,2
296,328,6992,1,2
232,328,7421,1,2
184,280,7849,5,0
240,248,8278,1,2
304,240,8706,1,2
312,176,9135,2,2,B|192:32|80:152,1,240
40,136,10849,5,0
56,200,11278,1,2
120,208,11706,1,2
184,208,12135,1,2
184,112,12778,6,0,B|128:112,5,40
160,176,14278,2,6,B|16:256|160:288,1,160
184,304,15563,5,0
240,328,15992,2,6,B|440:176,1,240
440,80,17706,5,2
392,128,18135,1,0
336,168,18563,1,2
288,216,18992,1,0
240,264,19421,1,2
192,312,19849,1,0
128,328,20278,2,2,B|40:328,1,79.9999999999999
64,264,21135,5,12
152,176,21992,1,12
240,88,22849,1,12
432,256,24563,5,12
344,168,25421,1,12
256,80,26278,1,12
112,88,27992,6,2,B|224:160|344:88,1,240
360,152,29706,1,0
304,192,30135,1,0
240,192,30563,1,0
176,192,30992,1,0
176,128,31421,6,2,B|304:128,1,120
360,128,32492,1,0
360,224,33135,1,4
280,80,34849,5,0
280,144,35278,1,0
280,208,35706,2,2,B|280:328,1,79.9999999999999
344,304,36564,1,0
296,352,36992,1,0
232,344,37421,1,0
184,304,37849,1,0
192,240,38278,2,2,B|296:160|304:352,1,200
328,200,40206,6,4,B|280:200,7,40
288,264,42135,5,0
352,264,42564,1,0
416,264,42992,1,0
432,200,43421,5,2
472,248,43849,1,2
464,312,44278,1,2
368,328,44921,2,8,B|320:296,1,40
368,112,46421,5,0
328,160,46849,1,0
248,256,47706,2,2,B|232:304|184:312,1,79.9999999999999
128,288,48564,5,12
128,160,49421,1,12
128,32,50278,1,12
384,168,51992,5,12
264,248,52849,1,12
120,248,53706,1,12
256,192,55421,5,4
