osu file format v12

[General]
AudioFilename: MOTHER 3 - 024 - Forest of Flames.mp3
AudioLeadIn: 0
PreviewTime: 6488
Countdown: 0
SampleSet: Normal
StackLeniency: 0.7
Mode: 0
LetterboxInBreaks: 1

[Editor]
DistanceSpacing: 1
BeatDivisor: 4
GridSize: 4

[Metadata]
Title:Forest of Flames
TitleUnicode:Forest of Flames
Artist:Shogo Sakai
ArtistUnicode:Shogo Sakai
Creator:cheesiest
Version:Normal
Source:MOTHER 3
Tags:酒井省吾
BeatmapID:275992
BeatmapSetID:105081

[Difficulty]
HPDrainRate:4
CircleSize:3
OverallDifficulty:4
ApproachRate:5
SliderMultiplier:1.4
SliderTickRate:1

[Events]
//Background and Video events
0,0,"bg.png",0,0
//Break Periods
2,29654,31212
2,49656,51211
//Storyboard Layer 0 (Background)
//Storyboard Layer 1 (Fail)
//Storyboard Layer 2 (Pass)
//Storyboard Layer 3 (Foreground)
//Storyboard Sound Samples
//Background Colour Transformations
3,100,163,162,255

[TimingPoints]
562,370.37037037037,4,1,0,20,1,0
18339,-100,4,2,0,35,0,0
24265,-100,4,2,0,35,0,0
26487,370.37037037037,4,2,0,35,1,0
27227,-100,4,2,0,30,0,0
27968,-100,4,2,0,25,0,0
28709,-100,4,2,0,20,0,0
32320,-100,4,1,0,20,0,0
38338,-100,4,2,0,35,0,0
46486,370.37037037037,4,2,0,35,1,0
46486,-100,4,2,0,35,0,0
47226,-100,4,2,0,30,0,0
47967,-100,4,2,0,25,0,0
48708,-100,4,2,0,20,0,0
52411,-100,4,2,0,5,0,0

[Colours]
Combo1 : 255,192,0
Combo2 : 0,202,0
Combo3 : 18,124,255
Combo4 : 242,24,57

[HitObjects]
156,48,6487,2,0,B|204:76|256:48|256:48|308:20|356:48,2,210,4|4|0,0:3|0:3|0:0,0:0:0:0:
116,116,7784,1,0,0:0:0:0:
96,192,7969,2,0,P|132:220|232:200,1,140,4|0,0:3|0:0,0:0:0:0:
290,174,8524,2,0,P|380:164|416:192,1,140,4|0,0:3|0:0,0:0:0:0:
460,260,9080,1,0,0:0:0:0:
356,336,9450,6,0,B|308:308|256:336|256:336|204:364|156:336,2,210,4|4|0,0:3|0:3|0:0,0:0:0:0:
396,268,10747,1,0,0:0:0:0:
416,192,10932,2,0,P|380:164|280:184,1,140,4|0,0:3|0:0,0:0:0:0:
221,209,11487,2,0,P|132:220|96:192,1,140,4|0,0:3|0:0,0:0:0:0:
52,124,12043,1,0,0:0:0:0:
136,24,12413,6,0,P|240:84|376:24,1,280,4|2,0:3|0:2,0:0:0:0:
468,132,13524,1,0,0:0:0:0:
376,240,13895,2,0,P|272:180|136:240,1,280,4|2,0:3|0:2,0:0:0:0:
48,352,15006,1,0,0:0:0:0:
186,333,15376,5,4,0:3:0:0:
326,333,15747,1,0,0:0:0:0:
464,352,16117,1,2,0:2:0:0:
326,107,16858,1,4,0:3:0:0:
186,107,17228,1,0,0:0:0:0:
48,88,17599,1,2,0:2:0:0:
164,344,18339,6,0,P|292:264|324:144,1,280,2|2,0:0|0:0,0:0:0:0:
256,24,19450,1,2,0:0:0:0:
186,64,19636,1,0,0:0:0:0:
187,145,19821,2,0,P|220:264|348:344,1,280,2|2,0:0|0:0,0:0:0:0:
64,312,21302,6,0,P|4:176|64:72,1,280,2|2,0:0|0:0,0:0:0:0:
132,28,22228,1,0,0:0:0:0:
204,64,22413,1,2,0:0:0:0:
148,192,22784,1,2,0:0:0:0:
204,320,23154,1,2,0:0:0:0:
268,272,23339,1,0,0:0:0:0:
256,192,23524,1,2,0:0:0:0:
448,72,24265,6,0,P|508:208|448:312,1,280,0|2,1:0|0:0,0:0:0:0:
380,356,25191,1,0,0:0:0:0:
308,320,25376,1,2,0:0:0:0:
364,192,25747,1,2,1:2:0:0:
308,64,26117,1,0,0:0:0:0:
256,192,26487,6,0,P|120:208|96:348,1,280,2|2,0:0|0:0,0:0:0:0:
340,208,27968,2,0,P|476:192|500:52,1,280,2|2,0:0|0:0,0:0:0:0:
256,192,29449,5,2,0:0:0:0:
376,360,32412,6,0,P|272:300|136:360,1,280,4|2,0:3|0:2,0:0:0:0:
44,252,33524,1,0,0:0:0:0:
136,144,33894,2,0,P|240:204|376:144,1,280,4|2,0:3|0:2,0:0:0:0:
464,32,35005,1,0,0:0:0:0:
326,51,35375,5,4,0:3:0:0:
186,51,35746,1,0,0:0:0:0:
48,32,36116,1,2,0:2:0:0:
186,277,36857,1,4,0:3:0:0:
326,277,37227,1,0,0:0:0:0:
464,296,37598,1,2,0:2:0:0:
348,40,38338,6,0,P|220:120|188:240,1,280,2|2,0:0|0:0,0:0:0:0:
256,360,39449,1,2,0:0:0:0:
326,320,39635,1,0,0:0:0:0:
325,239,39820,2,0,P|292:120|164:40,1,280,2|2,0:0|0:0,0:0:0:0:
448,72,41301,6,0,P|508:208|448:312,1,280,2|2,0:0|0:0,0:0:0:0:
380,356,42227,1,0,0:0:0:0:
308,320,42412,1,2,0:0:0:0:
364,192,42783,1,2,0:0:0:0:
308,64,43153,1,2,0:0:0:0:
244,112,43338,1,0,0:0:0:0:
256,192,43524,1,0,0:0:0:0:
64,312,44264,6,0,P|4:176|64:72,1,280,0|2,1:0|0:0,0:0:0:0:
132,28,45190,1,0,0:0:0:0:
204,64,45375,1,2,0:0:0:0:
148,192,45746,1,2,1:2:0:0:
204,320,46116,1,0,0:0:0:0:
256,192,46486,6,0,P|392:176|416:36,1,280,2|2,0:0|0:0,0:0:0:0:
172,176,47967,2,0,P|36:192|12:332,1,280,2|2,0:0|0:0,0:0:0:0:
256,192,49448,5,2,0:0:0:0:
256,192,52411,12,0,55374,0:0:0:0:
