osu file format v4

[General]
AudioFilename: Fire Emblem Theme (Brawl Version).mp3
AudioLeadIn: 0
AudioHash: 73766fe9d7f003bce77f55ca6330ed72
PreviewTime: -1
SampleSet: Soft

[Metadata]
Title:Fire Emblem Theme (Brawl Version)
Artist:Shogo Sakai
Creator:Cecilthemos
Version:Normal

[Difficulty]
HPDrainRate:4
CircleSize:4
OverallDifficulty:4
SliderMultiplier: 1
SliderTickRate: 1

[Events]
//Background and Video events
0,-1,"stage09_070802a-l.jpg"
//Break Periods
2,20381,27004
2,68123,78178
2,93841,106892
2,128127,134321
//Storyboard Layer 0 (Background)
//Storyboard Layer 1 (Failing)
//Storyboard Layer 2 (Passing)
//Storyboard Layer 3 (Foreground)
//Storyboard Sound Samples
//Background Colour Transformations
3,0,163,162,255

[TimingPoints]
7753,428.571428571429,4,2,0
62584,395.5174686882,4,2,0
79070,428.571428571429,4,2,0

[Colours]
Combo1 : 184,71,80
Combo2 : 109,139,129
Combo3 : 122,115,75
Combo4 : 103,99,150

[HitObjects]
32,32,7752,1,4
224,32,8610,1,0
224,160,9038,1,0
352,160,9467,2,4,B|352:160|448:224|288:352|256:320,2,200
64,64,12467,5,0
192,64,12895,2,4,B|192:64|256:128|384:128,1,200
480,288,14610,6,0,B|480:288|320:256|256:288,1,200
160,288,15895,1,0
160,160,16324,2,4,B|160:160|256:160|352:32|480:128,1,300
448,192,18038,2,2,B|448:192|352:192|256:320|128:224,1,300
160,128,19753,1,0
288,128,20181,5,4
32,32,28324,6,0,B|32:32|120:102|160:96,2,100
32,160,29610,1,0
160,160,30038,2,4,B|160:160|224:224|352:192|352:288,1,200
448,256,31324,1,0
448,128,31753,2,0,B|448:128|384:96|416:32,1,100
320,32,32610,1,0
256,32,32824,1,0
192,32,33038,1,0
256,192,33467,12,4,34753
32,32,35610,2,0,B|32:32|128:128|256:64,1,200
320,128,36895,2,4,B|320:128|427:207|256:256,1,200
128,256,38181,1,0
128,128,38610,1,0
256,128,39038,2,4,B|256:128|320:64|448:192,1,200
416,288,40324,2,2,B|416:288|267:351|96:224|0:320,1,400
32,160,42467,2,4,B|32:160|88:70|194:203|320:128,1,300
448,64,44395,1,0
448,64,44610,1,0
448,192,45038,5,0
448,192,45253,1,0
448,192,45467,2,4,B|448:192|448:288|288:320,1,200
288,192,46753,1,0
256,192,47181,12,4,48895
32,64,49753,1,0
32,64,50181,1,0
32,64,50610,2,4,B|32:64|128:64|256:81|256:96,1,200
480,64,52324,2,0,B|480:64|448:160|320:256,1,250
256,256,53610,1,0
192,256,53824,1,0
192,192,54038,1,4
256,32,54895,1,4
480,32,55753,6,0,B|480:32|448:160|480:256,1,200
352,224,57038,1,0
224,224,57467,2,4,B|224:224|284:91|128:96,1,200
32,160,58753,1,0
256,192,59181,12,4,62584
192,32,63375,1,0
320,32,63770,1,0
192,160,64166,1,0
320,160,64561,1,0
256,256,64957,1,2
256,256,65154,1,2
320,256,65352,6,0,B|320:256|384:288|352:320,2,50
448,256,66143,2,0,B|448:256|480:192|416:192,2,50
448,128,66934,2,0,B|448:128|480:96|448:64,2,50
256,192,67725,5,2
256,192,67923,1,2
192,192,79498,5,4
384,192,80355,1,0
384,192,80570,1,0
384,192,80784,1,0
384,320,81212,2,0,B|384:320|276:354|160:288,1,200
192,160,82498,2,4,B|192:160|192:96|128:64|32:96|32:160,1,200
32,256,83784,1,0
160,256,84212,1,0
288,256,84641,2,0,B|288:256|352:192|448:288|512:192,1,200
480,96,85927,2,4,B|480:96|352:64|320:128|160:64,1,300
32,32,87641,6,0,B|32:32|96:128,1,100
128,288,88712,2,0,B|128:288|224:288,1,50
249,288,89141,1,0
320,288,89355,2,4,B|320:288|376:212|356:74,1,200
256,192,90641,12,4,93641
32,64,108212,1,4
224,64,109070,1,0
352,64,109498,1,0
480,64,109927,2,4,B|480:64|480:160|352:224,1,200
480,352,111641,2,4,B|480:352|384:320|256:352|160:288,1,300
198,236,113141,1,0
128,224,113355,2,4,B|128:224|65:195|64:96|128:32,1,200
480,32,115070,6,0,B|480:32|429:116|288:128,1,200
192,128,116355,1,0
64,128,116784,2,4,B|64:128|128:224|32:320,1,200
192,320,118070,2,0,B|192:320|256:288|288:320,1,100
256,192,118927,12,4,120641
32,64,121498,1,0
96,64,121712,1,0
160,64,121927,2,0,B|160:64|227:129|160:192,2,100
224,64,122998,1,0
288,64,123212,1,0
352,64,123427,1,0
416,64,123641,2,4,B|416:64|448:128|352:224,1,150
374,200,124498,1,2
256,320,124927,5,0
256,256,125141,1,0
256,192,125355,2,4,B|256:192|128:256|32:160|64:32|256:32|384:64,1,500
367,60,127927,1,4
32,32,135641,6,4,B|32:32|128:64|96:160|160:224,1,200
256,192,136927,1,0
384,192,137355,1,0
384,192,138212,1,4
480,352,139070,2,0,B|480:352|384:288|288:352|160:256,1,300
64,288,140784,2,4,B|64:288|30:244|64:192,2,100
480,32,142498,6,0,B|480:32|478:184|352:96,1,200
480,192,143784,5,0
480,192,144212,2,4,B|480:192|502:329|352:256,1,200
224,256,145498,1,0
352,256,145927,2,2,B|352:256|352:128,1,100
224,160,146784,2,2,B|224:160|224:32,1,100
64,64,147641,1,4
64,64,148070,1,4
256,192,148927,5,2
256,192,149355,12,4,153641
