osu file format v4

[General]
AudioFilename: Fire Emblem Theme (Brawl Version).mp3
AudioLeadIn: 0
AudioHash: 73766fe9d7f003bce77f55ca6330ed72
PreviewTime: -1
SampleSet: Soft

[Metadata]
Title:Fire Emblem Theme (Brawl Version)
Artist:Shogo Sakai
Creator:Cecilthemos
Version:Hard

[Difficulty]
HPDrainRate:5
CircleSize:5
OverallDifficulty:5
SliderMultiplier: 1.5
SliderTickRate: 2

[Events]
//Background and Video events
0,-1,"stage09_070802a-l.jpg"
//Break Periods
2,55095,61384
2,76231,78298
2,120841,125870
//Storyboard Layer 0 (Background)
//Storyboard Layer 1 (Failing)
//Storyboard Layer 2 (Passing)
//Storyboard Layer 3 (Foreground)
//Background Colour Transformations
3,0,163,162,255

[TimingPoints]
7753,428.571428571429,4,2,0
62584,395.5174686882,4,2,0
79070,428.571428571429,4,2,0

[Colours]
Combo1 : 184,71,80
Combo2 : 109,139,129
Combo3 : 122,115,75
Combo4 : 103,99,150

[HitObjects]
32,96,7752,2,4,B|32:96|96:160|320:192,1,300
320,320,9038,2,2,B|320:320|256:352|160:288,2,150
320,192,10324,1,4
32,64,11181,6,0,B|32:64|133:236|352:32,1,375
416,32,12467,1,0
416,96,12681,1,2
416,160,12895,2,4,B|416:160|288:128|128:288,1,300
480,64,14610,6,4,B|480:64|416:128|320:96,2,150
480,192,15895,1,0
480,192,16324,2,4,B|480:192|416:256|160:192,1,300
191,200,17610,1,2
191,198,18038,2,4,B|191:198|192:351|384:383|448:255,1,300
407,199,19324,1,0
407,199,19538,1,0
407,199,19753,2,4,B|407:199|335:158|215:263,1,150
0,32,21038,5,4
64,32,21253,1,0
128,32,21467,2,2,B|128:32|192:64|192:160,2,150
96,96,22538,1,0
96,160,22753,2,0,B|96:160|128:224|192:224,1,75
206,219,23181,2,4,B|206:219|291:182|323:30,1,225
384,32,24038,1,2
384,160,24467,5,0
384,224,24681,1,0
384,288,24895,1,0
288,352,25324,2,4,B|288:352|288:288|192:224|96:192,1,225
64,192,26181,2,0,B|64:192|64:128,2,75
256,192,27038,5,2
256,192,27145,1,2
256,192,27253,1,2
320,192,27467,2,6,B|320:192|352:129|338:83|288:32|128:32,1,300
32,192,28753,6,0,B|32:192|96:256|256:256,1,225
288,256,29610,1,0
352,256,29824,1,0
352,256,30038,2,4,B|352:256|416:192|384:32,1,225
385,42,30895,1,4
256,32,31324,6,0,B|256:32|256:128,2,75
128,32,32181,2,2,B|128:32|64:96|96:224,1,150
85,171,32824,2,4,B|85:171|159:225,3,75
256,192,34324,5,4
480,32,34753,5,0
448,96,34967,1,0
416,160,35181,2,0,B|416:160|352:256|384:320,2,150
352,160,36253,2,0,B|352:160|288:160|256:96,1,75
224,96,36681,1,0
224,96,36895,2,4,B|224:96|87:130|192:288,1,225
181,271,37753,1,2
256,352,38181,5,0
256,288,38395,1,0
256,224,38610,2,0,B|256:224|320:160|352:64,2,150
192,192,39681,2,0,B|192:192|224:128|256:128,2,75
256,192,40324,12,4,41609
480,32,42038,2,0,B|480:32|448:128|352:192,2,150
416,32,43110,1,0
352,32,43324,2,0,B|352:32|288:64|224:32,1,75
224,64,43753,2,4,B|224:64|261:187|64:128,1,225
69,130,44610,1,4
64,256,45038,1,0
128,256,45253,1,0
192,256,45467,2,0,B|192:256|224:224|224:192,1,75
256,128,45895,6,4,B|256:128|384:64|448:192,1,225
448,256,46753,2,2,B|448:256|384:288|320:224,1,75
256,192,47181,12,4,48895
32,32,49753,2,0,B|32:32|128:64|192:64,1,150
288,64,50610,2,4,B|288:64|352:96|372:266|160:192,1,300
128,320,52324,2,2,B|128:320|256:320|352:224|512:352,1,375
480,256,53610,1,0
480,192,53824,1,0
480,128,54038,2,4,B|480:128|385:156|320:64,2,150
32,96,62584,5,2
96,96,62781,1,2
160,96,62979,2,4,B|160:96|262:150|160:224,1,150
120,219,63572,1,2
60,225,63770,2,4,B|60:225|10:288|60:385,1,150
112,365,64363,1,2
174,362,64561,2,4,B|174:362|252:345|243:228,1,150
480,192,65352,5,2
416,192,65550,1,2
352,192,65748,2,4,B|352:192|384:111|320:32,1,150
273,49,66341,1,2
208,50,66539,2,4,B|208:50|169:113|226:211,1,150
224,256,67132,1,2
160,256,67330,1,2
32,192,67725,5,4
256,32,68121,5,0
288,96,68319,1,0
224,96,68516,1,0
256,160,68714,2,4,B|256:160|525:101|561:339|448:352|256:352|96:352,1,675
32,192,70889,5,0
96,192,71087,1,0
32,128,71285,1,2
96,128,71483,2,4,B|96:128|126:14|281:-67|480:64,1,450
480,128,72867,5,0
480,192,73065,1,0
416,192,73262,1,0
416,192,73460,1,0
352,192,73658,5,0
352,256,73856,1,0
288,256,74054,1,0
288,320,74251,1,0
224,320,74449,1,0
160,320,74647,1,0
192,256,74845,2,4,B|192:256|224:224|160:160|96:192,1,150
32,192,75438,5,2
32,128,75636,2,4,B|32:128|70:53|192:128,1,150
256,192,79498,5,4
480,32,80355,6,2,B|480:32|416:64|384:0,2,75
480,160,81212,2,4,B|480:160|416:224|256:128|224:224,1,225
263,245,82070,2,2,B|263:245|327:277|359:245,1,75
396,262,82498,2,4,B|396:262|419:336|356:368|202:329|201:331,1,225
170,334,83355,1,2
32,128,83784,5,2
160,128,84212,1,2
160,127,84641,2,6,B|160:127|256:63|416:95|416:159,1,225
382,169,85498,2,0,B|382:169|345:197|271:156,1,75
249,177,85927,2,4,B|249:177|186:237|244:294|379:337,1,225
410,331,86784,1,0
448,288,86998,1,0
448,288,87105,1,0
448,288,87212,1,0
448,288,87320,1,0
448,288,87427,1,4
479,223,87641,6,2,B|479:223|447:159|351:127,1,150
256,32,88712,5,0
256,96,88927,1,0
256,160,89141,1,0
256,222,89355,2,4,B|256:222|177:267|256:382|352:318,1,225
348,265,90212,2,4,B|348:265|349:112,2,150
192,256,91498,5,0
64,256,91927,2,0,B|64:256|30:218|64:192,1,75
128,160,92355,1,0
128,224,92570,1,0
192,192,92784,2,4,B|192:192|224:160|384:337|480:64,1,300
32,192,94498,5,0
32,192,94713,1,0
32,192,94927,1,0
32,192,95141,1,0
128,160,95355,5,0
128,160,95570,1,0
224,192,95784,5,0
224,192,95998,1,0
320,160,96212,5,2
320,160,96427,1,2
320,160,96641,1,2
320,160,96855,1,0
416,160,97070,6,4,B|416:160|480:256|224:352,1,300
160,320,98141,5,2
160,320,98355,1,2
160,320,98570,1,2
160,320,98784,1,2
128,256,98998,5,2
192,256,99212,5,0
224,192,99427,5,2
288,160,99641,5,2
288,160,99855,1,2
288,160,100070,1,2
288,160,100284,1,2
288,160,100498,1,4
480,160,101355,5,0
480,160,101570,1,0
480,160,101784,1,0
480,160,101998,1,0
416,96,102212,5,2
416,96,102427,1,0
352,32,102641,5,0
352,32,102855,1,0
288,96,103070,5,2
288,96,103284,1,2
288,320,103712,5,0
288,256,103927,5,0
288,256,104141,1,0
224,192,104355,5,0
224,192,104570,1,0
159,192,104784,2,4,B|159:192|180:348|-6:323|31:64,1,375
96,32,106070,1,0
96,96,106284,1,0
160,64,106498,1,2
256,192,106712,12,4,108212
256,32,109070,2,4,B|256:32|320:128|224:224,2,150
256,352,110784,1,4
480,32,111641,6,0,B|480:32|397:99|160:64,1,300
128,64,112712,1,0
128,128,112927,1,0
192,128,113141,1,0
192,192,113355,2,4,B|192:192|224:256|320:256,2,150
480,352,115070,6,0,B|480:352|403:189|512:0,1,300
384,32,116355,1,4
384,160,116784,2,4,B|384:160|320:192|128:128|32:192,1,300
160,256,118070,1,0
256,320,118498,2,4,B|256:320|337:196|480:320|544:256,2,300
256,192,120641,5,4
32,32,127070,5,4
96,64,127498,1,2
96,64,127605,1,2
160,64,127820,1,4
160,64,127927,1,4
320,32,128784,6,0,B|320:32|352:128|288:192,2,150
384,32,129855,2,0,B|384:32|448:64|448:96,1,75
448,128,130284,1,0
448,128,130498,2,4,B|448:128|448:224|192:320,1,300
32,192,131784,5,0
96,192,131998,1,2
96,192,132106,1,2
192,96,132641,2,0,B|192:96|288:96|352:128,1,150
352,192,133284,1,0
416,192,133498,1,0
416,256,133712,1,0
352,256,133927,2,4,B|352:256|224:224|96:256|0:192,2,300
480,32,136498,6,4,B|480:32|485:114|352:192,2,150
32,32,138212,5,4
256,352,139070,6,0,B|256:352|417:274|264:171|423:101|160:32,1,375
192,96,140355,1,0
128,96,140570,1,0
128,160,140784,2,4,B|128:160|156:237|64:288,2,150
480,64,142498,6,0,B|480:64|320:64,2,150
480,192,143784,2,4,B|480:192|384:224|288:160,1,150
32,128,145070,6,6,B|32:128|192:128,1,150
224,350,145927,6,2,B|224:350|352:222,1,150
226,252,146784,2,2,B|226:252|130:124,1,150
256,192,147641,2,4,B|256:192|352:64,2,150
256,192,148927,5,4
256,192,149355,12,4,153641
