osu file format v5

[General]
AudioFilename: lets tap - by Franky.mp3
AudioLeadIn: 0
PreviewTime: -1
Countdown: 0
SampleSet: Soft
StackLeniency: 0.7
Mode: 0
LetterboxInBreaks: 1
EditorBookmarks: 7452,52910

[Metadata]
Title:TAP de Papapaya
Artist:Shoes (Missile Chewbacca)
Creator:Metroid
Version:Insane Finger Bleeding
Source:Let's TAP Title Song
Tags:Wii Rythme Game SEGA Prope

[Difficulty]
HPDrainRate:8
CircleSize:6
OverallDifficulty:7
SliderMultiplier:2.4
SliderTickRate:2

[Events]
//Background and Video events
0,0,"letstap.jpg"
//Break Periods
//Storyboard Layer 0 (Background)
//Storyboard Layer 1 (Failing)
//Storyboard Layer 2 (Passing)
//Storyboard Layer 3 (Foreground)
//Storyboard Sound Samples
//Background Colour Transformations
3,100,163,162,255

[TimingPoints]
1803,454.545454545455,4,1,0,78,1
45787,-100,4,2,0,76,0
57342,-100,4,1,0,77,0
86314,-100,4,2,0,78,0

[Colours]
Combo1 : 255,255,0
Combo2 : 255,128,0
Combo3 : 253,197,2
Combo4 : 255,255,255

[HitObjects]
240,272,9075,1,0
240,272,9189,1,0
240,272,9303,1,0
304,272,9530,2,0,B|384:224|368:176|368:128|336:96,1,180
336,96,9984,1,0
288,48,10212,1,0
224,32,10439,1,0
192,32,10553,1,0
160,32,10666,1,0
160,96,10893,1,0
96,64,11121,1,0
64,128,11348,2,0,B|64:208|112:272|192:304,1,180
176,288,11803,1,0
320,288,12030,5,8
448,208,12257,1,8
448,64,12484,1,8
384,32,12712,5,0
352,32,12825,1,0
320,32,12939,1,0
256,32,13166,2,0,B|176:48|128:96|112:144,1,180
96,160,13621,1,0
80,224,13848,1,0
96,288,14075,1,0
96,288,14189,1,0
96,288,14303,1,0
144,336,14530,1,0
208,352,14757,1,0
272,352,14984,2,0,B|336:304|336:304|272:256|288:192,1,180
288,192,15439,1,0
304,48,15666,5,8
160,64,15893,1,8
304,48,16121,1,8
368,64,16348,6,0,B|448:208,1,120
426,168,16803,2,0,B|352:288,1,120
363,270,17257,2,0,B|208:304,1,120
176,304,17712,1,0
144,304,17825,1,0
112,304,17939,1,0
48,304,18166,1,0
48,240,18393,1,0
48,176,18621,1,0
48,144,18734,1,0
48,112,18848,1,0
48,48,19075,1,0
192,48,19303,5,8
336,48,19530,1,8
336,192,19757,1,8
304,256,19984,6,0,B|176:256,1,120
128,272,20439,1,0
128,272,20553,1,0
128,272,20666,1,0
80,224,20893,2,0,B|80:96,1,120
96,48,21348,1,0
128,32,21462,1,0
160,32,21575,1,0
224,32,21803,1,0
288,32,22030,1,0
352,32,22257,2,0,B|416:64|384:144,2,120
288,32,22939,6,8,B|288:208,1,120
240,192,23393,6,0,B|96:240,1,120
64,224,23848,2,0,B|32:160|80:96,1,120
112,64,24303,2,0,B|240:32,2,120
71,110,24984,1,0
101,112,25098,1,0
132,112,25212,1,0
192,112,25439,1,0
192,176,25666,1,0
256,176,25893,1,0
256,208,26007,1,0
256,240,26121,1,0
320,240,26348,1,0
384,240,26575,6,8,B|384:112,2,120
384,304,27257,6,0,B|240:304,1,120
208,352,27712,1,0
144,304,27939,2,0,B|0:304,1,120
16,224,28393,2,0,B|16:80,1,120
64,48,28848,1,0
64,48,28962,1,0
64,48,29075,1,0
128,64,29303,1,0
192,64,29530,1,0
192,64,29643,1,0
192,64,29757,1,0
256,80,29984,1,0
384,144,30212,5,8
272,224,30439,1,8
128,224,30893,5,0
96,224,31007,1,0
64,224,31121,1,0
16,176,31348,1,0
64,128,31575,1,0
96,128,31689,1,0
128,128,31803,1,0
176,80,32030,1,0
128,32,32257,1,0
96,32,32371,1,0
64,32,32484,1,0
16,80,32712,2,0,B|160:80,4,120
16,224,33848,5,8
128,320,34075,1,8
272,320,34303,1,8
336,320,34530,6,0,B|384:240|384:160,2,120
272,320,35212,1,0
208,320,35439,2,0,B|160:240|160:160,2,120
272,320,36121,1,0
272,256,36348,1,0
272,224,36462,1,0
272,192,36575,1,0
272,128,36802,2,0,B|272:0,2,120
128,128,37484,5,8
32,224,37712,1,8
176,224,38166,6,0,B|176:368,2,120
240,224,38848,1,0
304,224,39075,2,0,B|304:80,2,120
368,224,39757,1,0
368,224,39871,1,0
368,224,39984,1,0
400,160,40212,1,0
352,112,40439,1,0
304,64,40666,1,0
240,64,40893,1,0
176,64,41121,6,8,B|48:64,2,120
176,128,41802,6,0,B|176:288,2,120
176,128,42484,1,8
176,128,42712,2,0,B|320:128,2,120
176,128,43393,1,8
176,128,43621,2,0,B|176:0,2,120,0|0|0
176,128,44302,1,0
256,192,44530,12,0,47030
256,32,47257,6,0,B|160:64|256:112,1,120,8|0
246,108,47712,2,0,B|342:140|246:188,1,120,8|0
257,182,48166,2,0,B|161:214|257:262,1,120,8|0
246,256,48621,2,0,B|342:288|246:336,1,120,8|0
255,330,49075,2,0,B|16:320|16:320|16:256|208:256|208:256|208:208|16:208|16:208|16:144,1,720
16,150,50666,2,0,B|32:80|96:64|224:48|320:48|320:48|320:96|320:96|208:112,1,480
160,128,51802,5,8
160,192,52030,1,8
224,192,52257,1,8
288,192,52484,1,8
352,192,52712,2,0,B|512:224|512:256|272:304|0:208|0:224|0:368|32:368|144:352|288:336,1,720,2|2
235,341,54302,2,0,B|400:320,1,120,0|4
354,325,54757,2,0,B|480:272,1,120,0|4
464,278,55212,2,0,B|480:112,1,120,0|4
475,158,55666,2,0,B|352:64,1,120,0|4
379,85,56121,1,2
256,192,56348,12,0,59075
256,128,59302,5,8
256,272,59530,1,8
384,272,59984,6,0,B|432:208|416:128,1,120
419,160,60439,2,0,B|416:64|352:48,1,120
372,56,60893,1,0
372,56,61121,1,0
372,56,61348,2,0,B|288:32|208:48,1,120
192,48,61802,1,0
160,64,61916,1,0
128,80,62030,1,0
80,128,62257,2,0,B|16:208|64:320,1,180
80,320,62712,1,0
224,336,62939,5,8
352,288,63166,1,8
432,160,63393,1,8
432,80,63621,6,0,B|368:0|320:96,1,120
384,112,64075,2,0,B|304:160|256:80,1,120
336,80,64530,1,0
336,80,64757,2,0,B|288:0|224:80,1,120
288,112,65212,1,0
240,160,65439,1,0
240,160,65552,1,0
240,160,65666,1,0
192,112,65893,2,0,B|96:176|144:272,1,180
160,288,66348,1,0
304,304,66575,5,8
304,160,66802,1,8
304,304,67030,1,8
384,304,67257,6,0,B|448:192,1,120
384,224,67712,2,0,B|432:112,1,120
368,144,68166,1,0
368,144,68393,2,0,B|384:16,1,120
336,64,68848,1,0
336,64,69075,2,0,B|336:0,2,60
272,48,69530,2,0,B|304:256,1,180
304,256,69984,1,0
192,288,70212,5,8
192,144,70439,1,8
64,80,70666,1,8
48,160,70893,6,0,B|16:240|128:112,1,120
160,80,71348,2,0,B|240:32|144:160,1,120
112,192,71802,1,0
64,240,72030,2,0,B|16:320|144:240,1,120
176,208,72484,1,0
240,176,72712,2,0,B|304:128|240:256,1,120
208,304,73166,2,0,B|176:384|336:256,1,180
352,240,73621,1,0
368,96,73848,5,8
224,96,74075,1,8
80,112,74530,6,0,B|16:160|16:256,2,120
144,144,75212,1,0
208,176,75439,2,0,B|256:128|256:48,2,120
144,144,76121,1,0
144,208,76348,1,0
144,208,76462,1,0
144,208,76575,1,0
144,144,76802,1,0
144,80,77030,1,0
144,144,77257,1,0
288,144,77484,5,8
400,224,77712,1,8
288,304,77939,1,8
288,240,78166,6,0,B|208:240|128:208,1,120
169,222,78621,2,0,B|96:192|32:192,1,120
53,192,79075,2,0,B|80:256|32:336,1,120
112,320,79530,1,0
112,320,79643,1,0
112,320,79757,1,0
176,336,79984,1,0
240,320,80212,1,0
192,272,80439,1,0
256,256,80666,1,0
208,208,80893,1,0
352,208,81121,5,8
352,64,81348,1,8
208,64,81802,6,0,B|112:64|128:144,1,120
125,127,82257,2,0,B|224:128|208:208,1,120
210,188,82712,2,0,B|96:192|128:272,1,120
192,256,83166,1,0
224,256,83280,1,0
208,288,83393,1,0
144,288,83621,1,0
144,352,83848,1,0
208,352,84075,2,0,B|304:352|368:320|336:272,1,180
320,256,84530,1,0
224,160,84757,5,8
368,160,84984,1,8
272,64,85212,1,8
256,192,85439,12,4,88166
