osu file format v5

[General]
AudioFilename: lets tap - by Franky.mp3
AudioLeadIn: 0
PreviewTime: -1
Countdown: 0
SampleSet: Normal
StackLeniency: 0.7
Mode: 0
LetterboxInBreaks: 1
EditorBookmarks: 7195

[Metadata]
Title:TAP de Papapaya
Artist:Shoes (Missile Chewbacca)
Creator:Metroid
Version:Hard Finger Numbing
Source:Let's TAP Title Song
Tags:Wii Rythme Game SEGA Prope

[Difficulty]
HPDrainRate:6
CircleSize:6
OverallDifficulty:6
SliderMultiplier:2
SliderTickRate:2

[Events]
//Background and Video events
0,0,"letstap.jpg"
//Break Periods
//Storyboard Layer 0 (Background)
//Storyboard Layer 1 (Failing)
//Storyboard Layer 2 (Passing)
//Storyboard Layer 3 (Foreground)
//Storyboard Sound Samples
//Background Colour Transformations
3,100,163,162,255

[TimingPoints]
1803,454.545454545455,4,1,0,69,1
45787,-100,4,2,0,68,0
57342,-100,4,1,0,66,0
87314,-100,4,2,0,68,0

[Colours]
Combo1 : 255,255,0
Combo2 : 255,128,0
Combo3 : 253,197,2
Combo4 : 255,255,255

[HitObjects]
160,304,9075,1,0
224,304,9303,1,0
288,304,9530,2,0,B|336:256|320:176|304:128|240:144|240:144,1,200
192,144,10212,2,0,B|128:160,4,50,0|0|0|0|0
208,80,10893,1,0
256,48,11121,1,0
320,32,11348,2,0,B|384:64|400:112|416:192,1,150
416,176,11803,1,0
464,224,12030,5,8
320,224,12257,1,8
176,224,12484,1,8
128,272,12712,5,0
80,224,12939,1,0
128,176,13166,2,0,B|0:96,2,100
176,128,13848,2,0,B|240:176,4,50
224,80,14530,1,0
176,128,14757,1,0
128,176,14984,2,0,B|80:144|48:64|64:0,1,150
80,16,15439,1,0
144,16,15666,5,8
288,16,15893,1,8
224,144,16121,1,8
272,96,16348,5,0
272,224,16803,1,0
400,240,17257,2,0,B|400:128,1,100
352,96,17712,1,0
304,144,17939,1,0
256,96,18166,1,0
208,144,18393,1,0
160,96,18621,2,0,B|96:112|80:160,2,100
208,48,19303,5,8
144,32,19530,1,8
32,32,19984,5,0
32,160,20439,1,0
96,160,20666,1,0
96,224,20893,2,0,B|96:336,1,100
96,324,21348,2,0,B|208:320,1,100
256,304,21803,1,0
320,272,22030,2,0,B|288:224|208:256,2,100
384,304,22712,1,0
432,256,22939,5,8
416,192,23166,1,8
416,64,23621,5,0
288,64,24075,1,0
416,64,24530,1,0
352,64,24757,1,0
352,128,24984,1,0
288,128,25212,1,0
288,192,25439,1,0
288,256,25666,2,0,B|240:256|224:176,2,100
352,256,26348,1,0
352,320,26575,5,8
288,320,26803,1,8
176,288,27257,5,0
144,176,27712,1,0
208,176,27939,1,0
144,176,28166,2,0,B|144:64,1,100
192,32,28621,1,0
256,32,28848,1,0
304,80,29075,1,0
320,144,29303,1,0
320,208,29530,2,0,B|272:256|272:256|288:288,2,100
384,176,30212,5,8
448,176,30439,1,8
448,288,30893,5,0
320,288,31348,1,0
192,288,31803,1,0
128,288,32030,1,2
128,224,32257,2,2,B|64:224,2,50
192,224,32712,2,2,B|320:224,1,100,2|0
352,224,33166,1,0
416,224,33393,1,0
384,176,33621,1,0
384,112,33848,5,8
384,176,34075,1,8
384,112,34303,1,8
384,48,34530,6,0,B|288:16|224:64|208:128,1,200
176,160,35212,1,0
160,224,35439,2,0,B|96:192|112:128,1,100,0|2
144,96,35893,2,2,B|112:48,2,50
208,96,36348,2,2,B|272:112|256:192,1,100,2|0
224,224,36802,2,0,B|288:304,2,100
176,176,37484,5,8
176,176,37712,1,8
176,176,37939,1,8
224,224,38166,6,0,B|288:288|336:288|336:224|272:176,1,200
240,128,38848,1,0
288,80,39075,1,0
336,128,39302,1,2
384,80,39530,2,2,B|432:144,2,50
336,128,39984,1,2
288,176,40212,1,0
288,240,40439,2,0,B|208:272|240:160,2,100
272,304,41121,5,8
208,288,41348,1,8
160,240,41575,1,8
96,240,41802,6,0,B|96:352,2,100
96,176,42484,1,8
96,112,42712,2,0,B|96:0,2,100
160,112,43393,1,8
160,176,43621,1,0
112,224,43848,1,0
160,272,44075,1,0
208,224,44302,1,0
256,192,44530,12,8,46802
256,192,47257,5,8
336,288,47712,1,8
416,192,48166,1,8
336,96,48621,1,8
272,96,48848,2,2,B|112:112|80:208,3,200
48,224,50439,1,2
96,272,50666,2,2,B|192:304|256:256|272:176,2,200
112,208,51802,5,0
160,176,52030,1,0
208,144,52257,1,0
240,96,52484,1,0
208,48,52712,2,2,B|112:96|144:224,1,200
160,272,53393,2,2,B|240:176|352:192,1,200
384,160,54075,2,2,B|320:96|352:64|432:16|480:32,1,200,2|6
453,29,54757,2,0,B|512:128,1,100,0|4
504,114,55212,2,0,B|432:208,1,100,0|4
443,193,55666,2,0,B|320:256,1,100,0|4
352,240,56121,1,2
256,192,56348,12,0,59075
256,192,59302,5,8
256,192,59530,1,8
256,320,59984,6,0,B|288:384|336:320,1,100
304,272,60439,2,0,B|352:224|400:304,1,100
332,325,60893,2,0,B|384:368|448:304,1,100
384,272,61348,1,0
432,240,61575,2,0,B|384:192|336:176,1,100
288,160,62030,1,0
240,208,62257,2,0,B|144:144|96:128|96:128,1,150
80,144,62712,1,0
96,80,62939,6,8,B|144:48|208:48,2,100
48,112,63621,5,0
48,224,64075,1,0
144,160,64530,1,0
208,160,64757,1,0
272,160,64984,2,0,B|320:160|384:160|400:224|320:224|272:224,1,200
224,224,65666,1,0
176,256,65893,2,0,B|176:336|224:320|304:320,1,150
304,304,66348,1,0
352,256,66575,6,8,B|416:288|352:336,2,100
304,224,67257,6,0,B|288:144|224:144,1,100
192,128,67712,2,0,B|128:128|80:48,1,100
128,32,68166,1,0
192,32,68393,2,0,B|272:48|272:112,2,100
128,32,69075,1,0
160,80,69302,1,0
208,112,69530,2,0,B|208:176|160:208|112:176|112:112,1,150
112,112,69984,1,0
112,48,70212,6,8,B|160:0|224:64,2,100
64,80,70893,6,0,B|0:176,1,100
8,163,71348,2,0,B|96:256,1,100
76,235,71802,1,2
76,235,72030,2,0,B|0:336,2,100
76,235,72712,2,0,B|160:304,1,100
153,298,73166,2,0,B|208:288|240:240|208:176,1,150
208,160,73621,1,0
192,96,73848,5,8
336,96,74075,1,8
336,224,74530,5,0
336,288,74757,1,0
288,256,74984,1,0
176,256,75439,1,0
128,288,75666,1,0
128,224,75893,1,0
176,192,76121,1,0
224,224,76348,2,0,B|224:336,3,100
288,320,77257,1,0
336,288,77484,6,8,B|368:304|384:272|336:256|288:272,2,100
336,352,78166,6,0,B|384:352|432:304,1,100
424,311,78621,2,0,B|448:272|448:208,1,100
447,215,79075,2,0,B|432:144|384:112,1,100,0|2
402,127,79530,2,2,B|434:79,2,50
401,126,79984,2,0,B|352:96|272:80,1,100,2|0
310,88,80439,2,0,B|224:80|160:112,1,150
144,128,80893,1,0
96,176,81121,5,8
240,176,81348,1,8
160,288,81575,1,8
112,320,81802,6,0,B|160:368|208:320,1,100
200,327,82257,2,0,B|240:289|188:213|136:222|144:288,1,150
160,288,82712,1,0
96,288,82939,1,2
96,224,83166,2,2,B|96:160,2,50,2|2|2
160,224,83621,2,0,B|272:224,1,100,2|0
260,225,84075,2,0,B|368:224|368:112,1,150
368,112,84530,1,0
368,48,84757,5,8
224,80,84984,1,8
144,192,85212,1,8
256,192,85439,12,4,88166
