osu file format v5

[General]
AudioFilename: Rockman Beast Intro.mp3
AudioLeadIn: 0
PreviewTime: -1
Countdown: 2
SampleSet: Normal
StackLeniency: 0.7
Mode: 0

[Metadata]
Title:Rockman EXE Beast Shouri no Uta
Artist:ShoPro
Creator:Seika
Version:Normal
Source:
Tags:

[Difficulty]
HPDrainRate:7
CircleSize:6
OverallDifficulty:5
SliderMultiplier:0.5
SliderTickRate:2

[Events]
//Background and Video events
0,0,"SoundOnlyNeoArcadia1024.png"
//Break Periods
//Storyboard Layer 0 (Background)
//Storyboard Layer 1 (Failing)
//Storyboard Layer 2 (Passing)
//Storyboard Layer 3 (Foreground)
//Storyboard Sound Samples
//Background Colour Transformations
3,100,163,162,255

[TimingPoints]
0,387.096774193548,4,1,0,100

[HitObjects]
56,64,3526,1,0
104,64,4306,1,0
152,64,5086,1,2
320,112,5866,5,0
320,168,6645,1,2
320,224,7425,1,0
320,280,8205,1,4
200,272,8985,5,0
160,232,9765,1,0
160,232,10154,1,0
160,232,10544,1,0
112,192,11324,2,4,B|480:184,1,350
136,152,20528,5,0
136,208,22096,1,0
136,208,22660,1,2
384,208,23588,5,0
384,152,25139,1,0
384,152,25720,1,2
256,152,26632,5,0
256,208,28228,1,0
256,208,28811,1,2
192,208,29848,5,0
192,152,31383,1,0
192,152,31931,1,2
320,152,32814,5,0
320,208,34490,1,0
320,208,35034,1,2
320,272,35970,5,0
264,272,37561,1,0
264,272,38098,1,2
200,272,38984,5,0
200,216,40673,1,0
200,216,41242,1,2
200,128,42274,5,0
256,128,43718,1,0
256,128,44300,1,2
256,192,44980,6,4,B|64:288|126:36|256:69|224:112,1,250
256,88,47640,5,0
256,88,48024,1,0
256,88,48400,1,2
256,88,48836,2,0,B|472:88|456:192|368:216,1,250
405,197,51042,1,0
328,240,51908,5,0
304,240,52292,1,2
280,240,52644,1,0
256,240,53036,1,2
256,56,53843,5,2
296,96,54613,1,2
336,136,55383,1,2
376,176,56159,1,2
336,216,56939,1,2
296,256,57677,2,2,B|80:256|80:96|120:96,1,300
176,96,60387,5,4
176,96,60774,1,2
256,96,61935,1,4
256,96,62322,1,2
256,192,63516,5,0
256,144,63902,1,2
304,192,64262,1,2
256,240,64634,1,2
208,192,65010,1,0
256,192,65398,1,4
256,120,66000,6,0,B|400:120|400:224|290:274|245:274|192:216,1,300
256,192,69345,5,0
256,192,69689,1,0
256,192,70081,1,0
256,192,70451,2,2,B|408:320|416:272,1,150
184,192,72387,6,0,B|184:128,2,50
256,192,74322,1,4
256,192,74709,1,6
368,192,75892,5,4
368,192,76258,2,2,B|144:288,1,200
152,216,78580,5,2
152,216,78967,1,2
256,192,79741,5,2
232,168,80129,1,2
208,144,80516,1,2
232,120,80903,1,2
256,192,81684,12,2,88409
