osu file format v5

[General]
AudioFilename: Rockman Beast Intro.mp3
AudioLeadIn: 0
PreviewTime: -1
Countdown: 2
SampleSet: Normal
StackLeniency: 0.7
Mode: 0

[Metadata]
Title:Rockman EXE Beast Shouri no Uta
Artist:ShoPro
Creator:Seika
Version:Easy
Source:
Tags:

[Difficulty]
HPDrainRate:3
CircleSize:4
OverallDifficulty:2
SliderMultiplier:1.2
SliderTickRate:2

[Events]
//Background and Video events
0,0,"SoundOnlyNeoArcadia1024.png"
//Break Periods
//Storyboard Layer 0 (Background)
//Storyboard Layer 1 (Failing)
//Storyboard Layer 2 (Passing)
//Storyboard Layer 3 (Foreground)
//Storyboard Sound Samples
//Background Colour Transformations
3,100,161,161,254

[TimingPoints]
0,1000,4,1,0,100

[HitObjects]
64,64,3074,1,0
224,64,5028,1,2
352,64,5796,5,0
352,96,6189,1,0
352,128,6565,1,2
352,224,8088,1,2
256,256,8900,5,0
224,224,9265,1,0
192,192,9624,1,2
64,64,11190,2,0,B|410:67|416:128,1,360
288,128,18585,1,2
288,128,18801,1,2
64,128,20569,5,0
64,216,22695,1,2
256,192,23447,5,0
256,128,25755,1,2
160,192,26592,5,0
256,96,28836,1,2
256,192,29612,5,0
328,192,31895,1,4
160,128,32750,5,0
160,224,35070,1,2
320,128,35791,5,0
320,224,38155,1,2
256,224,38939,5,0
256,128,41240,1,2
256,160,41979,5,0
256,192,43776,1,0
256,224,44351,1,2
160,192,45199,5,2
160,96,46076,1,2
160,32,46851,1,4
160,192,47632,5,0
160,256,48379,1,0
160,320,49144,1,0
160,352,49713,1,0
256,192,50774,5,2
384,192,51838,5,2
384,96,52998,1,4
480,32,53802,5,0
416,32,54571,1,0
352,32,55351,1,0
320,64,56127,1,0
384,64,56893,1,0
416,64,57217,2,0,B|224:224,1,240
224,160,60361,5,2
224,128,60789,1,4
288,160,62009,1,2
288,128,62369,1,4
256,320,65403,1,4
384,320,66183,5,0
384,128,68501,1,2
96,128,69288,5,0
96,320,71567,1,2
224,160,72315,5,2
224,128,73184,1,4
96,128,75829,5,0
256,128,77797,1,4
256,192,78637,5,2
256,192,79001,1,2
448,128,79723,5,0
352,128,80911,1,0
256,32,81703,5,0
256,128,82837,1,0
256,224,84011,1,0
256,192,84538,12,0,88754
