osu file format v5

[General]
AudioFilename: 08 - Fushigi Purupuru Pururin Rin!.mp3
AudioLeadIn: 0
PreviewTime: -1
Countdown: 1
SampleSet: Normal
StackLeniency: 0.7
Mode: 0
LetterboxInBreaks: 1

[Metadata]
Title:Fushigi Purupuru Pururin Rin!
Artist:Shishido Rumi
Creator:Real1
Version:PURURIN!
Source:Welcome to the N.H.K
Tags:

[Difficulty]
HPDrainRate:6
CircleSize:4
OverallDifficulty:8
SliderMultiplier:1.4
SliderTickRate:2

[Events]
//Background and Video events
0,0,"1160970017247.png"
//Break Periods
2,58463,59314
2,80864,84514
2,159264,163315
2,173662,178913
2,202062,206113
2,217663,220313
//Storyboard Layer 0 (Background)
//Storyboard Layer 1 (Failing)
//Storyboard Layer 2 (Passing)
//Storyboard Layer 3 (Foreground)
//Storyboard Sound Samples
//Background Colour Transformations
3,100,163,162,255

[TimingPoints]
8265.13383208008,400,4,1,0,70,1,0
137264,-100,4,2,0,81,0,0
138164,-100,4,1,0,70,0,0

[Colours]
Combo1 : 59,59,59
Combo2 : 179,0,179
Combo3 : 240,240,240
Combo4 : 254,192,192

[HitObjects]
56,56,8265,1,0
128,56,8465,1,0
200,56,8665,1,0
272,56,8865,2,0,B|272:136,1,70
272,192,9265,1,0
272,192,9465,1,0
272,264,9665,1,0
72,64,10465,6,8,B|72:112,4,35
144,64,11065,1,2
280,64,11465,5,0
280,136,11665,1,0
280,64,11865,1,0
280,136,12065,1,0
280,136,12265,2,0,B|280:288,1,140
280,276,12865,1,0
168,192,13265,5,0
168,120,13465,1,0
168,48,13665,1,0
168,120,13865,1,2
168,192,14065,1,2
168,264,14265,1,2
288,192,14665,5,0
360,192,14865,1,0
432,192,15065,2,0,B|432:120,1,70
432,48,15465,2,0,B|352:48,1,70
288,48,15865,1,2
216,48,16065,1,2
80,296,16865,5,8
80,296,16965,1,8
80,296,17065,1,8
80,296,17165,1,8
80,296,17265,1,8
152,296,17465,1,2
432,296,17865,5,0
152,297,18265,1,0
280,48,18665,1,0
432,296,19065,1,0
280,48,19465,1,0
280,184,19665,1,0
280,184,20065,2,4,B|64:184,1,210
64,48,21265,6,2,B|208:48,1,140
272,48,21865,1,0
168,304,22265,1,2
168,304,22465,1,2
48,48,23265,5,0
120,48,23465,1,0
48,48,23665,1,2
120,48,23865,1,2
360,192,24665,5,0
288,192,24865,2,0,B|192:192,1,70
288,192,25265,1,0
288,120,25465,1,0
288,192,25665,1,0
288,264,25865,1,0
288,336,26065,2,2,B|192:336,2,70
152,296,26865,5,2
200,240,27065,1,2
200,168,27265,1,2
200,240,27465,1,2
200,168,27665,6,0,B|424:168,1,210
408,304,28465,1,2
408,304,28665,1,2
408,304,28865,1,2
152,192,29665,6,2,B|240:192,3,70
464,336,31065,6,0,B|464:248,1,70
464,266,31465,2,0,B|367:266,1,70
320,264,31865,1,0
176,264,32265,1,0
176,192,32465,1,0
176,120,32665,1,0
176,48,32865,2,6,B|176:352,1,280
472,40,34065,5,0
416,80,34265,1,0
360,120,34465,1,0
288,120,34665,2,0,B|288:264,1,140
288,260,35265,1,0
288,260,35465,2,4,B|32:32,1,280
192,328,36665,5,4
192,48,37065,1,4
192,184,37465,5,0
332,184,37865,1,0
192,184,38265,1,0
56,48,39065,6,0,B|128:48,1,70
192,48,39465,1,2
264,48,39665,1,2
464,336,40665,6,0,B|360:336,1,70
320,336,41065,1,0
248,336,41265,1,0
176,336,41465,1,0
176,56,41865,1,4
256,192,42665,5,8
256,192,42865,1,8
256,192,43065,12,4,45265
56,320,46065,6,2,B|128:320,2,70
56,128,47065,5,0
128,128,47265,1,0
200,128,47465,1,0
272,128,47665,2,2,B|360:128,1,70
412,128,48065,5,0
412,200,48265,1,0
412,128,48465,1,0
412,200,48665,1,0
412,272,48865,2,0,B|332:272,1,70
272,272,49265,1,2
48,344,50265,5,0
48,272,50465,1,0
48,200,50665,1,0
48,128,50865,1,2
184,128,51265,5,0
184,200,51465,1,0
184,272,51665,1,0
184,344,51865,1,0
256,344,52065,1,0
256,344,52265,2,2,B|256:240,1,70
72,80,53465,6,0,B|160:80,1,70
208,80,53865,1,0
280,80,54065,1,2
424,80,54465,6,0,B|424:160,1,70
424,150,54865,2,0,B|424:232,1,70
424,220,55265,2,2,B|424:312,1,70
424,290,55665,2,2,B|332:290,1,70
256,192,56065,12,4,56865
72,48,57265,5,2
144,48,57465,1,2
216,48,57665,2,2,B|480:48,1,210,2|4
440,48,60065,5,0
440,120,60265,1,0
440,192,60465,1,0
440,264,60665,1,0
440,192,60865,1,0
440,120,61065,1,0
296,120,61465,5,0
224,120,61665,1,0
152,120,61865,1,0
224,120,62065,5,8
224,192,62265,1,8
224,120,62465,6,0,B|224:48,1,70
296,48,62865,1,0
368,48,63065,1,0
368,120,63265,2,0,B|368:208,1,70
368,264,63665,6,8,B|368:344,1,70
296,336,64065,6,0,B|208:336,1,70
152,336,64465,2,0,B|152:232,1,70
152,192,64865,1,2
152,120,65065,1,2
152,48,65265,1,2
152,328,65665,1,4
432,328,66465,5,0
384,280,66665,1,0
336,328,66865,1,0
384,280,67065,1,0
432,328,67265,1,0
432,328,67465,2,2,B|184:176|184:176|432:40,1,560
232,144,69665,5,0
160,144,69865,1,0
88,144,70065,1,0
88,144,70265,2,0,B|88:232,1,70
160,214,70665,1,2
408,336,71465,2,2,B|144:120,1,280
112,272,72665,5,2
320,88,73065,1,2
112,272,73465,1,2
320,88,73865,1,2
256,192,74065,12,0,76265
256,64,76465,5,4
256,136,76665,1,4
256,208,76865,1,4
152,296,77265,5,0
224,296,77465,1,0
296,296,77665,1,0
368,296,77865,1,0
440,296,78065,1,0
440,296,78265,1,0
256,192,78465,12,4,80665
112,192,85265,5,2
112,192,85465,1,2
112,192,85665,1,2
112,192,85865,1,2
184,192,86065,6,4,B|264:192,2,70
184,264,86665,5,0
184,336,86865,1,0
256,336,87065,1,0
328,336,87265,2,0,B|400:336,1,70
468,336,87665,2,0,B|468:248,1,70
468,192,88065,1,0
129,189,88864,5,8
129,189,88964,1,8
129,189,89064,1,8
129,189,89164,1,8
129,189,89265,1,8
201,189,89465,1,2
200,328,89865,5,0
272,328,90065,1,0
200,328,90265,1,0
272,328,90465,1,0
272,256,90665,1,0
200,256,90865,2,0,B|112:256,1,70
128,328,91265,1,0
128,184,91665,6,4,B|128:32,1,140
200,44,92265,2,4,B|200:204,1,140
256,304,93065,5,0
256,232,93265,1,0
256,160,93465,1,0
256,232,93665,1,0
256,304,93865,1,0
256,304,94065,2,0,B|344:304,1,70
396,304,94465,1,2
224,104,95264,5,8
224,104,95364,1,8
224,104,95464,1,8
224,104,95564,1,8
224,104,95665,1,8
296,104,95865,1,2
96,296,96265,5,0
416,296,96665,1,0
256,40,97065,1,0
256,320,97465,1,0
256,40,97865,1,0
256,176,98065,1,0
256,176,98465,2,4,B|496:176,1,210
304,312,99665,5,0
248,264,99865,1,0
304,224,100065,1,0
360,264,100265,1,0
304,312,100465,1,2
248,264,100665,1,2
304,224,100865,1,2
72,64,101665,5,8
144,64,101865,1,8
72,64,102065,1,8
144,64,102265,1,8
64,328,103065,6,0,B|160:328,1,70
203,326,103465,2,0,B|355:326,1,140
384,192,104265,1,0
384,120,104465,1,2
384,48,104665,1,2
384,120,104865,1,2
176,96,105265,5,8
176,168,105465,1,8
176,240,105665,1,8
176,312,105865,1,8
248,312,106065,6,0,B|400:312,1,140
456,312,106665,2,0,B|456:208,1,70
455,172,107065,2,0,B|303:172,1,140
104,192,108065,5,8
176,192,108265,1,8
248,192,108465,1,8
320,192,108665,1,8
72,56,109465,6,2,B|72:144,1,70
72,192,109865,2,2,B|72:280,1,70
72,328,110265,1,2
208,328,110665,1,0
280,328,110865,1,0
352,328,111065,1,0
424,328,111265,2,4,B|424:104,1,210
216,64,112465,5,0
272,104,112665,1,0
216,144,112865,1,0
216,144,113065,2,0,B|216:256,1,70
216,284,113465,1,0
216,284,113665,2,0,B|472:284,1,210
144,280,114665,5,2
328,72,115065,1,2
144,280,115465,1,2
280,280,115865,5,8
352,280,116065,1,8
424,280,116265,1,8
280,280,116665,1,2
80,88,117065,5,4
224,88,117465,5,8
296,88,117665,1,8
368,88,117865,1,8
224,88,118265,1,2
224,328,118665,5,4
360,328,119065,5,8
360,256,119265,1,8
360,184,119465,1,8
360,328,119865,1,2
80,328,120265,5,4
256,192,120865,12,4,123065
64,192,124465,5,2
136,192,124665,1,2
208,192,124865,1,2
392,296,125465,5,0
352,240,125665,1,0
304,288,125865,1,0
264,232,126065,1,0
256,88,126465,5,0
312,48,126665,1,0
352,104,126865,1,0
312,48,127065,1,0
256,88,127265,1,0
312,48,127465,1,0
352,104,127665,1,0
72,312,128665,5,0
144,312,128865,1,0
216,312,129065,1,0
288,312,129265,1,0
240,184,129665,5,0
288,136,129865,1,0
336,88,130065,1,0
384,40,130265,1,0
424,96,130465,1,0
424,96,130665,1,0
384,152,130865,1,0
72,312,131865,6,0,B|160:312,2,70
72,240,132465,1,0
72,96,132865,6,0,B|272:96,1,140
280,96,133465,2,0,B|280:264,1,140
280,304,134065,1,0
352,304,134265,2,0,B|352:104,1,140
48,336,135665,5,2
88,280,135865,1,2
128,224,136065,2,2,B|488:224,1,350
208,152,137464,5,2
208,152,137564,1,2
208,152,137664,1,2
208,152,137764,1,2
208,152,137865,1,4
80,320,138465,6,0,B|248:320,1,140
288,320,139065,1,0
360,320,139265,1,0
432,320,139465,2,0,B|432:248,1,70
432,176,139865,1,0
432,104,140065,1,0
432,104,140265,1,0
432,176,140465,5,8
432,104,140665,1,8
360,104,140865,5,0
288,104,141065,1,0
216,104,141265,1,0
144,104,141465,2,0,B|64:104,1,70
74,104,141865,1,0
144,104,142065,5,8
216,104,142265,1,8
144,104,142465,6,0,B|144:208,1,70
144,174,142865,2,0,B|144:272,1,70
144,312,143265,1,0
216,312,143465,1,2
288,312,143665,1,2
360,312,143865,1,2
432,312,144065,2,0,B|432:160,1,140
288,192,144865,6,0,B|144:192,1,140
148,192,145465,1,0
148,192,145665,1,0
148,192,145865,1,0
148,192,146265,2,2,B|448:192,1,280
104,48,148065,5,0
104,120,148265,1,0
104,192,148465,1,0
104,120,148665,1,0
104,48,148865,1,0
104,120,149065,2,0,B|304:288,1,210
265,255,149865,2,0,B|421:49,1,210
391,87,150665,1,4
392,224,151065,5,2
112,224,151465,1,2
392,224,151865,1,2
256,192,152265,12,4,154665
128,192,154865,5,2
200,192,155065,1,2
272,192,155265,1,2
128,192,155665,5,0
128,264,155865,1,0
128,336,156065,1,0
128,264,156265,1,0
128,192,156465,1,0
128,120,156665,1,0
264,120,157065,2,2,B|48:336|48:336|448:264,1,700
256,192,164065,6,0,B|328:192,1,70
112,192,164865,5,0
112,264,165065,1,0
112,192,165265,1,0
112,120,165465,2,0,B|112:40,1,70
184,48,165865,2,0,B|264:48,1,70
120,296,166863,5,0
120,296,166963,1,0
120,296,167065,1,0
224,296,167463,5,0
224,296,167563,1,0
224,296,167665,1,0
328,296,168063,5,0
328,296,168163,1,0
328,296,168265,1,0
432,296,168663,5,0
432,296,168763,1,0
432,296,168865,1,0
432,192,169263,5,0
432,192,169363,1,0
432,192,169465,1,0
432,88,169865,6,0,B|376:88,7,35
288,88,170865,6,0,B|288:144,5,35
184,88,171665,5,8
184,160,171865,1,2
184,232,172065,1,8
256,232,172265,1,2
328,232,172465,1,8
400,232,172665,1,2
400,160,172865,1,8
400,88,173065,2,2,B|248:88,1,140
56,192,179665,5,0
128,192,179865,1,0
200,192,180065,1,0
336,192,180465,5,0
264,192,180665,1,0
264,120,180865,1,0
264,256,181265,5,0
264,328,181465,1,0
264,256,181665,1,0
264,184,181865,5,0
264,112,182065,1,0
264,40,182265,1,0
264,112,182465,1,0
264,184,182665,1,0
272,112,182865,2,2,B|176:112,2,70
336,112,183465,1,0
408,112,183665,5,8
336,112,183865,1,8
264,112,184065,5,0
192,112,184265,1,0
120,112,184465,2,0,B|48:112,2,70
120,184,185065,1,0
120,256,185265,5,8
120,256,185465,1,8
192,256,185665,6,0,B|344:256,2,140
192,256,186665,6,0,B|192:160,1,70
192,256,187065,2,2,B|192:344,1,70
96,64,188065,5,0
168,64,188265,1,0
240,64,188465,2,0,B|368:64,1,70
380,64,188865,6,0,B|76:128|76:128|324:304,1,560
278,272,190665,1,2
88,192,191265,6,0,B|168:192,1,70
296,192,191665,2,0,B|296:104,1,70
88,312,192265,1,2
256,192,193065,12,4,193865
48,344,194265,5,2
256,160,194665,1,2
464,344,195065,1,2
256,192,195465,12,0,197865
64,96,198065,5,2
136,96,198265,1,2
208,96,198465,1,2
64,272,198865,5,0
64,272,199065,1,0
64,272,199265,1,0
64,272,199465,1,0
64,272,199665,1,0
64,272,199865,2,6,B|464:-16|32:-16|48:384|376:0|480:312,1,700
96,112,206863,5,0
96,112,206963,1,0
96,112,207065,1,0
168,112,207265,2,0,B|168:200,2,70
240,112,207865,1,4
312,112,208065,1,4
384,112,208265,5,0
384,184,208465,1,0
384,112,208665,1,0
384,184,208865,1,0
384,256,209065,2,6,B|160:256,1,210
432,296,210463,5,2
432,296,210563,1,2
432,296,210663,1,2
432,296,210763,1,2
432,296,210865,1,2
360,296,211065,1,8
88,88,211465,6,0,B|184:88,2,70
88,88,212065,2,0,B|88:176,2,70
160,88,212665,1,2
232,88,212865,1,2
328,192,213265,6,0,B|112:192,1,210
118,262,214065,1,2
118,192,214265,1,2
240,264,214665,5,0
312,264,214865,1,0
384,264,215065,1,0
312,264,215265,1,0
240,264,215465,1,0
240,264,215665,2,0,B|240:96,1,140
432,80,216863,5,2
432,80,216963,1,2
432,80,217063,1,2
432,80,217163,1,2
432,80,217265,1,2
360,80,217465,1,8
256,192,221065,5,0
328,192,221265,2,0,B|424:192,1,70
468,191,221665,2,0,B|468:287,2,70
468,119,222265,1,2
468,47,222465,1,2
264,240,223265,6,2,B|328:240,4,35
192,240,223865,1,8
72,168,224265,5,0
144,168,224465,1,0
216,168,224665,1,0
288,168,224865,2,0,B|376:168,1,70
432,167,225265,1,0
432,95,225465,1,2
432,167,225665,1,2
432,239,225865,6,0,B|328:239,1,70
288,239,226265,1,0
216,239,226465,1,0
144,239,226665,1,2
144,167,226865,1,2
144,95,227065,1,2
272,96,227465,6,0,B|384:96,1,70
408,96,227865,2,0,B|408:168,1,70
408,232,228265,2,2,B|320:232,2,70
408,232,228865,1,2
160,304,229663,5,2
160,304,229763,1,2
160,304,229863,1,2
160,304,229963,1,2
160,304,230065,1,2
160,232,230265,1,8
432,232,230665,5,0
160,232,231065,1,0
432,232,231465,1,0
160,232,231865,1,0
432,232,232265,1,0
288,232,232465,1,0
288,232,232865,2,4,B|336:144|208:144|304:32,1,210
256,192,233665,12,4,234865
448,48,235065,6,8,B|160:48,1,280
144,184,236265,5,8
216,184,236465,1,4
288,184,236665,1,8
360,184,236865,1,2
432,184,237065,1,4
