osu file format v12

[General]
AudioFilename: 01_3EM01_EM20_Master.MP3
AudioLeadIn: 739
PreviewTime: 31757
Countdown: 0
SampleSet: Soft
StackLeniency: 1
Mode: 0
LetterboxInBreaks: 1

[Editor]
DistanceSpacing: 0.6
BeatDivisor: 4
GridSize: 8

[Metadata]
Title:3EM01_EM20_Master
TitleUnicode:3EM01_EM20_Master
Artist:Shirou Sagisu
ArtistUnicode:ShirĂ´ Sagisu
Creator:Imperf3kt
Version:Easy
Source:Neon Genesis Evangelion
Tags:anime OST Neon Genesis Evangelion
BeatmapID:255276
BeatmapSetID:94951

[Difficulty]
HPDrainRate:2
CircleSize:5
OverallDifficulty:6
ApproachRate:6
SliderMultiplier:1.7
SliderTickRate:2

[Events]
//Background and Video events
0,0,"eva3.png",0,0
//Break Periods
//Storyboard Layer 0 (Background)
//Storyboard Layer 1 (Fail)
//Storyboard Layer 2 (Pass)
//Storyboard Layer 3 (Foreground)
//Storyboard Sound Samples
//Background Colour Transformations
3,100,10,139,235

[TimingPoints]
568,399.866711096301,5,2,1,63,1,0

[Colours]
Combo1 : 252,141,249
Combo2 : 192,192,192
Combo3 : 255,128,64
Combo4 : 0,255,64
Combo5 : 242,255,0

[HitObjects]
0,192,568,1,0,0:0:0:0:
152,192,1167,1,0,0:0:0:0:
304,192,1767,1,0,0:0:0:0:
456,192,2367,1,0,0:0:0:0:
376,320,2967,6,0,P|336:368|208:368,1,170,2|2,0:0|0:0,0:0:0:0:
288,296,3766,5,0,0:0:0:0:
136,312,4366,1,0,0:0:0:0:
8,256,4966,1,0,0:0:0:0:
0,104,5566,1,0,0:0:0:0:
152,104,6166,6,0,B|232:104|232:96|216:96|240:112|280:128|288:136|288:176,2,170,2|2|2,0:0|0:0|0:0,0:0:0:0:
0,104,7565,1,0,0:0:0:0:
0,256,8165,1,0,0:0:0:0:
112,360,8765,1,0,0:0:0:0:
248,296,9365,6,0,B|312:264|320:256|320:160,2,170,2|2|2,0:0|0:0|0:0,0:0:0:0:
104,240,10764,5,0,0:0:0:0:
0,144,11364,1,0,0:0:0:0:
104,240,11964,1,0,0:0:0:0:
256,272,12564,6,0,B|200:216|264:192|344:176|248:56|224:72|160:72|184:72|184:72|112:80,1,340,2|10,0:0|0:0,0:0:0:0:
8,192,13963,5,0,0:0:0:0:
152,248,14563,1,0,0:0:0:0:
304,248,15163,1,0,0:0:0:0:
448,192,15762,6,0,B|480:136|432:80|360:64,2,170,2|2|2,0:0|0:0|0:0,0:0:0:0:
328,288,17162,5,0,0:0:0:0:
176,288,17762,1,0,0:0:0:0:
24,272,18362,1,0,0:0:0:0:
120,152,18961,6,0,B|170:212|105:230|23:239|109:367|134:354|198:359|174:357|174:357|246:355,1,340,2|10,0:0|0:0,0:0:0:0:
384,304,20361,5,0,0:0:0:0:
440,160,20961,1,0,0:0:0:0:
360,32,21561,1,0,0:0:0:0:
216,80,22160,6,0,B|296:80|296:72|280:72|304:88|344:104|352:112|352:152,2,170,2|2|2,0:0|0:0|0:0,0:0:0:0:
88,160,23560,1,0,0:0:0:0:
160,296,24159,1,0,0:0:0:0:
256,176,24759,1,0,0:0:0:0:
352,296,25359,6,0,B|375:221|425:266|477:329|538:188|513:174|483:117|494:139|494:139|453:79,1,340,2|10,0:0|0:0,0:0:0:0:
304,48,26759,1,0,0:0:0:0:
152,80,27359,1,0,0:0:0:0:
48,192,27958,1,0,0:0:0:0:
200,200,28558,6,0,B|280:200|280:208|264:208|288:192|328:176|336:168|336:128,2,170,2|2|2,0:0|0:0|0:0,0:0:0:0:
48,192,29958,1,0,0:0:0:0:
144,312,30558,1,0,0:0:0:0:
296,312,31157,1,0,0:0:0:0:
256,192,31757,12,4,32557,0:0:0:0:
256,192,33156,6,0,B|328:176|368:128|384:40|328:0,1,255,2|10,0:0|0:0,0:0:0:0:
328,0,34356,1,0,0:0:0:0:
264,144,34955,6,0,B|344:144|344:152|328:152|352:136|392:120|400:112|400:72,2,170,2|2|2,0:0|0:0|0:0,0:0:0:0:
120,184,36355,1,0,0:0:0:0:
8,288,36955,1,0,0:0:0:0:
0,136,37555,1,0,0:0:0:0:
144,184,38154,6,0,B|224:184|224:192|208:192|232:176|272:160|280:152|280:112,2,170,2|2|2,0:0|0:0|0:0,0:0:0:0:
144,184,39554,1,0,0:0:0:0:
192,328,40154,1,0,0:0:0:0:
344,328,40754,1,0,0:0:0:0:
256,200,41353,6,0,B|176:200|176:208|192:208|168:192|128:176|120:168|120:128,2,170,2|2|2,0:0|0:0|0:0,0:0:0:0:
144,96,42753,1,0,0:0:0:0:
296,96,43353,1,0,0:0:0:0:
448,96,43952,1,0,0:0:0:0:
392,240,44552,6,0,B|415:165|465:210|517:273|578:132|553:118|523:61|534:83|534:83|493:23,1,340,2|10,0:0|0:0,0:0:0:0:
352,80,45952,1,0,0:0:0:0:
240,184,46552,1,0,0:0:0:0:
88,192,47151,1,0,0:0:0:0:
136,336,47752,6,0,B|56:336|56:344|72:344|48:328|8:312|0:304|0:264,2,170,2|2|2,0:0|0:0|0:0,0:0:0:0:
144,184,49151,1,0,0:0:0:0:
280,112,49751,1,0,0:0:0:0:
432,112,50350,1,0,0:0:0:0:
384,256,50950,6,0,B|407:181|457:226|509:289|570:148|545:134|515:77|526:99|526:99|485:39,1,340,2|10,0:0|0:0,0:0:0:0:
376,152,52350,1,0,0:0:0:0:
224,152,52949,1,0,0:0:0:0:
224,152,53549,1,0,0:0:0:0:
224,328,54149,6,0,B|144:328|144:336|160:336|136:320|96:304|88:296|88:256,2,170,2|2|2,0:0|0:0|0:0,0:0:0:0:
376,152,55549,1,0,0:0:0:0:
224,152,56148,1,0,0:0:0:0:
224,152,56748,1,0,0:0:0:0:
376,128,57349,2,0,B|360:176|416:224|432:232|464:240|464:240|480:232,1,170,2|2,0:0|0:0,0:0:0:0:
256,232,58148,5,0,0:0:0:0:
256,80,58748,1,0,0:0:0:0:
256,232,59347,1,0,0:0:0:0:
256,80,59947,1,0,0:0:0:0:
256,192,60548,12,4,61348,0:0:0:0:
256,192,61946,5,0,0:0:0:0:
400,144,62546,1,0,0:0:0:0:
256,192,63146,1,0,0:0:0:0:
112,240,63746,6,0,P|24:192|48:104,2,170,2|2|2,0:0|0:0|0:0,0:0:0:0:
256,192,65145,1,0,0:0:0:0:
256,192,65745,1,0,0:0:0:0:
112,240,66345,1,0,0:0:0:0:
112,88,66945,6,0,P|120:192|160:240,2,170,2|2|2,0:0|0:0|0:0,0:0:0:0:
112,88,68344,1,0,0:0:0:0:
112,88,68944,1,0,0:0:0:0:
112,88,69544,1,0,0:0:0:0:
256,192,70144,12,4,70943,0:0:0:0:
256,192,71544,5,0,0:0:0:0:
256,192,72144,1,0,0:0:0:0:
256,192,72743,1,0,0:0:0:0:
120,120,73343,6,0,P|128:224|168:272,2,170,2|2|2,0:0|0:0|0:0,0:0:0:0:
120,120,74743,1,0,0:0:0:0:
120,120,75343,1,0,0:0:0:0:
120,120,75942,1,0,0:0:0:0:
0,64,76542,6,0,B|76:81|62:15|33:-60|186:-43|186:-14|220:40|206:19|206:19|238:85,1,340,2|10,0:0|0:0,0:0:0:0:
240,80,77942,1,0,0:0:0:0:
136,192,78542,1,0,0:0:0:0:
248,296,79141,1,0,0:0:0:0:
400,304,79741,6,0,P|480:264|432:192,1,170,2|2,0:0|0:0,0:0:0:0:
456,208,80541,1,0,0:0:0:0:
304,192,81141,1,0,0:0:0:0:
256,48,81740,1,0,0:0:0:0:
120,120,82340,1,0,0:0:0:0:
8,224,82940,6,0,B|16:256|56:248|72:208|96:208|104:248|104:256|112:296|120:296|120:296|152:272,1,170,2|2,0:0|0:0,0:0:0:0:
256,192,83730,12,4,89650,0:0:0:0:
