osu file format v13

[General]
AudioFilename: candyglass.mp3
AudioLeadIn: 0
PreviewTime: 76800
Countdown: 0
SampleSet: None
StackLeniency: 0.8
Mode: 3
LetterboxInBreaks: 0
SpecialStyle: 0
WidescreenStoryboard: 1

[Editor]
DistanceSpacing: 0.8
BeatDivisor: 4
GridSize: 4
TimelineZoom: 1.1

[Metadata]
Title:candy*glass
TitleUnicode:candy*glass
Artist:Shiron
ArtistUnicode:Shiron
Creator:-Sandy Corzeta-
Version:7K INFINITE
Source:K-Shoot MANIA
Tags:Candy Rave Happy Core
BeatmapID:551861
BeatmapSetID:238620

[Difficulty]
HPDrainRate:8.5
CircleSize:7
OverallDifficulty:9.3
ApproachRate:5
SliderMultiplier:1.4
SliderTickRate:1

[Events]
//Background and Video events
0,0,"Konachan.com - 179891 blue_hair blush boots cake chocolate glasses gloves original scarf sekiyu-mngk skirt thighhighs valentine.jpg",0,0
//Break Periods
//Storyboard Layer 0 (Background)
//Storyboard Layer 1 (Fail)
//Storyboard Layer 2 (Pass)
//Storyboard Layer 3 (Foreground)
//Storyboard Sound Samples
//Background Colour Transformations

[TimingPoints]
0,342.857142857143,4,1,0,8,1,0

[HitObjects]
36,192,685,5,0,0:0:0:0:
329,192,685,1,0,0:0:0:0:
109,192,771,1,0,0:0:0:0:
402,192,771,1,0,0:0:0:0:
182,192,857,1,0,0:0:0:0:
475,192,857,1,0,0:0:0:0:
402,192,942,1,0,0:0:0:0:
256,192,942,1,0,0:0:0:0:
329,192,1028,1,0,0:0:0:0:
256,192,1114,1,0,0:0:0:0:
402,192,1114,1,0,0:0:0:0:
182,192,1200,1,0,0:0:0:0:
475,192,1200,1,0,0:0:0:0:
109,192,1285,1,0,0:0:0:0:
402,192,1285,1,0,0:0:0:0:
36,192,1371,1,0,0:0:0:0:
329,192,1371,1,0,0:0:0:0:
182,192,1542,1,0,0:0:0:0:
329,192,1714,1,0,0:0:0:0:
475,192,1714,1,0,0:0:0:0:
36,192,1714,1,0,0:0:0:0:
329,192,1885,1,0,0:0:0:0:
475,192,1885,1,0,0:0:0:0:
182,192,1885,1,0,0:0:0:0:
109,192,2057,1,0,0:0:0:0:
109,192,2228,1,0,0:0:0:0:
329,192,2400,1,0,0:0:0:0:
475,192,2400,1,0,0:0:0:0:
36,192,2400,1,0,0:0:0:0:
109,192,2571,1,0,0:0:0:0:
182,192,2742,1,0,0:0:0:0:
36,192,2914,1,0,0:0:0:0:
329,192,3085,1,0,0:0:0:0:
475,192,3085,1,0,0:0:0:0:
182,192,3085,1,0,0:0:0:0:
329,192,3257,1,0,0:0:0:0:
475,192,3257,1,0,0:0:0:0:
36,192,3257,1,0,0:0:0:0:
109,192,3428,1,0,0:0:0:0:
109,192,3600,1,0,0:0:0:0:
329,192,3771,1,0,0:0:0:0:
475,192,3771,1,0,0:0:0:0:
36,192,3771,1,0,0:0:0:0:
402,192,3942,1,0,0:0:0:0:
109,192,3942,1,0,0:0:0:0:
329,192,3942,1,0,0:0:0:0:
475,192,3942,1,0,0:0:0:0:
402,192,4114,1,0,0:0:0:0:
182,192,4114,1,0,0:0:0:0:
329,192,4114,1,0,0:0:0:0:
475,192,4114,1,0,0:0:0:0:
329,192,4285,1,0,0:0:0:0:
402,192,4457,1,0,0:0:0:0:
36,192,4457,1,0,0:0:0:0:
182,192,4457,1,0,0:0:0:0:
475,192,4628,1,0,0:0:0:0:
36,192,4628,1,0,0:0:0:0:
182,192,4628,1,0,0:0:0:0:
329,192,4800,1,0,0:0:0:0:
475,192,4971,1,0,0:0:0:0:
36,192,5142,1,0,0:0:0:0:
182,192,5142,1,0,0:0:0:0:
402,192,5142,1,0,0:0:0:0:
475,192,5314,1,0,0:0:0:0:
329,192,5485,1,0,0:0:0:0:
402,192,5657,1,0,0:0:0:0:
36,192,5828,1,0,0:0:0:0:
182,192,5828,1,0,0:0:0:0:
475,192,5828,1,0,0:0:0:0:
36,192,6000,1,0,0:0:0:0:
182,192,6000,1,0,0:0:0:0:
402,192,6000,1,0,0:0:0:0:
475,192,6171,1,0,0:0:0:0:
329,192,6342,1,0,0:0:0:0:
36,192,6514,1,0,0:0:0:0:
182,192,6514,1,0,0:0:0:0:
475,192,6514,1,0,0:0:0:0:
402,192,6685,1,0,0:0:0:0:
109,192,6685,1,0,0:0:0:0:
36,192,6685,1,0,0:0:0:0:
182,192,6685,1,0,0:0:0:0:
329,192,6857,1,0,0:0:0:0:
109,192,6857,1,0,0:0:0:0:
36,192,6857,1,0,0:0:0:0:
182,192,6857,1,0,0:0:0:0:
36,192,7028,1,0,0:0:0:0:
256,192,7200,1,0,0:0:0:0:
402,192,7200,1,0,0:0:0:0:
475,192,7200,1,0,0:0:0:0:
109,192,7371,1,0,0:0:0:0:
402,192,7371,1,0,0:0:0:0:
475,192,7371,1,0,0:0:0:0:
182,192,7542,1,0,0:0:0:0:
109,192,7714,1,0,0:0:0:0:
36,192,7885,1,0,0:0:0:0:
402,192,7885,1,0,0:0:0:0:
475,192,7885,1,0,0:0:0:0:
256,192,8057,1,0,0:0:0:0:
182,192,8228,1,0,0:0:0:0:
329,192,8400,1,0,0:0:0:0:
36,192,8571,1,0,0:0:0:0:
109,192,8571,1,0,0:0:0:0:
475,192,8571,1,0,0:0:0:0:
36,192,8742,1,0,0:0:0:0:
109,192,8742,1,0,0:0:0:0:
329,192,8742,1,0,0:0:0:0:
402,192,8914,1,0,0:0:0:0:
329,192,9085,1,0,0:0:0:0:
36,192,9257,1,0,0:0:0:0:
109,192,9257,1,0,0:0:0:0:
256,192,9257,1,0,0:0:0:0:
475,192,9428,1,0,0:0:0:0:
329,192,9600,1,0,0:0:0:0:
182,192,9600,1,0,0:0:0:0:
36,192,9771,1,0,0:0:0:0:
475,192,9771,1,0,0:0:0:0:
109,192,9942,1,0,0:0:0:0:
402,192,9942,1,0,0:0:0:0:
182,192,10114,1,0,0:0:0:0:
329,192,10114,1,0,0:0:0:0:
109,192,10200,1,0,0:0:0:0:
402,192,10200,1,0,0:0:0:0:
36,192,10285,1,0,0:0:0:0:
475,192,10285,1,0,0:0:0:0:
109,192,10371,1,0,0:0:0:0:
402,192,10371,1,0,0:0:0:0:
36,192,10457,1,0,0:0:0:0:
475,192,10457,1,0,0:0:0:0:
182,192,10542,1,0,0:0:0:0:
329,192,10542,1,0,0:0:0:0:
109,192,10628,1,0,0:0:0:0:
402,192,10628,1,0,0:0:0:0:
182,192,10800,128,0,10971:0:0:0:0:
329,192,10800,128,0,10971:0:0:0:0:
36,192,10800,1,0,0:0:0:0:
475,192,10800,1,0,0:0:0:0:
109,192,11142,128,0,11314:0:0:0:0:
402,192,11142,128,0,11314:0:0:0:0:
182,192,11142,1,0,0:0:0:0:
329,192,11142,1,0,0:0:0:0:
256,192,11485,128,0,11657:0:0:0:0:
36,192,11485,1,0,0:0:0:0:
475,192,11485,1,0,0:0:0:0:
109,192,11571,1,0,0:0:0:0:
402,192,11571,1,0,0:0:0:0:
475,192,11657,1,0,0:0:0:0:
36,192,11657,1,0,0:0:0:0:
182,192,11657,1,0,0:0:0:0:
329,192,11657,1,0,0:0:0:0:
475,192,11828,1,0,0:0:0:0:
402,192,11885,1,0,0:0:0:0:
329,192,11942,1,0,0:0:0:0:
256,192,12000,1,0,0:0:0:0:
36,192,12000,1,0,0:0:0:0:
109,192,12000,1,0,0:0:0:0:
475,192,12000,1,0,0:0:0:0:
475,192,12171,1,0,0:0:0:0:
329,192,12342,1,0,0:0:0:0:
36,192,12342,1,0,0:0:0:0:
109,192,12342,1,0,0:0:0:0:
475,192,12342,128,0,12685:0:0:0:0:
36,192,12685,1,0,0:0:0:0:
109,192,12685,1,0,0:0:0:0:
256,192,12685,1,0,0:0:0:0:
182,192,12857,128,0,13028:0:0:0:0:
329,192,12857,128,0,13028:0:0:0:0:
402,192,13028,1,0,0:0:0:0:
475,192,13028,1,0,0:0:0:0:
256,192,13028,128,0,13200:0:0:0:0:
109,192,13200,1,0,0:0:0:0:
182,192,13371,1,0,0:0:0:0:
36,192,13371,1,0,0:0:0:0:
402,192,13371,1,0,0:0:0:0:
475,192,13371,1,0,0:0:0:0:
109,192,13542,1,0,0:0:0:0:
36,192,13714,128,0,14057:0:0:0:0:
182,192,13714,1,0,0:0:0:0:
329,192,13714,1,0,0:0:0:0:
402,192,13714,1,0,0:0:0:0:
256,192,14057,1,0,0:0:0:0:
402,192,14057,1,0,0:0:0:0:
475,192,14057,1,0,0:0:0:0:
182,192,14228,128,0,14400:0:0:0:0:
329,192,14228,128,0,14400:0:0:0:0:
36,192,14400,1,0,0:0:0:0:
109,192,14400,1,0,0:0:0:0:
256,192,14400,128,0,14571:0:0:0:0:
402,192,14571,1,0,0:0:0:0:
475,192,14571,1,0,0:0:0:0:
329,192,14657,1,0,0:0:0:0:
402,192,14742,1,0,0:0:0:0:
36,192,14742,1,0,0:0:0:0:
182,192,14742,1,0,0:0:0:0:
329,192,14914,1,0,0:0:0:0:
475,192,14914,1,0,0:0:0:0:
36,192,15085,128,0,15428:0:0:0:0:
109,192,15085,1,0,0:0:0:0:
256,192,15085,1,0,0:0:0:0:
182,192,15428,1,0,0:0:0:0:
329,192,15428,1,0,0:0:0:0:
256,192,15600,128,0,15771:0:0:0:0:
182,192,15771,128,0,15942:0:0:0:0:
329,192,15771,128,0,15942:0:0:0:0:
36,192,15942,1,0,0:0:0:0:
182,192,16114,1,0,0:0:0:0:
402,192,16114,1,0,0:0:0:0:
329,192,16114,1,0,0:0:0:0:
109,192,16285,1,0,0:0:0:0:
475,192,16457,1,0,0:0:0:0:
329,192,16457,128,0,16800:0:0:0:0:
182,192,16457,1,0,0:0:0:0:
36,192,16800,1,0,0:0:0:0:
182,192,16800,1,0,0:0:0:0:
109,192,16971,128,0,17142:0:0:0:0:
402,192,16971,128,0,17142:0:0:0:0:
182,192,17142,1,0,0:0:0:0:
475,192,17142,1,0,0:0:0:0:
36,192,17228,1,0,0:0:0:0:
329,192,17228,1,0,0:0:0:0:
182,192,17314,1,0,0:0:0:0:
475,192,17314,1,0,0:0:0:0:
36,192,17400,1,0,0:0:0:0:
329,192,17400,1,0,0:0:0:0:
182,192,17485,1,0,0:0:0:0:
475,192,17485,1,0,0:0:0:0:
109,192,17657,1,0,0:0:0:0:
256,192,17657,1,0,0:0:0:0:
402,192,17657,1,0,0:0:0:0:
36,192,17828,1,0,0:0:0:0:
182,192,17828,1,0,0:0:0:0:
329,192,17828,128,0,18000:0:0:0:0:
475,192,17828,128,0,18000:0:0:0:0:
36,192,18171,128,0,18342:0:0:0:0:
182,192,18171,128,0,18342:0:0:0:0:
329,192,18171,1,0,0:0:0:0:
475,192,18171,1,0,0:0:0:0:
329,192,18514,128,0,18685:0:0:0:0:
475,192,18514,128,0,18685:0:0:0:0:
36,192,18514,1,0,0:0:0:0:
182,192,18514,1,0,0:0:0:0:
36,192,18857,128,0,19028:0:0:0:0:
182,192,18857,128,0,19028:0:0:0:0:
329,192,18857,1,0,0:0:0:0:
475,192,18857,1,0,0:0:0:0:
475,192,19200,128,0,19542:0:0:0:0:
329,192,19200,1,0,0:0:0:0:
402,192,19200,1,0,0:0:0:0:
329,192,19542,128,0,19885:0:0:0:0:
182,192,19542,1,0,0:0:0:0:
256,192,19542,1,0,0:0:0:0:
402,192,19542,1,0,0:0:0:0:
182,192,19885,128,0,20228:0:0:0:0:
36,192,19885,1,0,0:0:0:0:
109,192,19885,1,0,0:0:0:0:
475,192,19885,1,0,0:0:0:0:
402,192,19885,1,0,0:0:0:0:
36,192,20228,128,0,20571:0:0:0:0:
256,192,20228,1,0,0:0:0:0:
329,192,20228,1,0,0:0:0:0:
109,192,20228,1,0,0:0:0:0:
329,192,20571,1,0,0:0:0:0:
475,192,20571,1,0,0:0:0:0:
109,192,20571,1,0,0:0:0:0:
182,192,20571,1,0,0:0:0:0:
402,192,20657,1,0,0:0:0:0:
329,192,20742,1,0,0:0:0:0:
256,192,20828,1,0,0:0:0:0:
182,192,20914,1,0,0:0:0:0:
329,192,20914,1,0,0:0:0:0:
36,192,20914,1,0,0:0:0:0:
475,192,20914,1,0,0:0:0:0:
256,192,21000,1,0,0:0:0:0:
182,192,21085,1,0,0:0:0:0:
109,192,21171,1,0,0:0:0:0:
36,192,21257,1,0,0:0:0:0:
475,192,21257,1,0,0:0:0:0:
402,192,21300,1,0,0:0:0:0:
329,192,21342,1,0,0:0:0:0:
256,192,21385,1,0,0:0:0:0:
182,192,21428,1,0,0:0:0:0:
256,192,21471,1,0,0:0:0:0:
329,192,21514,1,0,0:0:0:0:
402,192,21557,1,0,0:0:0:0:
36,192,21600,1,0,0:0:0:0:
475,192,21600,1,0,0:0:0:0:
109,192,21642,1,0,0:0:0:0:
182,192,21685,1,0,0:0:0:0:
256,192,21728,1,0,0:0:0:0:
329,192,21771,1,0,0:0:0:0:
256,192,21814,1,0,0:0:0:0:
182,192,21857,1,0,0:0:0:0:
109,192,21900,1,0,0:0:0:0:
36,192,21942,128,0,22285:0:0:0:0:
475,192,21942,128,0,22285:0:0:0:0:
36,192,22628,1,0,0:0:0:0:
109,192,22628,1,0,0:0:0:0:
182,192,22628,1,0,0:0:0:0:
329,192,22628,1,0,0:0:0:0:
402,192,22628,1,0,0:0:0:0:
475,192,22628,1,0,0:0:0:0:
109,192,22800,1,0,0:0:0:0:
182,192,22800,1,0,0:0:0:0:
329,192,22800,1,0,0:0:0:0:
402,192,22800,1,0,0:0:0:0:
182,192,22971,1,0,0:0:0:0:
256,192,22971,1,0,0:0:0:0:
329,192,22971,1,0,0:0:0:0:
36,192,23314,1,0,0:0:0:0:
256,192,23314,1,0,0:0:0:0:
475,192,23314,128,0,23657:0:0:0:0:
329,192,23657,1,0,0:0:0:0:
182,192,23657,1,0,0:0:0:0:
256,192,23828,1,0,0:0:0:0:
182,192,24000,1,0,0:0:0:0:
402,192,24000,1,0,0:0:0:0:
36,192,24000,1,0,0:0:0:0:
329,192,24171,1,0,0:0:0:0:
109,192,24342,1,0,0:0:0:0:
402,192,24342,1,0,0:0:0:0:
256,192,24342,1,0,0:0:0:0:
182,192,24514,128,0,24857:0:0:0:0:
36,192,24685,1,0,0:0:0:0:
329,192,24685,1,0,0:0:0:0:
402,192,24857,1,0,0:0:0:0:
329,192,25028,1,0,0:0:0:0:
109,192,25028,1,0,0:0:0:0:
475,192,25028,1,0,0:0:0:0:
256,192,25200,1,0,0:0:0:0:
36,192,25371,1,0,0:0:0:0:
109,192,25371,1,0,0:0:0:0:
402,192,25371,1,0,0:0:0:0:
329,192,25542,1,0,0:0:0:0:
402,192,25628,1,0,0:0:0:0:
109,192,25714,1,0,0:0:0:0:
475,192,25714,1,0,0:0:0:0:
256,192,25714,1,0,0:0:0:0:
182,192,26057,1,0,0:0:0:0:
329,192,26057,1,0,0:0:0:0:
402,192,26400,1,0,0:0:0:0:
36,192,26400,1,0,0:0:0:0:
182,192,26400,1,0,0:0:0:0:
109,192,26571,1,0,0:0:0:0:
256,192,26742,1,0,0:0:0:0:
402,192,26742,1,0,0:0:0:0:
36,192,26742,1,0,0:0:0:0:
329,192,27000,1,0,0:0:0:0:
182,192,27000,1,0,0:0:0:0:
109,192,27257,1,0,0:0:0:0:
256,192,27257,1,0,0:0:0:0:
36,192,27600,128,0,27771:0:0:0:0:
182,192,27600,128,0,27771:0:0:0:0:
475,192,27600,128,0,27771:0:0:0:0:
109,192,27771,1,0,0:0:0:0:
256,192,27771,1,0,0:0:0:0:
109,192,27942,128,0,28114:0:0:0:0:
256,192,27942,128,0,28114:0:0:0:0:
475,192,27942,128,0,28114:0:0:0:0:
182,192,28114,1,0,0:0:0:0:
329,192,28114,1,0,0:0:0:0:
182,192,28285,128,0,28457:0:0:0:0:
329,192,28285,128,0,28457:0:0:0:0:
475,192,28285,128,0,28457:0:0:0:0:
109,192,28457,1,0,0:0:0:0:
256,192,28457,1,0,0:0:0:0:
256,192,28628,128,0,28800:0:0:0:0:
109,192,28628,128,0,28800:0:0:0:0:
475,192,28628,128,0,28800:0:0:0:0:
36,192,28800,1,0,0:0:0:0:
182,192,28800,1,0,0:0:0:0:
402,192,28971,1,0,0:0:0:0:
329,192,29142,1,0,0:0:0:0:
109,192,29142,1,0,0:0:0:0:
475,192,29142,1,0,0:0:0:0:
256,192,29314,1,0,0:0:0:0:
109,192,29485,1,0,0:0:0:0:
329,192,29485,1,0,0:0:0:0:
402,192,29657,1,0,0:0:0:0:
182,192,29828,1,0,0:0:0:0:
36,192,29828,1,0,0:0:0:0:
402,192,29828,1,0,0:0:0:0:
329,192,30000,128,0,30342:0:0:0:0:
109,192,30171,1,0,0:0:0:0:
402,192,30171,1,0,0:0:0:0:
36,192,30171,1,0,0:0:0:0:
182,192,30342,128,0,30514:0:0:0:0:
475,192,30514,1,0,0:0:0:0:
109,192,30514,1,0,0:0:0:0:
256,192,30514,128,0,30685:0:0:0:0:
329,192,30685,128,0,30857:0:0:0:0:
182,192,30857,1,0,0:0:0:0:
36,192,30857,1,0,0:0:0:0:
402,192,31028,128,0,31200:0:0:0:0:
256,192,31200,1,0,0:0:0:0:
36,192,31200,1,0,0:0:0:0:
329,192,31200,128,0,31371:0:0:0:0:
402,192,31371,1,0,0:0:0:0:
109,192,31371,1,0,0:0:0:0:
36,192,31542,1,0,0:0:0:0:
402,192,31542,128,0,31714:0:0:0:0:
256,192,31542,128,0,31714:0:0:0:0:
475,192,31885,1,0,0:0:0:0:
109,192,31885,128,0,32057:0:0:0:0:
402,192,31885,128,0,32057:0:0:0:0:
36,192,32228,1,0,0:0:0:0:
109,192,32228,128,0,32400:0:0:0:0:
402,192,32228,128,0,32400:0:0:0:0:
329,192,32400,1,0,0:0:0:0:
256,192,32571,1,0,0:0:0:0:
109,192,32571,1,0,0:0:0:0:
329,192,32571,1,0,0:0:0:0:
256,192,32742,1,0,0:0:0:0:
402,192,32742,1,0,0:0:0:0:
36,192,33085,1,0,0:0:0:0:
256,192,33085,1,0,0:0:0:0:
402,192,33085,1,0,0:0:0:0:
475,192,33085,1,0,0:0:0:0:
182,192,33428,1,0,0:0:0:0:
402,192,33428,1,0,0:0:0:0:
475,192,33428,1,0,0:0:0:0:
402,192,33600,1,0,0:0:0:0:
109,192,33600,1,0,0:0:0:0:
329,192,33642,1,0,0:0:0:0:
256,192,33685,1,0,0:0:0:0:
182,192,33728,1,0,0:0:0:0:
109,192,33771,1,0,0:0:0:0:
402,192,33771,1,0,0:0:0:0:
329,192,33814,1,0,0:0:0:0:
256,192,33857,1,0,0:0:0:0:
182,192,33900,1,0,0:0:0:0:
109,192,33942,1,0,0:0:0:0:
402,192,33942,1,0,0:0:0:0:
182,192,34114,1,0,0:0:0:0:
329,192,34114,1,0,0:0:0:0:
36,192,34285,1,0,0:0:0:0:
475,192,34285,1,0,0:0:0:0:
329,192,34285,1,0,0:0:0:0:
329,192,34628,1,0,0:0:0:0:
402,192,34628,1,0,0:0:0:0:
182,192,34628,1,0,0:0:0:0:
109,192,34800,1,0,0:0:0:0:
182,192,34800,1,0,0:0:0:0:
329,192,34800,1,0,0:0:0:0:
256,192,34971,1,0,0:0:0:0:
329,192,34971,1,0,0:0:0:0:
109,192,34971,1,0,0:0:0:0:
109,192,35142,1,0,0:0:0:0:
256,192,35314,1,0,0:0:0:0:
402,192,35314,1,0,0:0:0:0:
475,192,35314,1,0,0:0:0:0:
402,192,35485,128,0,35828:0:0:0:0:
36,192,35657,1,0,0:0:0:0:
182,192,35657,1,0,0:0:0:0:
256,192,35657,1,0,0:0:0:0:
329,192,35828,1,0,0:0:0:0:
256,192,36000,1,0,0:0:0:0:
402,192,36000,1,0,0:0:0:0:
475,192,36000,1,0,0:0:0:0:
182,192,36171,1,0,0:0:0:0:
256,192,36342,1,0,0:0:0:0:
329,192,36342,1,0,0:0:0:0:
36,192,36514,1,0,0:0:0:0:
256,192,36600,1,0,0:0:0:0:
475,192,36685,1,0,0:0:0:0:
109,192,36685,1,0,0:0:0:0:
36,192,36685,1,0,0:0:0:0:
329,192,37028,1,0,0:0:0:0:
182,192,37028,1,0,0:0:0:0:
109,192,37028,1,0,0:0:0:0:
402,192,37028,1,0,0:0:0:0:
256,192,37371,1,0,0:0:0:0:
329,192,37371,1,0,0:0:0:0:
109,192,37371,1,0,0:0:0:0:
256,192,37542,1,0,0:0:0:0:
182,192,37542,1,0,0:0:0:0:
402,192,37542,1,0,0:0:0:0:
36,192,37714,1,0,0:0:0:0:
182,192,37714,1,0,0:0:0:0:
402,192,37714,128,0,37971:0:0:0:0:
109,192,37971,128,0,38228:0:0:0:0:
256,192,38228,1,0,0:0:0:0:
182,192,38228,128,0,38400:0:0:0:0:
329,192,38228,128,0,38400:0:0:0:0:
109,192,38571,128,0,38742:0:0:0:0:
402,192,38571,128,0,38742:0:0:0:0:
256,192,38571,1,0,0:0:0:0:
36,192,38914,128,0,39085:0:0:0:0:
475,192,38914,128,0,39085:0:0:0:0:
256,192,38914,1,0,0:0:0:0:
402,192,39085,1,0,0:0:0:0:
256,192,39171,1,0,0:0:0:0:
109,192,39257,1,0,0:0:0:0:
182,192,39428,1,0,0:0:0:0:
329,192,39428,1,0,0:0:0:0:
182,192,39600,1,0,0:0:0:0:
329,192,39600,1,0,0:0:0:0:
256,192,39771,1,0,0:0:0:0:
402,192,39771,1,0,0:0:0:0:
36,192,39771,1,0,0:0:0:0:
109,192,39771,1,0,0:0:0:0:
256,192,39942,1,0,0:0:0:0:
402,192,39942,1,0,0:0:0:0:
256,192,40114,1,0,0:0:0:0:
402,192,40114,1,0,0:0:0:0:
36,192,40114,1,0,0:0:0:0:
256,192,40285,1,0,0:0:0:0:
402,192,40285,1,0,0:0:0:0:
109,192,40285,1,0,0:0:0:0:
256,192,40457,1,0,0:0:0:0:
402,192,40457,1,0,0:0:0:0:
182,192,40457,1,0,0:0:0:0:
256,192,40628,1,0,0:0:0:0:
402,192,40628,1,0,0:0:0:0:
36,192,40628,1,0,0:0:0:0:
256,192,40800,1,0,0:0:0:0:
402,192,40800,1,0,0:0:0:0:
109,192,40800,1,0,0:0:0:0:
256,192,40971,1,0,0:0:0:0:
402,192,40971,1,0,0:0:0:0:
36,192,40971,128,0,41314:0:0:0:0:
329,192,41057,1,0,0:0:0:0:
256,192,41142,1,0,0:0:0:0:
109,192,41142,1,0,0:0:0:0:
109,192,41314,1,0,0:0:0:0:
256,192,41314,1,0,0:0:0:0:
475,192,41314,1,0,0:0:0:0:
109,192,41485,1,0,0:0:0:0:
256,192,41485,1,0,0:0:0:0:
402,192,41485,1,0,0:0:0:0:
109,192,41657,1,0,0:0:0:0:
256,192,41657,1,0,0:0:0:0:
475,192,41657,128,0,42000:0:0:0:0:
109,192,41828,1,0,0:0:0:0:
256,192,41828,1,0,0:0:0:0:
182,192,41914,1,0,0:0:0:0:
109,192,42000,1,0,0:0:0:0:
256,192,42000,1,0,0:0:0:0:
402,192,42000,128,0,42171:0:0:0:0:
109,192,42171,1,0,0:0:0:0:
256,192,42171,1,0,0:0:0:0:
475,192,42171,128,0,42342:0:0:0:0:
182,192,42257,1,0,0:0:0:0:
109,192,42342,1,0,0:0:0:0:
256,192,42342,1,0,0:0:0:0:
402,192,42342,1,0,0:0:0:0:
36,192,42428,1,0,0:0:0:0:
109,192,42514,1,0,0:0:0:0:
256,192,42514,1,0,0:0:0:0:
402,192,42514,1,0,0:0:0:0:
256,192,42685,1,0,0:0:0:0:
256,192,42857,1,0,0:0:0:0:
36,192,42857,1,0,0:0:0:0:
402,192,42857,1,0,0:0:0:0:
256,192,43028,1,0,0:0:0:0:
36,192,43028,1,0,0:0:0:0:
475,192,43200,1,0,0:0:0:0:
182,192,43200,1,0,0:0:0:0:
402,192,43285,1,0,0:0:0:0:
109,192,43285,1,0,0:0:0:0:
329,192,43371,1,0,0:0:0:0:
36,192,43371,1,0,0:0:0:0:
475,192,43457,1,0,0:0:0:0:
182,192,43457,1,0,0:0:0:0:
402,192,43542,1,0,0:0:0:0:
36,192,43542,1,0,0:0:0:0:
109,192,43714,128,0,43885:0:0:0:0:
256,192,43714,128,0,43885:0:0:0:0:
402,192,43714,128,0,43885:0:0:0:0:
182,192,44057,128,0,44228:0:0:0:0:
329,192,44057,128,0,44228:0:0:0:0:
36,192,44400,1,0,0:0:0:0:
109,192,44400,1,0,0:0:0:0:
402,192,44400,1,0,0:0:0:0:
475,192,44400,1,0,0:0:0:0:
109,192,44571,1,0,0:0:0:0:
182,192,44571,1,0,0:0:0:0:
256,192,44571,1,0,0:0:0:0:
402,192,44571,1,0,0:0:0:0:
402,192,44742,1,0,0:0:0:0:
329,192,44742,1,0,0:0:0:0:
182,192,44742,1,0,0:0:0:0:
109,192,44742,1,0,0:0:0:0:
109,192,44914,1,0,0:0:0:0:
256,192,44914,1,0,0:0:0:0:
329,192,44914,1,0,0:0:0:0:
402,192,44914,1,0,0:0:0:0:
475,192,45257,128,0,48000:0:0:0:0:
36,192,45257,1,0,0:0:0:0:
182,192,45257,1,0,0:0:0:0:
256,192,45257,128,0,45428:0:0:0:0:
182,192,45428,128,0,45600:0:0:0:0:
36,192,45600,1,0,0:0:0:0:
329,192,45600,1,0,0:0:0:0:
36,192,45942,1,0,0:0:0:0:
182,192,45942,1,0,0:0:0:0:
256,192,45942,128,0,46114:0:0:0:0:
329,192,46114,128,0,46285:0:0:0:0:
109,192,46285,1,0,0:0:0:0:
256,192,46285,1,0,0:0:0:0:
36,192,46628,1,0,0:0:0:0:
182,192,46628,1,0,0:0:0:0:
256,192,46628,128,0,46800:0:0:0:0:
329,192,46800,128,0,46971:0:0:0:0:
182,192,46971,1,0,0:0:0:0:
402,192,46971,1,0,0:0:0:0:
36,192,47314,1,0,0:0:0:0:
182,192,47314,1,0,0:0:0:0:
256,192,47314,128,0,47485:0:0:0:0:
182,192,47485,128,0,47657:0:0:0:0:
109,192,47657,1,0,0:0:0:0:
329,192,47657,1,0,0:0:0:0:
329,192,48000,128,0,50742:0:0:0:0:
36,192,48000,1,0,0:0:0:0:
182,192,48000,1,0,0:0:0:0:
402,192,48000,128,0,48171:0:0:0:0:
109,192,48171,128,0,48342:0:0:0:0:
256,192,48342,1,0,0:0:0:0:
36,192,48342,1,0,0:0:0:0:
109,192,48685,1,0,0:0:0:0:
402,192,48685,1,0,0:0:0:0:
256,192,48685,128,0,48857:0:0:0:0:
36,192,48857,128,0,49028:0:0:0:0:
182,192,49028,1,0,0:0:0:0:
109,192,49028,1,0,0:0:0:0:
109,192,49371,1,0,0:0:0:0:
402,192,49371,1,0,0:0:0:0:
256,192,49371,128,0,49542:0:0:0:0:
182,192,49542,128,0,49714:0:0:0:0:
256,192,49714,1,0,0:0:0:0:
109,192,49714,1,0,0:0:0:0:
109,192,50057,1,0,0:0:0:0:
402,192,50057,1,0,0:0:0:0:
182,192,50057,128,0,50228:0:0:0:0:
36,192,50228,128,0,50400:0:0:0:0:
256,192,50400,1,0,0:0:0:0:
402,192,50400,1,0,0:0:0:0:
182,192,50571,1,0,0:0:0:0:
182,192,50742,128,0,53485:0:0:0:0:
36,192,50742,1,0,0:0:0:0:
475,192,50742,1,0,0:0:0:0:
402,192,50742,128,0,50914:0:0:0:0:
329,192,50914,128,0,51085:0:0:0:0:
256,192,51085,1,0,0:0:0:0:
402,192,51085,1,0,0:0:0:0:
36,192,51428,1,0,0:0:0:0:
475,192,51428,1,0,0:0:0:0:
256,192,51428,128,0,51600:0:0:0:0:
402,192,51600,128,0,51771:0:0:0:0:
329,192,51771,1,0,0:0:0:0:
475,192,51771,1,0,0:0:0:0:
36,192,52114,1,0,0:0:0:0:
475,192,52114,1,0,0:0:0:0:
329,192,52114,128,0,52285:0:0:0:0:
256,192,52285,128,0,52457:0:0:0:0:
402,192,52457,1,0,0:0:0:0:
475,192,52457,1,0,0:0:0:0:
36,192,52800,1,0,0:0:0:0:
475,192,52800,1,0,0:0:0:0:
256,192,52800,128,0,52971:0:0:0:0:
109,192,52971,128,0,53142:0:0:0:0:
329,192,53142,1,0,0:0:0:0:
402,192,53142,1,0,0:0:0:0:
36,192,53485,128,0,56228:0:0:0:0:
256,192,53485,1,0,0:0:0:0:
475,192,53485,1,0,0:0:0:0:
329,192,53485,128,0,53657:0:0:0:0:
182,192,53657,128,0,53828:0:0:0:0:
402,192,53828,1,0,0:0:0:0:
475,192,53828,1,0,0:0:0:0:
475,192,54171,1,0,0:0:0:0:
256,192,54171,1,0,0:0:0:0:
402,192,54171,128,0,54342:0:0:0:0:
182,192,54342,128,0,54514:0:0:0:0:
329,192,54514,1,0,0:0:0:0:
402,192,54514,1,0,0:0:0:0:
256,192,54857,1,0,0:0:0:0:
475,192,54857,1,0,0:0:0:0:
329,192,55028,1,0,0:0:0:0:
475,192,55028,1,0,0:0:0:0:
329,192,55114,1,0,0:0:0:0:
475,192,55114,1,0,0:0:0:0:
329,192,55200,1,0,0:0:0:0:
475,192,55200,1,0,0:0:0:0:
256,192,55371,1,0,0:0:0:0:
402,192,55371,1,0,0:0:0:0:
256,192,55457,1,0,0:0:0:0:
402,192,55457,1,0,0:0:0:0:
256,192,55542,1,0,0:0:0:0:
402,192,55542,1,0,0:0:0:0:
109,192,55714,1,0,0:0:0:0:
402,192,55714,1,0,0:0:0:0:
182,192,55885,1,0,0:0:0:0:
329,192,55885,1,0,0:0:0:0:
182,192,56228,128,0,58971:0:0:0:0:
329,192,56228,128,0,58971:0:0:0:0:
475,192,56228,128,0,56400:0:0:0:0:
109,192,56400,1,0,0:0:0:0:
402,192,56571,128,0,56742:0:0:0:0:
36,192,56742,1,0,0:0:0:0:
36,192,56914,128,0,57085:0:0:0:0:
402,192,57085,1,0,0:0:0:0:
109,192,57257,128,0,57428:0:0:0:0:
475,192,57428,1,0,0:0:0:0:
402,192,57600,128,0,57771:0:0:0:0:
36,192,57771,1,0,0:0:0:0:
475,192,57942,128,0,58114:0:0:0:0:
109,192,58114,1,0,0:0:0:0:
36,192,58285,128,0,58457:0:0:0:0:
475,192,58457,1,0,0:0:0:0:
109,192,58628,128,0,58800:0:0:0:0:
402,192,58800,1,0,0:0:0:0:
36,192,58971,128,0,61714:0:0:0:0:
475,192,58971,128,0,61714:0:0:0:0:
256,192,58971,128,0,59142:0:0:0:0:
402,192,59142,1,0,0:0:0:0:
256,192,59314,128,0,59485:0:0:0:0:
109,192,59485,1,0,0:0:0:0:
256,192,59657,128,0,59828:0:0:0:0:
182,192,59828,1,0,0:0:0:0:
256,192,60000,128,0,60171:0:0:0:0:
329,192,60171,1,0,0:0:0:0:
109,192,60685,128,0,60857:0:0:0:0:
402,192,60685,128,0,60857:0:0:0:0:
182,192,60685,1,0,0:0:0:0:
329,192,60685,1,0,0:0:0:0:
329,192,61028,128,0,61200:0:0:0:0:
182,192,61028,128,0,61200:0:0:0:0:
109,192,61028,1,0,0:0:0:0:
402,192,61028,1,0,0:0:0:0:
256,192,61371,128,0,61542:0:0:0:0:
182,192,61371,1,0,0:0:0:0:
329,192,61371,1,0,0:0:0:0:
109,192,61714,1,0,0:0:0:0:
402,192,61714,1,0,0:0:0:0:
256,192,61885,1,0,0:0:0:0:
109,192,62057,1,0,0:0:0:0:
182,192,62228,1,0,0:0:0:0:
329,192,62228,1,0,0:0:0:0:
475,192,62400,1,0,0:0:0:0:
36,192,62400,1,0,0:0:0:0:
256,192,62571,1,0,0:0:0:0:
402,192,62571,1,0,0:0:0:0:
329,192,62742,1,0,0:0:0:0:
109,192,62914,1,0,0:0:0:0:
256,192,62914,1,0,0:0:0:0:
36,192,63085,1,0,0:0:0:0:
402,192,63085,1,0,0:0:0:0:
182,192,63257,1,0,0:0:0:0:
329,192,63257,1,0,0:0:0:0:
402,192,63257,1,0,0:0:0:0:
256,192,63428,1,0,0:0:0:0:
109,192,63600,1,0,0:0:0:0:
182,192,63600,1,0,0:0:0:0:
329,192,63600,1,0,0:0:0:0:
402,192,63771,128,0,63857:0:0:0:0:
329,192,63771,1,0,0:0:0:0:
109,192,63942,128,0,64028:0:0:0:0:
182,192,63942,1,0,0:0:0:0:
256,192,64114,1,0,0:0:0:0:
329,192,64457,1,0,0:0:0:0:
182,192,64457,1,0,0:0:0:0:
36,192,64457,1,0,0:0:0:0:
475,192,64457,1,0,0:0:0:0:
109,192,64457,1,0,0:0:0:0:
256,192,64457,1,0,0:0:0:0:
36,192,64628,1,0,0:0:0:0:
182,192,64628,1,0,0:0:0:0:
256,192,64628,1,0,0:0:0:0:
329,192,64628,1,0,0:0:0:0:
475,192,64628,1,0,0:0:0:0:
402,192,64628,1,0,0:0:0:0:
36,192,64800,1,0,0:0:0:0:
109,192,64800,1,0,0:0:0:0:
182,192,64800,1,0,0:0:0:0:
256,192,64800,1,0,0:0:0:0:
402,192,64800,1,0,0:0:0:0:
475,192,64800,1,0,0:0:0:0:
36,192,64971,1,0,0:0:0:0:
109,192,64971,1,0,0:0:0:0:
329,192,64971,1,0,0:0:0:0:
256,192,64971,1,0,0:0:0:0:
402,192,64971,1,0,0:0:0:0:
475,192,64971,1,0,0:0:0:0:
36,192,65142,1,0,0:0:0:0:
182,192,65142,1,0,0:0:0:0:
36,192,65228,1,0,0:0:0:0:
182,192,65228,1,0,0:0:0:0:
109,192,65314,1,0,0:0:0:0:
256,192,65314,1,0,0:0:0:0:
109,192,65400,1,0,0:0:0:0:
256,192,65400,1,0,0:0:0:0:
182,192,65485,1,0,0:0:0:0:
329,192,65485,1,0,0:0:0:0:
182,192,65571,1,0,0:0:0:0:
329,192,65571,1,0,0:0:0:0:
256,192,65657,1,0,0:0:0:0:
402,192,65657,1,0,0:0:0:0:
256,192,65742,1,0,0:0:0:0:
402,192,65742,1,0,0:0:0:0:
182,192,65828,1,0,0:0:0:0:
329,192,65828,1,0,0:0:0:0:
475,192,65828,1,0,0:0:0:0:
36,192,65828,128,0,66514:0:0:0:0:
475,192,66171,128,0,66514:0:0:0:0:
109,192,66514,1,0,0:0:0:0:
182,192,66514,1,0,0:0:0:0:
329,192,66514,1,0,0:0:0:0:
402,192,66514,1,0,0:0:0:0:
109,192,66685,1,0,0:0:0:0:
182,192,66685,1,0,0:0:0:0:
329,192,66685,1,0,0:0:0:0:
402,192,66685,1,0,0:0:0:0:
36,192,66857,1,0,0:0:0:0:
182,192,66857,1,0,0:0:0:0:
256,192,66857,1,0,0:0:0:0:
329,192,66857,1,0,0:0:0:0:
475,192,66857,1,0,0:0:0:0:
36,192,67200,1,0,0:0:0:0:
109,192,67200,1,0,0:0:0:0:
402,192,67200,1,0,0:0:0:0:
475,192,67200,1,0,0:0:0:0:
182,192,67371,1,0,0:0:0:0:
36,192,67542,1,0,0:0:0:0:
329,192,67542,1,0,0:0:0:0:
402,192,67542,1,0,0:0:0:0:
475,192,67542,1,0,0:0:0:0:
182,192,67714,1,0,0:0:0:0:
402,192,67714,1,0,0:0:0:0:
109,192,67885,1,0,0:0:0:0:
182,192,68057,1,0,0:0:0:0:
36,192,68228,1,0,0:0:0:0:
329,192,68228,1,0,0:0:0:0:
402,192,68228,1,0,0:0:0:0:
475,192,68228,1,0,0:0:0:0:
109,192,68400,1,0,0:0:0:0:
256,192,68571,1,0,0:0:0:0:
109,192,68742,1,0,0:0:0:0:
36,192,68914,1,0,0:0:0:0:
329,192,68914,1,0,0:0:0:0:
402,192,68914,1,0,0:0:0:0:
475,192,68914,1,0,0:0:0:0:
182,192,69085,1,0,0:0:0:0:
402,192,69085,1,0,0:0:0:0:
109,192,69257,1,0,0:0:0:0:
36,192,69428,1,0,0:0:0:0:
182,192,69600,1,0,0:0:0:0:
329,192,69600,1,0,0:0:0:0:
402,192,69600,1,0,0:0:0:0:
475,192,69600,1,0,0:0:0:0:
109,192,69771,1,0,0:0:0:0:
256,192,69942,1,0,0:0:0:0:
109,192,70114,1,0,0:0:0:0:
36,192,70285,1,0,0:0:0:0:
329,192,70285,1,0,0:0:0:0:
402,192,70285,1,0,0:0:0:0:
475,192,70285,1,0,0:0:0:0:
182,192,70457,1,0,0:0:0:0:
329,192,70457,1,0,0:0:0:0:
475,192,70457,1,0,0:0:0:0:
109,192,70628,1,0,0:0:0:0:
109,192,70800,1,0,0:0:0:0:
329,192,70971,1,0,0:0:0:0:
402,192,70971,1,0,0:0:0:0:
475,192,70971,1,0,0:0:0:0:
36,192,70971,1,0,0:0:0:0:
109,192,71142,1,0,0:0:0:0:
256,192,71314,1,0,0:0:0:0:
109,192,71485,1,0,0:0:0:0:
329,192,71657,1,0,0:0:0:0:
402,192,71657,1,0,0:0:0:0:
475,192,71657,1,0,0:0:0:0:
182,192,71657,1,0,0:0:0:0:
329,192,71828,1,0,0:0:0:0:
475,192,71828,1,0,0:0:0:0:
256,192,71828,1,0,0:0:0:0:
36,192,72000,1,0,0:0:0:0:
182,192,72171,1,0,0:0:0:0:
329,192,72171,1,0,0:0:0:0:
256,192,72171,1,0,0:0:0:0:
109,192,72342,1,0,0:0:0:0:
36,192,72514,1,0,0:0:0:0:
256,192,72514,1,0,0:0:0:0:
329,192,72514,1,0,0:0:0:0:
475,192,72514,1,0,0:0:0:0:
36,192,72685,1,0,0:0:0:0:
329,192,72685,1,0,0:0:0:0:
475,192,72685,1,0,0:0:0:0:
182,192,72685,128,0,73885:0:0:0:0:
402,192,72857,1,0,0:0:0:0:
36,192,73028,1,0,0:0:0:0:
109,192,73028,1,0,0:0:0:0:
329,192,73028,1,0,0:0:0:0:
109,192,73200,1,0,0:0:0:0:
475,192,73200,1,0,0:0:0:0:
329,192,73371,1,0,0:0:0:0:
256,192,73542,1,0,0:0:0:0:
329,192,73714,1,0,0:0:0:0:
475,192,73714,1,0,0:0:0:0:
109,192,73885,1,0,0:0:0:0:
36,192,73885,1,0,0:0:0:0:
402,192,73885,1,0,0:0:0:0:
36,192,74057,1,0,0:0:0:0:
109,192,74057,1,0,0:0:0:0:
329,192,74057,1,0,0:0:0:0:
182,192,74228,1,0,0:0:0:0:
329,192,74400,1,0,0:0:0:0:
402,192,74400,1,0,0:0:0:0:
475,192,74400,1,0,0:0:0:0:
109,192,74571,1,0,0:0:0:0:
329,192,74571,1,0,0:0:0:0:
475,192,74571,1,0,0:0:0:0:
182,192,74742,1,0,0:0:0:0:
329,192,74914,1,0,0:0:0:0:
256,192,75085,1,0,0:0:0:0:
36,192,75085,1,0,0:0:0:0:
109,192,75085,1,0,0:0:0:0:
402,192,75085,1,0,0:0:0:0:
182,192,75257,1,0,0:0:0:0:
475,192,75257,1,0,0:0:0:0:
402,192,75257,1,0,0:0:0:0:
256,192,75428,1,0,0:0:0:0:
402,192,75428,1,0,0:0:0:0:
475,192,75428,1,0,0:0:0:0:
109,192,75600,1,0,0:0:0:0:
36,192,75771,1,0,0:0:0:0:
182,192,75771,1,0,0:0:0:0:
256,192,75771,1,0,0:0:0:0:
329,192,75771,1,0,0:0:0:0:
475,192,75942,1,0,0:0:0:0:
256,192,75942,1,0,0:0:0:0:
402,192,75942,1,0,0:0:0:0:
402,192,76114,1,0,0:0:0:0:
109,192,76114,1,0,0:0:0:0:
475,192,76114,1,0,0:0:0:0:
182,192,76285,1,0,0:0:0:0:
329,192,76457,1,0,0:0:0:0:
36,192,76457,1,0,0:0:0:0:
109,192,76457,1,0,0:0:0:0:
256,192,76628,1,0,0:0:0:0:
402,192,76628,1,0,0:0:0:0:
475,192,76628,1,0,0:0:0:0:
182,192,76800,1,0,0:0:0:0:
329,192,76971,1,0,0:0:0:0:
182,192,76971,1,0,0:0:0:0:
329,192,77314,1,0,0:0:0:0:
475,192,77314,1,0,0:0:0:0:
182,192,77314,1,0,0:0:0:0:
329,192,77400,1,0,0:0:0:0:
475,192,77400,1,0,0:0:0:0:
109,192,77400,1,0,0:0:0:0:
329,192,77485,1,0,0:0:0:0:
475,192,77485,1,0,0:0:0:0:
36,192,77485,1,0,0:0:0:0:
109,192,77657,1,0,0:0:0:0:
402,192,77657,1,0,0:0:0:0:
256,192,77657,1,0,0:0:0:0:
36,192,77714,1,0,0:0:0:0:
475,192,77714,1,0,0:0:0:0:
109,192,77771,1,0,0:0:0:0:
402,192,77771,1,0,0:0:0:0:
182,192,77828,1,0,0:0:0:0:
329,192,77828,1,0,0:0:0:0:
36,192,78000,1,0,0:0:0:0:
256,192,78000,1,0,0:0:0:0:
475,192,78000,1,0,0:0:0:0:
402,192,78171,1,0,0:0:0:0:
475,192,78171,128,0,79542:0:0:0:0:
109,192,78171,128,0,78514:0:0:0:0:
329,192,78514,1,0,0:0:0:0:
182,192,78514,1,0,0:0:0:0:
36,192,78514,1,0,0:0:0:0:
36,192,78857,128,0,79114:0:0:0:0:
182,192,78857,128,0,79114:0:0:0:0:
109,192,79114,128,0,79371:0:0:0:0:
256,192,79114,1,0,0:0:0:0:
182,192,79371,1,0,0:0:0:0:
256,192,79371,1,0,0:0:0:0:
329,192,79542,128,0,80914:0:0:0:0:
109,192,79542,1,0,0:0:0:0:
36,192,79714,128,0,79885:0:0:0:0:
182,192,79714,128,0,79885:0:0:0:0:
36,192,80057,128,0,80228:0:0:0:0:
256,192,80057,128,0,80228:0:0:0:0:
109,192,80400,128,0,80571:0:0:0:0:
475,192,80400,128,0,80571:0:0:0:0:
182,192,80571,128,0,80742:0:0:0:0:
402,192,80571,128,0,80742:0:0:0:0:
256,192,80742,1,0,0:0:0:0:
36,192,80742,1,0,0:0:0:0:
475,192,80742,1,0,0:0:0:0:
182,192,80914,128,0,82285:0:0:0:0:
256,192,80914,1,0,0:0:0:0:
109,192,80914,1,0,0:0:0:0:
402,192,80914,1,0,0:0:0:0:
402,192,81257,1,0,0:0:0:0:
109,192,81257,1,0,0:0:0:0:
256,192,81600,128,0,81771:0:0:0:0:
36,192,81600,128,0,81771:0:0:0:0:
402,192,81771,128,0,81942:0:0:0:0:
109,192,81771,128,0,81942:0:0:0:0:
329,192,81771,1,0,0:0:0:0:
329,192,81942,128,0,82114:0:0:0:0:
36,192,81942,128,0,82114:0:0:0:0:
475,192,81942,1,0,0:0:0:0:
475,192,82114,128,0,82285:0:0:0:0:
109,192,82114,128,0,82285:0:0:0:0:
36,192,82285,128,0,83657:0:0:0:0:
329,192,82285,1,0,0:0:0:0:
256,192,82457,128,0,82628:0:0:0:0:
475,192,82457,128,0,82628:0:0:0:0:
329,192,82457,1,0,0:0:0:0:
182,192,82628,1,0,0:0:0:0:
329,192,82800,128,0,82971:0:0:0:0:
402,192,82800,128,0,82971:0:0:0:0:
256,192,83142,128,0,83485:0:0:0:0:
402,192,83142,128,0,83485:0:0:0:0:
182,192,83485,128,0,83657:0:0:0:0:
329,192,83485,1,0,0:0:0:0:
256,192,83657,1,0,0:0:0:0:
475,192,83657,1,0,0:0:0:0:
109,192,83657,1,0,0:0:0:0:
109,192,83914,1,0,0:0:0:0:
182,192,83914,1,0,0:0:0:0:
402,192,83914,1,0,0:0:0:0:
475,192,83914,1,0,0:0:0:0:
36,192,83914,1,0,0:0:0:0:
36,192,84171,1,0,0:0:0:0:
256,192,84171,1,0,0:0:0:0:
329,192,84171,1,0,0:0:0:0:
402,192,84171,1,0,0:0:0:0:
475,192,84171,1,0,0:0:0:0:
182,192,84342,1,0,0:0:0:0:
402,192,84342,1,0,0:0:0:0:
109,192,84428,1,0,0:0:0:0:
329,192,84428,1,0,0:0:0:0:
36,192,84514,1,0,0:0:0:0:
256,192,84514,1,0,0:0:0:0:
329,192,84600,1,0,0:0:0:0:
182,192,84600,1,0,0:0:0:0:
402,192,84685,1,0,0:0:0:0:
109,192,84685,1,0,0:0:0:0:
475,192,84771,1,0,0:0:0:0:
36,192,84771,1,0,0:0:0:0:
402,192,84857,1,0,0:0:0:0:
109,192,84857,1,0,0:0:0:0:
329,192,84942,1,0,0:0:0:0:
182,192,84942,1,0,0:0:0:0:
256,192,85028,1,0,0:0:0:0:
36,192,85028,1,0,0:0:0:0:
109,192,85028,1,0,0:0:0:0:
402,192,85028,1,0,0:0:0:0:
475,192,85028,1,0,0:0:0:0:
36,192,85285,1,0,0:0:0:0:
182,192,85285,1,0,0:0:0:0:
256,192,85285,1,0,0:0:0:0:
329,192,85285,1,0,0:0:0:0:
475,192,85285,1,0,0:0:0:0:
36,192,85542,1,0,0:0:0:0:
109,192,85542,1,0,0:0:0:0:
256,192,85542,1,0,0:0:0:0:
402,192,85542,1,0,0:0:0:0:
475,192,85542,1,0,0:0:0:0:
329,192,85714,1,0,0:0:0:0:
109,192,85714,1,0,0:0:0:0:
402,192,85800,1,0,0:0:0:0:
182,192,85800,1,0,0:0:0:0:
36,192,85885,1,0,0:0:0:0:
475,192,85885,1,0,0:0:0:0:
256,192,85885,1,0,0:0:0:0:
109,192,85971,1,0,0:0:0:0:
402,192,85971,1,0,0:0:0:0:
182,192,86057,1,0,0:0:0:0:
329,192,86057,1,0,0:0:0:0:
256,192,86142,1,0,0:0:0:0:
182,192,86228,1,0,0:0:0:0:
329,192,86228,1,0,0:0:0:0:
109,192,86314,1,0,0:0:0:0:
402,192,86314,1,0,0:0:0:0:
36,192,86400,1,0,0:0:0:0:
475,192,86400,1,0,0:0:0:0:
256,192,86400,1,0,0:0:0:0:
109,192,86657,1,0,0:0:0:0:
182,192,86657,1,0,0:0:0:0:
256,192,86657,128,0,86828:0:0:0:0:
402,192,86828,1,0,0:0:0:0:
329,192,86828,1,0,0:0:0:0:
36,192,87085,1,0,0:0:0:0:
256,192,87085,1,0,0:0:0:0:
475,192,87085,1,0,0:0:0:0:
329,192,87342,1,0,0:0:0:0:
402,192,87342,1,0,0:0:0:0:
256,192,87342,128,0,87514:0:0:0:0:
182,192,87514,1,0,0:0:0:0:
109,192,87514,1,0,0:0:0:0:
36,192,87771,128,0,88285:0:0:0:0:
475,192,87771,128,0,88285:0:0:0:0:
36,192,88457,1,0,0:0:0:0:
109,192,88457,1,0,0:0:0:0:
256,192,88457,1,0,0:0:0:0:
402,192,88457,1,0,0:0:0:0:
475,192,88457,1,0,0:0:0:0:
36,192,88628,1,0,0:0:0:0:
109,192,88628,1,0,0:0:0:0:
182,192,88628,1,0,0:0:0:0:
329,192,88628,1,0,0:0:0:0:
402,192,88628,1,0,0:0:0:0:
475,192,88628,1,0,0:0:0:0:
36,192,88800,1,0,0:0:0:0:
182,192,88800,1,0,0:0:0:0:
256,192,88800,1,0,0:0:0:0:
329,192,88800,1,0,0:0:0:0:
475,192,88800,1,0,0:0:0:0:
36,192,89142,128,0,89485:0:0:0:0:
475,192,89142,1,0,0:0:0:0:
256,192,89142,1,0,0:0:0:0:
109,192,89485,1,0,0:0:0:0:
402,192,89485,1,0,0:0:0:0:
329,192,89657,1,0,0:0:0:0:
402,192,89828,1,0,0:0:0:0:
256,192,89828,1,0,0:0:0:0:
36,192,89828,1,0,0:0:0:0:
182,192,90000,1,0,0:0:0:0:
36,192,90171,1,0,0:0:0:0:
256,192,90171,1,0,0:0:0:0:
475,192,90171,1,0,0:0:0:0:
402,192,90342,128,0,90685:0:0:0:0:
182,192,90514,1,0,0:0:0:0:
475,192,90514,1,0,0:0:0:0:
36,192,90685,1,0,0:0:0:0:
475,192,90857,1,0,0:0:0:0:
329,192,90857,1,0,0:0:0:0:
109,192,90857,1,0,0:0:0:0:
182,192,91028,1,0,0:0:0:0:
36,192,91200,1,0,0:0:0:0:
109,192,91200,1,0,0:0:0:0:
329,192,91200,1,0,0:0:0:0:
256,192,91371,1,0,0:0:0:0:
36,192,91457,1,0,0:0:0:0:
475,192,91457,1,0,0:0:0:0:
109,192,91542,1,0,0:0:0:0:
402,192,91542,1,0,0:0:0:0:
256,192,91542,128,0,91885:0:0:0:0:
182,192,91885,1,0,0:0:0:0:
329,192,91885,1,0,0:0:0:0:
402,192,92228,1,0,0:0:0:0:
36,192,92228,1,0,0:0:0:0:
256,192,92228,1,0,0:0:0:0:
329,192,92400,1,0,0:0:0:0:
36,192,92571,1,0,0:0:0:0:
256,192,92571,128,0,92828:0:0:0:0:
402,192,92571,128,0,92828:0:0:0:0:
329,192,92828,128,0,93085:0:0:0:0:
182,192,92828,128,0,93085:0:0:0:0:
109,192,93085,1,0,0:0:0:0:
256,192,93085,1,0,0:0:0:0:
475,192,93257,1,0,0:0:0:0:
36,192,93257,1,0,0:0:0:0:
329,192,93428,128,0,93600:0:0:0:0:
475,192,93428,128,0,93600:0:0:0:0:
36,192,93428,128,0,93600:0:0:0:0:
256,192,93600,1,0,0:0:0:0:
402,192,93600,1,0,0:0:0:0:
256,192,93771,128,0,93942:0:0:0:0:
402,192,93771,128,0,93942:0:0:0:0:
36,192,93771,128,0,93942:0:0:0:0:
475,192,93942,1,0,0:0:0:0:
329,192,93942,1,0,0:0:0:0:
182,192,94114,128,0,94285:0:0:0:0:
36,192,94114,128,0,94285:0:0:0:0:
329,192,94114,128,0,94285:0:0:0:0:
256,192,94285,1,0,0:0:0:0:
402,192,94285,1,0,0:0:0:0:
256,192,94457,128,0,94628:0:0:0:0:
402,192,94457,128,0,94628:0:0:0:0:
36,192,94457,128,0,94628:0:0:0:0:
182,192,94628,1,0,0:0:0:0:
329,192,94628,1,0,0:0:0:0:
109,192,94800,1,0,0:0:0:0:
329,192,94971,1,0,0:0:0:0:
475,192,94971,1,0,0:0:0:0:
182,192,94971,1,0,0:0:0:0:
256,192,95142,1,0,0:0:0:0:
182,192,95314,1,0,0:0:0:0:
402,192,95314,1,0,0:0:0:0:
329,192,95485,1,0,0:0:0:0:
256,192,95657,1,0,0:0:0:0:
402,192,95657,1,0,0:0:0:0:
36,192,95657,1,0,0:0:0:0:
109,192,95828,128,0,96171:0:0:0:0:
475,192,96000,1,0,0:0:0:0:
329,192,96000,1,0,0:0:0:0:
36,192,96000,1,0,0:0:0:0:
402,192,96171,128,0,96342:0:0:0:0:
329,192,96342,1,0,0:0:0:0:
256,192,96342,128,0,96514:0:0:0:0:
475,192,96342,1,0,0:0:0:0:
109,192,96514,128,0,96685:0:0:0:0:
36,192,96685,1,0,0:0:0:0:
182,192,96685,1,0,0:0:0:0:
402,192,96857,128,0,97028:0:0:0:0:
36,192,97028,1,0,0:0:0:0:
256,192,97028,1,0,0:0:0:0:
329,192,97028,128,0,97200:0:0:0:0:
109,192,97200,1,0,0:0:0:0:
402,192,97200,1,0,0:0:0:0:
36,192,97371,1,0,0:0:0:0:
402,192,97371,128,0,97542:0:0:0:0:
256,192,97371,128,0,97542:0:0:0:0:
475,192,97714,1,0,0:0:0:0:
402,192,97714,128,0,97885:0:0:0:0:
109,192,97714,128,0,97885:0:0:0:0:
402,192,98057,128,0,98228:0:0:0:0:
36,192,98057,1,0,0:0:0:0:
109,192,98057,128,0,98228:0:0:0:0:
329,192,98228,1,0,0:0:0:0:
329,192,98400,1,0,0:0:0:0:
256,192,98400,1,0,0:0:0:0:
109,192,98400,1,0,0:0:0:0:
402,192,98571,1,0,0:0:0:0:
256,192,98571,1,0,0:0:0:0:
36,192,98914,1,0,0:0:0:0:
475,192,98914,1,0,0:0:0:0:
256,192,98914,1,0,0:0:0:0:
402,192,98914,1,0,0:0:0:0:
402,192,99257,1,0,0:0:0:0:
182,192,99257,1,0,0:0:0:0:
475,192,99257,1,0,0:0:0:0:
36,192,99428,1,0,0:0:0:0:
475,192,99428,1,0,0:0:0:0:
109,192,99471,1,0,0:0:0:0:
402,192,99471,1,0,0:0:0:0:
182,192,99514,1,0,0:0:0:0:
329,192,99514,1,0,0:0:0:0:
256,192,99557,1,0,0:0:0:0:
329,192,99600,1,0,0:0:0:0:
182,192,99600,1,0,0:0:0:0:
256,192,99642,1,0,0:0:0:0:
182,192,99685,1,0,0:0:0:0:
329,192,99685,1,0,0:0:0:0:
109,192,99728,1,0,0:0:0:0:
402,192,99728,1,0,0:0:0:0:
36,192,99771,1,0,0:0:0:0:
475,192,99771,1,0,0:0:0:0:
182,192,99942,5,0,0:0:0:0:
329,192,99942,1,0,0:0:0:0:
36,192,100114,1,0,0:0:0:0:
329,192,100114,1,0,0:0:0:0:
475,192,100114,1,0,0:0:0:0:
109,192,100285,1,0,0:0:0:0:
402,192,100285,1,0,0:0:0:0:
182,192,100371,1,0,0:0:0:0:
329,192,100371,1,0,0:0:0:0:
36,192,100457,1,0,0:0:0:0:
475,192,100457,1,0,0:0:0:0:
109,192,100542,1,0,0:0:0:0:
402,192,100542,1,0,0:0:0:0:
182,192,100628,1,0,0:0:0:0:
329,192,100628,1,0,0:0:0:0:
109,192,100714,1,0,0:0:0:0:
402,192,100714,1,0,0:0:0:0:
36,192,100800,1,0,0:0:0:0:
475,192,100800,1,0,0:0:0:0:
256,192,100800,1,0,0:0:0:0:
109,192,100971,1,0,0:0:0:0:
182,192,100971,1,0,0:0:0:0:
329,192,100971,1,0,0:0:0:0:
402,192,100971,1,0,0:0:0:0:
36,192,101142,1,0,0:0:0:0:
475,192,101142,1,0,0:0:0:0:
256,192,101142,1,0,0:0:0:0:
109,192,101314,1,0,0:0:0:0:
182,192,101314,1,0,0:0:0:0:
329,192,101314,1,0,0:0:0:0:
402,192,101314,1,0,0:0:0:0:
182,192,101657,128,0,101828:0:0:0:0:
329,192,101657,128,0,101828:0:0:0:0:
36,192,101657,1,0,0:0:0:0:
109,192,101657,1,0,0:0:0:0:
402,192,101657,1,0,0:0:0:0:
475,192,101657,1,0,0:0:0:0:
109,192,102000,128,0,102171:0:0:0:0:
402,192,102000,128,0,102171:0:0:0:0:
36,192,102000,1,0,0:0:0:0:
182,192,102000,1,0,0:0:0:0:
329,192,102000,1,0,0:0:0:0:
475,192,102000,1,0,0:0:0:0:
36,192,102342,1,0,0:0:0:0:
475,192,102342,1,0,0:0:0:0:
109,192,102428,1,0,0:0:0:0:
402,192,102428,1,0,0:0:0:0:
256,192,102514,1,0,0:0:0:0:
36,192,102514,128,0,102857:0:0:0:0:
475,192,102514,128,0,102857:0:0:0:0:
256,192,102857,1,0,0:0:0:0:
402,192,102857,1,0,0:0:0:0:
109,192,103028,1,0,0:0:0:0:
402,192,103028,1,0,0:0:0:0:
256,192,103114,1,0,0:0:0:0:
36,192,103200,1,0,0:0:0:0:
475,192,103200,1,0,0:0:0:0:
109,192,103542,128,0,103885:0:0:0:0:
329,192,103542,128,0,103885:0:0:0:0:
402,192,103542,1,0,0:0:0:0:
475,192,103542,1,0,0:0:0:0:
402,192,103885,1,0,0:0:0:0:
182,192,103885,1,0,0:0:0:0:
36,192,103885,1,0,0:0:0:0:
256,192,104057,128,0,104228:0:0:0:0:
109,192,104057,1,0,0:0:0:0:
36,192,104057,1,0,0:0:0:0:
402,192,104057,1,0,0:0:0:0:
475,192,104057,1,0,0:0:0:0:
182,192,104400,128,0,104571:0:0:0:0:
329,192,104400,128,0,104571:0:0:0:0:
36,192,104400,1,0,0:0:0:0:
256,192,104400,1,0,0:0:0:0:
475,192,104400,1,0,0:0:0:0:
109,192,104742,128,0,104914:0:0:0:0:
256,192,104742,128,0,104914:0:0:0:0:
182,192,104914,1,0,0:0:0:0:
36,192,104914,1,0,0:0:0:0:
329,192,105000,1,0,0:0:0:0:
256,192,105085,1,0,0:0:0:0:
182,192,105171,1,0,0:0:0:0:
109,192,105257,1,0,0:0:0:0:
402,192,105257,1,0,0:0:0:0:
109,192,105428,1,0,0:0:0:0:
402,192,105428,1,0,0:0:0:0:
109,192,105600,1,0,0:0:0:0:
475,192,105600,1,0,0:0:0:0:
402,192,105600,1,0,0:0:0:0:
256,192,105600,1,0,0:0:0:0:
256,192,105771,1,0,0:0:0:0:
109,192,105771,1,0,0:0:0:0:
109,192,105942,1,0,0:0:0:0:
475,192,105942,1,0,0:0:0:0:
256,192,105942,1,0,0:0:0:0:
109,192,106114,1,0,0:0:0:0:
256,192,106114,1,0,0:0:0:0:
402,192,106114,1,0,0:0:0:0:
109,192,106285,1,0,0:0:0:0:
329,192,106285,1,0,0:0:0:0:
256,192,106285,1,0,0:0:0:0:
256,192,106457,1,0,0:0:0:0:
109,192,106457,1,0,0:0:0:0:
475,192,106457,1,0,0:0:0:0:
109,192,106628,1,0,0:0:0:0:
256,192,106628,1,0,0:0:0:0:
402,192,106628,1,0,0:0:0:0:
475,192,106800,128,0,107142:0:0:0:0:
109,192,106800,1,0,0:0:0:0:
256,192,106800,1,0,0:0:0:0:
182,192,106885,1,0,0:0:0:0:
109,192,106971,1,0,0:0:0:0:
256,192,106971,1,0,0:0:0:0:
36,192,107142,1,0,0:0:0:0:
402,192,107142,1,0,0:0:0:0:
256,192,107142,1,0,0:0:0:0:
402,192,107314,1,0,0:0:0:0:
256,192,107314,1,0,0:0:0:0:
109,192,107314,1,0,0:0:0:0:
402,192,107485,1,0,0:0:0:0:
36,192,107485,128,0,107828:0:0:0:0:
256,192,107485,1,0,0:0:0:0:
256,192,107657,1,0,0:0:0:0:
402,192,107657,1,0,0:0:0:0:
329,192,107742,1,0,0:0:0:0:
402,192,107828,1,0,0:0:0:0:
109,192,107828,128,0,108000:0:0:0:0:
256,192,107828,1,0,0:0:0:0:
256,192,108000,1,0,0:0:0:0:
402,192,108000,1,0,0:0:0:0:
36,192,108000,128,0,108171:0:0:0:0:
329,192,108085,1,0,0:0:0:0:
256,192,108171,1,0,0:0:0:0:
109,192,108171,1,0,0:0:0:0:
402,192,108171,1,0,0:0:0:0:
329,192,108257,1,0,0:0:0:0:
109,192,108342,1,0,0:0:0:0:
256,192,108342,1,0,0:0:0:0:
402,192,108342,1,0,0:0:0:0:
36,192,108428,1,0,0:0:0:0:
475,192,108428,1,0,0:0:0:0:
182,192,108514,1,0,0:0:0:0:
402,192,108514,1,0,0:0:0:0:
36,192,108600,1,0,0:0:0:0:
475,192,108600,1,0,0:0:0:0:
182,192,108685,1,0,0:0:0:0:
402,192,108685,1,0,0:0:0:0:
475,192,108771,1,0,0:0:0:0:
36,192,108771,1,0,0:0:0:0:
402,192,108857,1,0,0:0:0:0:
182,192,108857,1,0,0:0:0:0:
475,192,108942,1,0,0:0:0:0:
36,192,108942,1,0,0:0:0:0:
109,192,109028,1,0,0:0:0:0:
329,192,109028,1,0,0:0:0:0:
36,192,109114,1,0,0:0:0:0:
475,192,109114,1,0,0:0:0:0:
109,192,109200,1,0,0:0:0:0:
329,192,109200,1,0,0:0:0:0:
36,192,109285,1,0,0:0:0:0:
475,192,109285,1,0,0:0:0:0:
109,192,109371,1,0,0:0:0:0:
329,192,109371,1,0,0:0:0:0:
36,192,109457,1,0,0:0:0:0:
475,192,109457,1,0,0:0:0:0:
109,192,109542,1,0,0:0:0:0:
329,192,109542,1,0,0:0:0:0:
256,192,109542,128,0,109714:0:0:0:0:
36,192,109628,1,0,0:0:0:0:
475,192,109628,1,0,0:0:0:0:
109,192,109714,1,0,0:0:0:0:
329,192,109714,1,0,0:0:0:0:
329,192,109885,1,0,0:0:0:0:
402,192,109885,1,0,0:0:0:0:
109,192,109885,1,0,0:0:0:0:
182,192,109885,1,0,0:0:0:0:
256,192,109885,128,0,110057:0:0:0:0:
256,192,110228,128,0,110400:0:0:0:0:
36,192,110228,1,0,0:0:0:0:
109,192,110228,1,0,0:0:0:0:
402,192,110228,1,0,0:0:0:0:
475,192,110228,1,0,0:0:0:0:
329,192,110400,128,0,110571:0:0:0:0:
475,192,110400,128,0,110571:0:0:0:0:
402,192,110571,128,0,110742:0:0:0:0:
109,192,110742,128,0,110914:0:0:0:0:
36,192,110914,128,0,111085:0:0:0:0:
182,192,110914,128,0,111085:0:0:0:0:
475,192,111428,128,0,113828:0:0:0:0:
36,192,111428,1,0,0:0:0:0:
109,192,111428,1,0,0:0:0:0:
182,192,111428,1,0,0:0:0:0:
256,192,111428,1,0,0:0:0:0:
36,192,113142,128,0,113828:0:0:0:0:
109,192,113228,128,0,113742:0:0:0:0:
182,192,113314,128,0,113657:0:0:0:0:
256,192,113400,128,0,113571:0:0:0:0:
329,192,113485,1,0,0:0:0:0:
329,192,113828,1,0,0:0:0:0:
402,192,113828,1,0,0:0:0:0:
