osu file format v13

[General]
AudioFilename: candyglass.mp3
AudioLeadIn: 0
PreviewTime: 76800
Countdown: 0
SampleSet: Normal
StackLeniency: 0.7
Mode: 3
LetterboxInBreaks: 0
SpecialStyle: 0
WidescreenStoryboard: 1

[Editor]
DistanceSpacing: 0.8
BeatDivisor: 4
GridSize: 4
TimelineZoom: 1.3

[Metadata]
Title:candy*glass
TitleUnicode:candy*glass
Artist:Shiron
ArtistUnicode:Shiron
Creator:-Sandy Corzeta-
Version:7K CHALLENGE
Source:K-Shoot MANIA
Tags:Candy Rave Happy Core
BeatmapID:551859
BeatmapSetID:238620

[Difficulty]
HPDrainRate:7
CircleSize:7
OverallDifficulty:8
ApproachRate:5
SliderMultiplier:1.4
SliderTickRate:1

[Events]
//Background and Video events
0,0,"Konachan.com - 179891 blue_hair blush boots cake chocolate glasses gloves original scarf sekiyu-mngk skirt thighhighs valentine.jpg",0,0
//Break Periods
//Storyboard Layer 0 (Background)
//Storyboard Layer 1 (Fail)
//Storyboard Layer 2 (Pass)
//Storyboard Layer 3 (Foreground)
//Storyboard Sound Samples

[TimingPoints]
0,342.857142857143,4,1,0,8,1,0

[HitObjects]
36,192,685,5,0,0:0:0:0:
109,192,771,1,0,0:0:0:0:
182,192,857,1,0,0:0:0:0:
256,192,942,1,0,0:0:0:0:
329,192,1028,1,0,0:0:0:0:
402,192,1114,1,0,0:0:0:0:
475,192,1200,1,0,0:0:0:0:
402,192,1285,1,0,0:0:0:0:
329,192,1371,1,0,0:0:0:0:
402,192,1542,1,0,0:0:0:0:
109,192,1714,1,0,0:0:0:0:
329,192,1885,1,0,0:0:0:0:
256,192,2057,1,0,0:0:0:0:
182,192,2228,1,0,0:0:0:0:
402,192,2400,1,0,0:0:0:0:
109,192,2571,1,0,0:0:0:0:
256,192,2742,1,0,0:0:0:0:
475,192,2914,1,0,0:0:0:0:
402,192,3085,1,0,0:0:0:0:
36,192,3257,1,0,0:0:0:0:
109,192,3428,1,0,0:0:0:0:
402,192,3600,1,0,0:0:0:0:
329,192,3771,1,0,0:0:0:0:
109,192,3942,1,0,0:0:0:0:
182,192,4114,1,0,0:0:0:0:
475,192,4285,1,0,0:0:0:0:
329,192,4457,1,0,0:0:0:0:
36,192,4628,1,0,0:0:0:0:
182,192,4800,1,0,0:0:0:0:
329,192,4971,1,0,0:0:0:0:
402,192,5142,1,0,0:0:0:0:
182,192,5314,1,0,0:0:0:0:
109,192,5485,1,0,0:0:0:0:
256,192,5657,1,0,0:0:0:0:
329,192,5828,1,0,0:0:0:0:
402,192,6000,1,0,0:0:0:0:
329,192,6171,1,0,0:0:0:0:
256,192,6342,1,0,0:0:0:0:
182,192,6514,1,0,0:0:0:0:
109,192,6685,1,0,0:0:0:0:
182,192,6857,1,0,0:0:0:0:
256,192,7028,1,0,0:0:0:0:
182,192,7200,1,0,0:0:0:0:
329,192,7371,1,0,0:0:0:0:
256,192,7542,1,0,0:0:0:0:
109,192,7714,1,0,0:0:0:0:
256,192,7885,1,0,0:0:0:0:
402,192,8057,1,0,0:0:0:0:
256,192,8228,1,0,0:0:0:0:
109,192,8400,1,0,0:0:0:0:
256,192,8571,1,0,0:0:0:0:
402,192,8742,1,0,0:0:0:0:
329,192,8914,1,0,0:0:0:0:
182,192,9085,1,0,0:0:0:0:
109,192,9257,1,0,0:0:0:0:
256,192,9428,1,0,0:0:0:0:
402,192,9600,1,0,0:0:0:0:
36,192,9771,1,0,0:0:0:0:
182,192,9942,1,0,0:0:0:0:
475,192,10114,1,0,0:0:0:0:
36,192,10114,128,0,10628:0:0:0:0:
329,192,10285,1,0,0:0:0:0:
402,192,10457,1,0,0:0:0:0:
256,192,10628,1,0,0:0:0:0:
109,192,10800,1,0,0:0:0:0:
402,192,10800,1,0,0:0:0:0:
182,192,11142,1,0,0:0:0:0:
329,192,11142,1,0,0:0:0:0:
256,192,11485,1,0,0:0:0:0:
109,192,12000,1,0,0:0:0:0:
402,192,12000,1,0,0:0:0:0:
256,192,12000,128,0,12342:0:0:0:0:
36,192,12342,1,0,0:0:0:0:
402,192,12342,128,0,12685:0:0:0:0:
182,192,12857,1,0,0:0:0:0:
329,192,13028,1,0,0:0:0:0:
109,192,13200,1,0,0:0:0:0:
402,192,13371,1,0,0:0:0:0:
256,192,13542,1,0,0:0:0:0:
109,192,13714,128,0,14057:0:0:0:0:
402,192,14228,1,0,0:0:0:0:
182,192,14400,1,0,0:0:0:0:
475,192,14571,1,0,0:0:0:0:
36,192,14742,1,0,0:0:0:0:
475,192,14914,1,0,0:0:0:0:
256,192,15085,1,0,0:0:0:0:
182,192,15085,128,0,15428:0:0:0:0:
109,192,15600,1,0,0:0:0:0:
402,192,15600,1,0,0:0:0:0:
109,192,15771,1,0,0:0:0:0:
402,192,15771,1,0,0:0:0:0:
329,192,15942,1,0,0:0:0:0:
256,192,16114,1,0,0:0:0:0:
182,192,16285,1,0,0:0:0:0:
256,192,16457,128,0,16800:0:0:0:0:
329,192,16457,1,0,0:0:0:0:
109,192,16971,1,0,0:0:0:0:
402,192,16971,1,0,0:0:0:0:
182,192,17142,1,0,0:0:0:0:
329,192,17142,1,0,0:0:0:0:
256,192,17228,1,0,0:0:0:0:
182,192,17314,1,0,0:0:0:0:
329,192,17314,1,0,0:0:0:0:
256,192,17400,1,0,0:0:0:0:
182,192,17485,1,0,0:0:0:0:
329,192,17485,1,0,0:0:0:0:
109,192,17657,1,0,0:0:0:0:
402,192,17657,1,0,0:0:0:0:
36,192,17828,1,0,0:0:0:0:
475,192,17828,1,0,0:0:0:0:
109,192,18171,1,0,0:0:0:0:
402,192,18171,1,0,0:0:0:0:
256,192,18514,1,0,0:0:0:0:
36,192,18857,1,0,0:0:0:0:
475,192,18857,1,0,0:0:0:0:
109,192,19200,1,0,0:0:0:0:
402,192,19200,128,0,19542:0:0:0:0:
329,192,19542,128,0,19885:0:0:0:0:
182,192,19885,128,0,20228:0:0:0:0:
109,192,20228,128,0,20571:0:0:0:0:
475,192,20571,128,0,21942:0:0:0:0:
182,192,20657,1,0,0:0:0:0:
256,192,20742,1,0,0:0:0:0:
329,192,20828,1,0,0:0:0:0:
402,192,20914,1,0,0:0:0:0:
329,192,21000,1,0,0:0:0:0:
256,192,21085,1,0,0:0:0:0:
182,192,21171,1,0,0:0:0:0:
109,192,21257,1,0,0:0:0:0:
36,192,21342,1,0,0:0:0:0:
109,192,21428,1,0,0:0:0:0:
182,192,21514,1,0,0:0:0:0:
256,192,21600,1,0,0:0:0:0:
329,192,21685,1,0,0:0:0:0:
402,192,21771,1,0,0:0:0:0:
329,192,21857,1,0,0:0:0:0:
256,192,21942,1,0,0:0:0:0:
36,192,21942,128,0,22457:0:0:0:0:
182,192,22628,1,0,0:0:0:0:
402,192,22628,1,0,0:0:0:0:
182,192,22800,1,0,0:0:0:0:
402,192,22800,1,0,0:0:0:0:
182,192,22971,128,0,23314:0:0:0:0:
402,192,22971,128,0,23314:0:0:0:0:
109,192,23314,1,0,0:0:0:0:
475,192,23314,1,0,0:0:0:0:
329,192,23657,1,0,0:0:0:0:
256,192,23828,1,0,0:0:0:0:
182,192,24000,1,0,0:0:0:0:
402,192,24171,1,0,0:0:0:0:
182,192,24342,1,0,0:0:0:0:
329,192,24514,128,0,24857:0:0:0:0:
36,192,24514,1,0,0:0:0:0:
475,192,24857,1,0,0:0:0:0:
402,192,25028,1,0,0:0:0:0:
329,192,25200,1,0,0:0:0:0:
256,192,25542,1,0,0:0:0:0:
329,192,25628,1,0,0:0:0:0:
182,192,25628,1,0,0:0:0:0:
402,192,25714,1,0,0:0:0:0:
109,192,25714,1,0,0:0:0:0:
109,192,26057,1,0,0:0:0:0:
402,192,26057,1,0,0:0:0:0:
256,192,26400,1,0,0:0:0:0:
256,192,26571,1,0,0:0:0:0:
402,192,26742,128,0,27000:0:0:0:0:
256,192,27000,128,0,27257:0:0:0:0:
109,192,27257,128,0,27600:0:0:0:0:
256,192,27600,1,0,0:0:0:0:
475,192,27600,1,0,0:0:0:0:
256,192,27942,1,0,0:0:0:0:
475,192,27942,1,0,0:0:0:0:
182,192,28285,1,0,0:0:0:0:
402,192,28285,1,0,0:0:0:0:
256,192,28628,128,0,28800:0:0:0:0:
36,192,28800,1,0,0:0:0:0:
475,192,28800,1,0,0:0:0:0:
109,192,29142,1,0,0:0:0:0:
182,192,29314,1,0,0:0:0:0:
256,192,29485,1,0,0:0:0:0:
109,192,29657,1,0,0:0:0:0:
402,192,29828,1,0,0:0:0:0:
256,192,30000,128,0,30342:0:0:0:0:
182,192,30342,1,0,0:0:0:0:
329,192,30514,1,0,0:0:0:0:
182,192,30685,128,0,31028:0:0:0:0:
402,192,31028,1,0,0:0:0:0:
329,192,31200,1,0,0:0:0:0:
256,192,31371,1,0,0:0:0:0:
182,192,31542,1,0,0:0:0:0:
402,192,31542,128,0,31714:0:0:0:0:
256,192,31885,1,0,0:0:0:0:
475,192,31885,128,0,32057:0:0:0:0:
182,192,32228,128,0,32400:0:0:0:0:
36,192,32228,1,0,0:0:0:0:
256,192,32400,1,0,0:0:0:0:
329,192,32571,1,0,0:0:0:0:
402,192,32742,128,0,33085:0:0:0:0:
109,192,33085,1,0,0:0:0:0:
256,192,33085,1,0,0:0:0:0:
182,192,33428,1,0,0:0:0:0:
329,192,33428,1,0,0:0:0:0:
36,192,33600,1,0,0:0:0:0:
475,192,33600,128,0,33942:0:0:0:0:
109,192,33642,1,0,0:0:0:0:
182,192,33685,1,0,0:0:0:0:
256,192,33728,1,0,0:0:0:0:
329,192,33771,1,0,0:0:0:0:
256,192,33814,1,0,0:0:0:0:
182,192,33857,1,0,0:0:0:0:
109,192,33900,1,0,0:0:0:0:
36,192,33942,1,0,0:0:0:0:
329,192,34114,1,0,0:0:0:0:
182,192,34285,1,0,0:0:0:0:
402,192,34628,1,0,0:0:0:0:
329,192,34800,1,0,0:0:0:0:
256,192,34971,1,0,0:0:0:0:
109,192,35142,1,0,0:0:0:0:
182,192,35314,1,0,0:0:0:0:
256,192,35485,128,0,35828:0:0:0:0:
182,192,35828,1,0,0:0:0:0:
329,192,36000,1,0,0:0:0:0:
109,192,36171,1,0,0:0:0:0:
256,192,36342,1,0,0:0:0:0:
475,192,36514,1,0,0:0:0:0:
256,192,36600,1,0,0:0:0:0:
36,192,36685,1,0,0:0:0:0:
182,192,37028,1,0,0:0:0:0:
329,192,37028,1,0,0:0:0:0:
256,192,37371,1,0,0:0:0:0:
109,192,37542,1,0,0:0:0:0:
402,192,37542,1,0,0:0:0:0:
256,192,37714,128,0,37971:0:0:0:0:
329,192,37971,1,0,0:0:0:0:
182,192,37971,128,0,38228:0:0:0:0:
109,192,38228,128,0,38400:0:0:0:0:
402,192,38228,128,0,38400:0:0:0:0:
182,192,38571,128,0,38742:0:0:0:0:
329,192,38571,128,0,38742:0:0:0:0:
36,192,38914,128,0,39085:0:0:0:0:
475,192,38914,128,0,39085:0:0:0:0:
182,192,39257,128,0,39428:0:0:0:0:
329,192,39257,128,0,39428:0:0:0:0:
109,192,39600,128,0,39771:0:0:0:0:
402,192,39600,128,0,39771:0:0:0:0:
402,192,40114,1,0,0:0:0:0:
182,192,40285,1,0,0:0:0:0:
329,192,40457,1,0,0:0:0:0:
109,192,40628,1,0,0:0:0:0:
256,192,40800,1,0,0:0:0:0:
402,192,40971,128,0,41314:0:0:0:0:
329,192,41314,1,0,0:0:0:0:
182,192,41485,1,0,0:0:0:0:
256,192,41657,128,0,42000:0:0:0:0:
329,192,42000,1,0,0:0:0:0:
402,192,42171,1,0,0:0:0:0:
475,192,42342,1,0,0:0:0:0:
182,192,42514,128,0,42857:0:0:0:0:
329,192,42857,128,0,43200:0:0:0:0:
109,192,43200,1,0,0:0:0:0:
402,192,43200,1,0,0:0:0:0:
256,192,43542,1,0,0:0:0:0:
182,192,43714,128,0,44057:0:0:0:0:
329,192,44057,1,0,0:0:0:0:
475,192,44057,1,0,0:0:0:0:
402,192,44400,1,0,0:0:0:0:
329,192,44571,1,0,0:0:0:0:
256,192,44742,1,0,0:0:0:0:
182,192,44914,1,0,0:0:0:0:
109,192,45085,1,0,0:0:0:0:
36,192,45257,1,0,0:0:0:0:
182,192,45257,1,0,0:0:0:0:
475,192,45257,128,0,48000:0:0:0:0:
109,192,45600,1,0,0:0:0:0:
36,192,45942,1,0,0:0:0:0:
182,192,45942,1,0,0:0:0:0:
109,192,46285,1,0,0:0:0:0:
36,192,46628,1,0,0:0:0:0:
182,192,46628,1,0,0:0:0:0:
256,192,46971,1,0,0:0:0:0:
182,192,47314,1,0,0:0:0:0:
329,192,47314,1,0,0:0:0:0:
256,192,47657,1,0,0:0:0:0:
36,192,48000,128,0,50742:0:0:0:0:
182,192,48000,1,0,0:0:0:0:
329,192,48000,1,0,0:0:0:0:
256,192,48342,1,0,0:0:0:0:
182,192,48685,1,0,0:0:0:0:
329,192,48685,1,0,0:0:0:0:
256,192,49028,1,0,0:0:0:0:
329,192,49371,1,0,0:0:0:0:
475,192,49371,1,0,0:0:0:0:
402,192,49714,1,0,0:0:0:0:
329,192,50057,1,0,0:0:0:0:
475,192,50057,1,0,0:0:0:0:
402,192,50400,1,0,0:0:0:0:
402,192,50571,1,0,0:0:0:0:
402,192,50742,128,0,53485:0:0:0:0:
329,192,50742,1,0,0:0:0:0:
475,192,50742,1,0,0:0:0:0:
182,192,51085,1,0,0:0:0:0:
109,192,51428,1,0,0:0:0:0:
256,192,51428,1,0,0:0:0:0:
182,192,51771,1,0,0:0:0:0:
109,192,52114,1,0,0:0:0:0:
256,192,52114,1,0,0:0:0:0:
182,192,52457,1,0,0:0:0:0:
109,192,52800,1,0,0:0:0:0:
256,192,52800,1,0,0:0:0:0:
109,192,53142,1,0,0:0:0:0:
256,192,53485,128,0,56228:0:0:0:0:
36,192,53485,1,0,0:0:0:0:
182,192,53485,1,0,0:0:0:0:
109,192,53828,1,0,0:0:0:0:
36,192,54171,1,0,0:0:0:0:
182,192,54171,1,0,0:0:0:0:
109,192,54514,1,0,0:0:0:0:
36,192,54857,1,0,0:0:0:0:
182,192,54857,1,0,0:0:0:0:
402,192,55200,1,0,0:0:0:0:
329,192,55542,1,0,0:0:0:0:
475,192,55542,1,0,0:0:0:0:
402,192,55885,1,0,0:0:0:0:
109,192,56228,128,0,58971:0:0:0:0:
329,192,56228,1,0,0:0:0:0:
475,192,56228,1,0,0:0:0:0:
402,192,56400,1,0,0:0:0:0:
475,192,56571,1,0,0:0:0:0:
329,192,56742,1,0,0:0:0:0:
475,192,56914,1,0,0:0:0:0:
256,192,57085,1,0,0:0:0:0:
475,192,57257,1,0,0:0:0:0:
182,192,57428,1,0,0:0:0:0:
475,192,57600,1,0,0:0:0:0:
256,192,57771,1,0,0:0:0:0:
475,192,57942,1,0,0:0:0:0:
329,192,58114,1,0,0:0:0:0:
475,192,58285,1,0,0:0:0:0:
402,192,58457,1,0,0:0:0:0:
475,192,58628,1,0,0:0:0:0:
402,192,58800,1,0,0:0:0:0:
475,192,58971,1,0,0:0:0:0:
36,192,58971,1,0,0:0:0:0:
329,192,58971,128,0,61714:0:0:0:0:
256,192,59142,1,0,0:0:0:0:
36,192,59314,1,0,0:0:0:0:
182,192,59485,1,0,0:0:0:0:
36,192,59657,1,0,0:0:0:0:
109,192,59828,1,0,0:0:0:0:
36,192,60000,1,0,0:0:0:0:
182,192,60171,1,0,0:0:0:0:
36,192,60342,1,0,0:0:0:0:
256,192,60514,1,0,0:0:0:0:
109,192,60685,128,0,61028:0:0:0:0:
475,192,60685,1,0,0:0:0:0:
182,192,61028,128,0,61371:0:0:0:0:
402,192,61028,1,0,0:0:0:0:
36,192,61371,128,0,61714:0:0:0:0:
475,192,61371,1,0,0:0:0:0:
109,192,61885,128,0,62057:0:0:0:0:
182,192,62228,128,0,62400:0:0:0:0:
256,192,62571,128,0,62742:0:0:0:0:
329,192,62914,128,0,63085:0:0:0:0:
402,192,63257,128,0,63428:0:0:0:0:
475,192,63600,128,0,63771:0:0:0:0:
36,192,63771,1,0,0:0:0:0:
182,192,63857,1,0,0:0:0:0:
36,192,63942,1,0,0:0:0:0:
182,192,64028,1,0,0:0:0:0:
109,192,64114,1,0,0:0:0:0:
402,192,64114,1,0,0:0:0:0:
329,192,64457,1,0,0:0:0:0:
475,192,64457,1,0,0:0:0:0:
256,192,64628,1,0,0:0:0:0:
402,192,64628,1,0,0:0:0:0:
182,192,64800,1,0,0:0:0:0:
329,192,64800,1,0,0:0:0:0:
109,192,64971,1,0,0:0:0:0:
256,192,64971,1,0,0:0:0:0:
402,192,65142,1,0,0:0:0:0:
402,192,65228,1,0,0:0:0:0:
329,192,65314,1,0,0:0:0:0:
329,192,65400,1,0,0:0:0:0:
256,192,65485,1,0,0:0:0:0:
256,192,65571,1,0,0:0:0:0:
182,192,65657,1,0,0:0:0:0:
182,192,65742,1,0,0:0:0:0:
109,192,65828,128,0,66514:0:0:0:0:
475,192,66171,128,0,66514:0:0:0:0:
182,192,66514,1,0,0:0:0:0:
402,192,66514,1,0,0:0:0:0:
182,192,66685,1,0,0:0:0:0:
402,192,66685,1,0,0:0:0:0:
256,192,66857,1,0,0:0:0:0:
36,192,66857,1,0,0:0:0:0:
475,192,66857,1,0,0:0:0:0:
109,192,67200,1,0,0:0:0:0:
182,192,67371,1,0,0:0:0:0:
256,192,67542,1,0,0:0:0:0:
475,192,67542,1,0,0:0:0:0:
329,192,67714,1,0,0:0:0:0:
109,192,67714,1,0,0:0:0:0:
182,192,67885,1,0,0:0:0:0:
109,192,68057,1,0,0:0:0:0:
402,192,68057,1,0,0:0:0:0:
329,192,68228,1,0,0:0:0:0:
36,192,68228,1,0,0:0:0:0:
256,192,68400,1,0,0:0:0:0:
182,192,68571,1,0,0:0:0:0:
402,192,68571,1,0,0:0:0:0:
256,192,68742,1,0,0:0:0:0:
329,192,68914,1,0,0:0:0:0:
36,192,68914,1,0,0:0:0:0:
402,192,69085,1,0,0:0:0:0:
109,192,69085,1,0,0:0:0:0:
256,192,69257,1,0,0:0:0:0:
329,192,69428,1,0,0:0:0:0:
256,192,69600,1,0,0:0:0:0:
475,192,69600,1,0,0:0:0:0:
182,192,69771,1,0,0:0:0:0:
109,192,69942,1,0,0:0:0:0:
182,192,70114,1,0,0:0:0:0:
256,192,70285,1,0,0:0:0:0:
475,192,70285,1,0,0:0:0:0:
329,192,70457,1,0,0:0:0:0:
109,192,70457,1,0,0:0:0:0:
402,192,70628,1,0,0:0:0:0:
329,192,70800,1,0,0:0:0:0:
256,192,70971,1,0,0:0:0:0:
475,192,70971,1,0,0:0:0:0:
182,192,71142,1,0,0:0:0:0:
256,192,71314,1,0,0:0:0:0:
329,192,71485,1,0,0:0:0:0:
402,192,71657,1,0,0:0:0:0:
182,192,71657,1,0,0:0:0:0:
329,192,71828,1,0,0:0:0:0:
109,192,71828,1,0,0:0:0:0:
402,192,72000,1,0,0:0:0:0:
329,192,72171,1,0,0:0:0:0:
109,192,72171,1,0,0:0:0:0:
256,192,72342,1,0,0:0:0:0:
402,192,72342,1,0,0:0:0:0:
182,192,72514,1,0,0:0:0:0:
475,192,72514,1,0,0:0:0:0:
109,192,72685,1,0,0:0:0:0:
475,192,72685,1,0,0:0:0:0:
