osu file format v14

[General]
AudioFilename: candyglass.mp3
AudioLeadIn: 0
PreviewTime: 23294
Countdown: 0
SampleSet: Soft
StackLeniency: 0.7
Mode: 3
LetterboxInBreaks: 0
SpecialStyle: 0
WidescreenStoryboard: 0

[Editor]
DistanceSpacing: 0.8
BeatDivisor: 4
GridSize: 4
TimelineZoom: 2

[Metadata]
Title:candy*glass
TitleUnicode:candy*glass
Artist:Shiron
ArtistUnicode:Shiron
Creator:[ kenon ]
Version:NOVICE Lv.8
Source:K-Shoot MANIA
Tags:Harbyter
BeatmapID:639159
BeatmapSetID:282673

[Difficulty]
HPDrainRate:7
CircleSize:4
OverallDifficulty:7
ApproachRate:5
SliderMultiplier:1.4
SliderTickRate:1

[Events]
//Background and Video events
0,0,"Bg.jpg",0,0
//Break Periods
//Storyboard Layer 0 (Background)
//Storyboard Layer 1 (Fail)
//Storyboard Layer 2 (Pass)
//Storyboard Layer 3 (Foreground)
//Storyboard Sound Samples

[TimingPoints]
1352,342.857142857143,4,2,1,10,1,0
23294,-100,4,2,1,10,0,1
45237,-100,4,2,1,10,0,0
89123,-100,4,2,1,10,0,1
111066,-100,4,2,1,10,0,0

[HitObjects]
36,192,666,5,2,0:0:0:0:
192,192,751,1,2,0:0:0:0:
320,192,837,1,2,0:0:0:0:
448,192,923,1,2,0:0:0:0:
64,192,1009,1,2,0:0:0:0:
192,192,1094,1,2,0:0:0:0:
320,192,1180,1,2,0:0:0:0:
448,192,1266,1,2,0:0:0:0:
192,192,1352,1,4,0:0:0:0:
64,192,1352,1,4,0:0:0:0:
448,192,1523,1,2,0:0:0:0:
192,192,1694,1,8,0:0:0:0:
320,192,1866,1,8,0:0:0:0:
64,192,2037,1,2,0:0:0:0:
182,192,2209,1,2,0:0:0:0:
320,192,2380,1,8,0:0:0:0:
192,192,2552,1,2,0:0:0:0:
448,192,2723,1,0,0:0:0:0:
320,192,2894,1,2,0:0:0:0:
192,192,3066,1,8,0:0:0:0:
64,192,3237,1,8,0:0:0:0:
320,192,3409,1,2,0:0:0:0:
192,192,3580,1,2,0:0:0:0:
448,192,3752,1,8,0:0:0:0:
320,192,3923,1,0,0:0:0:0:
64,192,3923,1,0,0:0:0:0:
192,192,4094,1,0,0:0:0:0:
448,192,4094,1,0,0:0:0:0:
320,192,4266,1,2,0:0:0:0:
192,192,4437,1,8,0:0:0:0:
36,192,4609,1,8,0:0:0:0:
320,192,4780,1,2,0:0:0:0:
192,192,4952,1,2,0:0:0:0:
64,192,5123,1,8,0:0:0:0:
320,192,5294,1,2,0:0:0:0:
448,192,5466,1,2,0:0:0:0:
192,192,5637,1,2,0:0:0:0:
329,192,5809,1,8,0:0:0:0:
402,192,5980,1,8,0:0:0:0:
192,192,6152,1,2,0:0:0:0:
320,192,6323,1,2,0:0:0:0:
64,192,6494,1,8,0:0:0:0:
192,192,6666,1,4,0:0:0:0:
320,192,6666,1,4,0:0:0:0:
448,192,6837,1,4,0:0:0:0:
64,192,6837,1,4,0:0:0:0:
320,192,7009,1,2,0:0:0:0:
182,192,7180,1,8,0:0:0:0:
329,192,7352,1,8,0:0:0:0:
448,192,7523,1,2,0:0:0:0:
64,192,7694,1,2,0:0:0:0:
320,192,7866,1,8,0:0:0:0:
192,192,8037,1,2,0:0:0:0:
448,192,8209,1,2,0:0:0:0:
320,192,8380,1,2,0:0:0:0:
192,192,8552,1,8,0:0:0:0:
64,192,8723,1,8,0:0:0:0:
329,192,8894,1,2,0:0:0:0:
182,192,9066,1,2,0:0:0:0:
64,192,9237,1,8,0:0:0:0:
256,192,9409,1,2,0:0:0:0:
448,192,9580,1,2,0:0:0:0:
320,192,9752,1,0,0:0:0:0:
182,192,9923,1,8,0:0:0:0:
475,192,10094,1,8,0:0:0:0:
36,192,10094,128,0,10609:0:0:0:0:
329,192,10266,1,0,0:0:0:0:
192,192,10437,1,0,0:0:0:0:
256,192,10609,1,8,0:0:0:0:
192,192,10780,1,4,0:0:0:0:
402,192,10780,1,4,0:0:0:0:
64,192,11123,1,4,0:0:0:0:
329,192,11123,1,4,0:0:0:0:
320,192,11466,1,4,0:0:0:0:
64,192,11466,1,4,0:0:0:0:
109,192,11980,1,0,0:0:0:0:
256,192,11980,128,4,12323:0:0:0:0:
402,192,12323,128,4,12666:0:0:0:0:
192,192,12323,1,0,0:0:0:0:
320,192,12666,1,8,0:0:0:0:
182,192,12837,1,8,0:0:0:0:
64,192,13009,1,0,0:0:0:0:
320,192,13180,1,0,0:0:0:0:
402,192,13352,1,8,0:0:0:0:
256,192,13523,1,0,0:0:0:0:
109,192,13694,128,0,14037:0:0:0:0:
192,192,13694,1,0,0:0:0:0:
320,192,14037,1,8,0:0:0:0:
402,192,14209,1,8,0:0:0:0:
182,192,14380,1,0,0:0:0:0:
475,192,14552,1,0,0:0:0:0:
36,192,14723,1,8,0:0:0:0:
475,192,14894,1,0,0:0:0:0:
64,192,15066,1,4,0:0:0:0:
182,192,15066,128,0,15409:0:0:0:0:
320,192,15409,1,8,0:0:0:0:
402,192,15580,1,8,0:0:0:0:
64,192,15752,1,0,0:0:0:0:
192,192,15923,1,0,0:0:0:0:
256,192,16094,1,8,0:0:0:0:
182,192,16266,1,0,0:0:0:0:
64,192,16437,1,0,0:0:0:0:
256,192,16437,128,0,16780:0:0:0:0:
192,192,16780,1,8,0:0:0:0:
402,192,16952,1,8,0:0:0:0:
182,192,17123,1,0,0:0:0:0:
256,192,17294,1,0,0:0:0:0:
182,192,17466,1,0,0:0:0:0:
109,192,17637,1,0,0:0:0:0:
192,192,17809,1,0,0:0:0:0:
320,192,17809,1,4,0:0:0:0:
109,192,18152,1,0,0:0:0:0:
402,192,18152,1,0,0:0:0:0:
256,192,18494,1,0,0:0:0:0:
192,192,18494,1,0,0:0:0:0:
36,192,18837,1,0,0:0:0:0:
475,192,18837,1,0,0:0:0:0:
109,192,19180,1,0,0:0:0:0:
402,192,19180,128,4,19523:0:0:0:0:
329,192,19523,128,0,19866:0:0:0:0:
192,192,19523,1,0,0:0:0:0:
182,192,19866,128,0,20209:0:0:0:0:
448,192,19866,1,0,0:0:0:0:
109,192,20209,128,0,20552:0:0:0:0:
320,192,20209,1,0,0:0:0:0:
448,192,20552,128,0,21923:0:0:0:0:
192,192,20552,1,4,0:0:0:0:
256,192,21923,1,0,0:0:0:0:
36,192,21923,128,0,22437:0:0:0:0:
182,192,22609,1,0,0:0:0:0:
402,192,22609,1,0,0:0:0:0:
182,192,22780,1,0,0:0:0:0:
402,192,22780,1,0,0:0:0:0:
402,192,22952,128,4,23294:0:0:0:0:
182,192,22952,128,4,23294:0:0:0:0:
109,192,23294,1,4,0:0:0:0:
448,192,23637,1,8,0:0:0:0:
256,192,23809,1,0,0:0:0:0:
64,192,23980,1,0,0:0:0:0:
402,192,24152,1,0,0:0:0:0:
182,192,24323,1,8,0:0:0:0:
329,192,24494,128,0,24837:0:0:0:0:
36,192,24494,1,0,0:0:0:0:
475,192,24837,1,0,0:0:0:0:
64,192,25009,1,8,0:0:0:0:
192,192,25180,1,0,0:0:0:0:
320,192,25352,1,0,0:0:0:0:
192,192,25523,1,0,0:0:0:0:
109,192,25694,1,8,0:0:0:0:
448,192,25694,128,0,26037:0:0:0:0:
64,192,26037,128,0,26380:0:0:0:0:
320,192,26037,1,0,0:0:0:0:
192,192,26380,1,8,0:0:0:0:
256,192,26552,1,0,0:0:0:0:
402,192,26723,128,0,26980:0:0:0:0:
256,192,26980,128,0,27237:0:0:0:0:
109,192,27237,128,0,27580:0:0:0:0:
256,192,27580,1,0,0:0:0:0:
475,192,27580,1,0,0:0:0:0:
256,192,27923,1,0,0:0:0:0:
64,192,27923,1,0,0:0:0:0:
182,192,28266,1,0,0:0:0:0:
402,192,28266,1,0,0:0:0:0:
320,192,28609,1,0,0:0:0:0:
36,192,28780,1,0,0:0:0:0:
475,192,28780,1,0,0:0:0:0:
109,192,29123,1,8,0:0:0:0:
182,192,29294,1,0,0:0:0:0:
256,192,29466,1,0,0:0:0:0:
109,192,29637,1,0,0:0:0:0:
402,192,29809,1,8,0:0:0:0:
256,192,29980,128,0,30323:0:0:0:0:
64,192,29980,1,0,0:0:0:0:
192,192,30323,1,0,0:0:0:0:
448,192,30494,1,8,0:0:0:0:
182,192,30666,128,0,31009:0:0:0:0:
64,192,30666,1,0,0:0:0:0:
402,192,31009,1,0,0:0:0:0:
329,192,31180,1,8,0:0:0:0:
192,192,31352,1,0,0:0:0:0:
64,192,31523,1,0,0:0:0:0:
448,192,31523,128,0,31866:0:0:0:0:
256,192,31866,1,8,0:0:0:0:
192,192,32209,1,0,0:0:0:0:
256,192,32380,1,0,0:0:0:0:
64,192,32552,1,8,0:0:0:0:
402,192,32723,128,0,33066:0:0:0:0:
192,192,32723,1,8,0:0:0:0:
109,192,33066,1,0,0:0:0:0:
256,192,33066,1,8,0:0:0:0:
182,192,33409,1,0,0:0:0:0:
329,192,33409,1,8,0:0:0:0:
36,192,33580,1,0,0:0:0:0:
475,192,33580,128,0,33923:0:0:0:0:
192,192,33923,1,4,0:0:0:0:
329,192,34094,1,0,0:0:0:0:
64,192,34266,1,0,0:0:0:0:
192,192,34266,1,4,0:0:0:0:
402,192,34609,1,8,0:0:0:0:
329,192,34780,1,0,0:0:0:0:
192,192,34952,1,0,0:0:0:0:
109,192,35123,1,0,0:0:0:0:
182,192,35294,1,8,0:0:0:0:
256,192,35466,128,0,35809:0:0:0:0:
448,192,35466,1,0,0:0:0:0:
182,192,35809,1,0,0:0:0:0:
448,192,35980,1,8,0:0:0:0:
109,192,36152,1,0,0:0:0:0:
256,192,36323,1,0,0:0:0:0:
475,192,36494,1,0,0:0:0:0:
192,192,36666,128,8,37009:0:0:0:0:
329,192,37009,1,0,0:0:0:0:
256,192,37352,1,8,0:0:0:0:
109,192,37523,1,0,0:0:0:0:
402,192,37523,1,0,0:0:0:0:
256,192,37694,128,0,37952:0:0:0:0:
182,192,37952,128,0,38209:0:0:0:0:
109,192,38209,128,0,38380:0:0:0:0:
402,192,38209,128,4,38380:0:0:0:0:
182,192,38552,128,0,38723:0:0:0:0:
329,192,38552,128,4,38723:0:0:0:0:
36,192,38894,128,0,39066:0:0:0:0:
475,192,38894,128,4,39066:0:0:0:0:
182,192,39237,128,0,39409:0:0:0:0:
329,192,39237,128,4,39409:0:0:0:0:
109,192,39580,128,0,39752:0:0:0:0:
402,192,39580,128,4,39752:0:0:0:0:
192,192,39752,1,4,0:0:0:0:
320,192,39923,1,0,0:0:0:0:
402,192,40094,1,0,0:0:0:0:
182,192,40266,1,0,0:0:0:0:
329,192,40437,1,0,0:0:0:0:
109,192,40609,1,0,0:0:0:0:
256,192,40780,1,0,0:0:0:0:
402,192,40952,128,0,41294:0:0:0:0:
192,192,40952,1,0,0:0:0:0:
329,192,41294,1,0,0:0:0:0:
182,192,41466,1,0,0:0:0:0:
256,192,41637,128,0,41980:0:0:0:0:
64,192,41637,1,0,0:0:0:0:
192,192,41980,1,0,0:0:0:0:
402,192,42152,1,0,0:0:0:0:
320,192,42323,1,0,0:0:0:0:
182,192,42494,128,0,42837:0:0:0:0:
64,192,42494,1,4,0:0:0:0:
329,192,42837,128,0,43180:0:0:0:0:
109,192,43180,1,0,0:0:0:0:
402,192,43180,1,0,0:0:0:0:
256,192,43523,1,0,0:0:0:0:
182,192,43694,128,4,44037:0:0:0:0:
64,192,44037,1,0,0:0:0:0:
475,192,44037,1,4,0:0:0:0:
402,192,44380,1,4,0:0:0:0:
329,192,44552,1,4,0:0:0:0:
64,192,44723,1,4,0:0:0:0:
192,192,44894,1,4,0:0:0:0:
320,192,45066,1,4,0:0:0:0:
36,192,45237,1,4,0:0:0:0:
448,192,45237,1,4,0:0:0:0:
192,192,45580,1,8,0:0:0:0:
448,192,45580,1,8,0:0:0:0:
320,192,45923,1,0,0:0:0:0:
64,192,46266,1,8,0:0:0:0:
448,192,46266,1,8,0:0:0:0:
192,192,46609,1,0,0:0:0:0:
448,192,46952,1,8,0:0:0:0:
329,192,46952,1,8,0:0:0:0:
192,192,47294,1,0,0:0:0:0:
64,192,47637,1,8,0:0:0:0:
448,192,47637,1,8,0:0:0:0:
320,192,47980,1,0,0:0:0:0:
64,192,48323,1,8,0:0:0:0:
192,192,48323,1,8,0:0:0:0:
320,192,48666,1,0,0:0:0:0:
192,192,49009,1,8,0:0:0:0:
475,192,49009,1,8,0:0:0:0:
320,192,49352,1,0,0:0:0:0:
64,192,49694,1,8,0:0:0:0:
475,192,49694,1,8,0:0:0:0:
320,192,50037,1,0,0:0:0:0:
402,192,50380,1,8,0:0:0:0:
192,192,50380,1,8,0:0:0:0:
320,192,50552,1,0,0:0:0:0:
192,192,50723,1,0,0:0:0:0:
64,192,51066,1,8,0:0:0:0:
256,192,51066,1,8,0:0:0:0:
192,192,51409,1,0,0:0:0:0:
64,192,51752,1,8,0:0:0:0:
448,192,51752,1,8,0:0:0:0:
192,192,52094,1,0,0:0:0:0:
64,192,52437,1,8,0:0:0:0:
256,192,52437,1,8,0:0:0:0:
192,192,52780,1,0,0:0:0:0:
64,192,53123,1,8,0:0:0:0:
448,192,53123,1,8,0:0:0:0:
192,192,53466,1,0,0:0:0:0:
64,192,53809,1,8,0:0:0:0:
448,192,53809,1,8,0:0:0:0:
320,192,54152,1,0,0:0:0:0:
64,192,54494,1,8,0:0:0:0:
448,192,54494,1,8,0:0:0:0:
192,192,54837,1,4,0:0:0:0:
320,192,54837,1,0,0:0:0:0:
64,192,55180,1,4,0:0:0:0:
475,192,55180,1,0,0:0:0:0:
320,192,55523,1,0,0:0:0:0:
192,192,55523,1,4,0:0:0:0:
64,192,55866,1,4,0:0:0:0:
475,192,55866,1,4,0:0:0:0:
109,192,56209,128,0,58952:0:0:0:0:
320,192,56209,1,0,0:0:0:0:
192,192,56552,1,8,0:0:0:0:
448,192,56894,1,0,0:0:0:0:
320,192,57237,1,8,0:0:0:0:
192,192,57580,1,0,0:0:0:0:
320,192,57923,1,8,0:0:0:0:
448,192,58266,1,0,0:0:0:0:
320,192,58609,1,8,0:0:0:0:
320,192,58952,128,0,61694:0:0:0:0:
192,192,58952,1,0,0:0:0:0:
448,192,59294,1,8,0:0:0:0:
192,192,59637,1,0,0:0:0:0:
64,192,59980,1,8,0:0:0:0:
192,192,60323,1,0,0:0:0:0:
448,192,60666,1,8,0:0:0:0:
64,192,61009,1,4,0:0:0:0:
448,192,61352,1,4,0:0:0:0:
64,192,61694,1,0,0:0:0:0:
192,192,61866,1,0,0:0:0:0:
320,192,62037,1,0,0:0:0:0:
448,192,62209,1,0,0:0:0:0:
64,192,62380,1,0,0:0:0:0:
192,192,62552,1,0,0:0:0:0:
448,192,62723,1,0,0:0:0:0:
320,192,62894,1,0,0:0:0:0:
64,192,63066,1,0,0:0:0:0:
192,192,63237,1,0,0:0:0:0:
320,192,63409,1,0,0:0:0:0:
448,192,63580,1,0,0:0:0:0:
320,192,63752,1,0,0:0:0:0:
192,192,63923,1,0,0:0:0:0:
320,192,64094,1,0,0:0:0:0:
64,192,64094,1,0,0:0:0:0:
475,192,64437,1,4,0:0:0:0:
256,192,64609,1,0,0:0:0:0:
182,192,64780,1,0,0:0:0:0:
109,192,64952,1,0,0:0:0:0:
448,192,65123,128,0,65809:0:0:0:0:
192,192,65123,1,0,0:0:0:0:
109,192,65809,128,0,66494:0:0:0:0:
320,192,65809,1,4,0:0:0:0:
475,192,66152,128,0,66494:0:0:0:0:
320,192,66494,1,4,0:0:0:0:
64,192,66666,1,4,0:0:0:0:
320,192,66837,1,4,0:0:0:0:
448,192,66837,1,4,0:0:0:0:
109,192,67180,1,4,0:0:0:0:
448,192,67180,1,0,0:0:0:0:
320,192,67352,1,0,0:0:0:0:
192,192,67523,1,8,0:0:0:0:
64,192,67694,1,8,0:0:0:0:
320,192,67866,1,2,0:0:0:0:
192,192,68037,1,2,0:0:0:0:
64,192,68209,1,8,0:0:0:0:
192,192,68380,1,2,0:0:0:0:
448,192,68552,1,2,0:0:0:0:
256,192,68723,1,2,0:0:0:0:
192,192,68894,1,8,0:0:0:0:
109,192,69066,1,8,0:0:0:0:
320,192,69237,1,2,0:0:0:0:
448,192,69409,1,2,0:0:0:0:
320,192,69580,1,8,0:0:0:0:
182,192,69752,1,2,0:0:0:0:
448,192,69923,1,2,0:0:0:0:
182,192,70094,1,2,0:0:0:0:
256,192,70266,1,8,0:0:0:0:
109,192,70437,1,8,0:0:0:0:
402,192,70609,1,2,0:0:0:0:
329,192,70780,1,2,0:0:0:0:
192,192,70952,1,8,0:0:0:0:
64,192,71123,1,2,0:0:0:0:
448,192,71294,1,2,0:0:0:0:
192,192,71466,1,2,0:0:0:0:
320,192,71637,1,8,0:0:0:0:
448,192,71809,1,8,0:0:0:0:
64,192,71980,1,2,0:0:0:0:
329,192,72152,1,4,0:0:0:0:
192,192,72152,1,0,0:0:0:0:
402,192,72323,1,8,0:0:0:0:
192,192,72494,1,4,0:0:0:0:
320,192,72494,1,4,0:0:0:0:
109,192,72666,1,4,0:0:0:0:
475,192,72666,1,4,0:0:0:0:
320,192,72837,1,2,0:0:0:0:
192,192,73009,1,8,0:0:0:0:
64,192,73180,1,8,0:0:0:0:
320,192,73352,1,2,0:0:0:0:
192,192,73523,1,2,0:0:0:0:
64,192,73694,1,8,0:0:0:0:
192,192,73866,1,4,0:0:0:0:
448,192,73866,1,4,0:0:0:0:
320,192,74037,1,4,0:0:0:0:
64,192,74037,1,4,0:0:0:0:
448,192,74209,1,2,0:0:0:0:
64,192,74380,1,8,0:0:0:0:
192,192,74552,1,8,0:0:0:0:
320,192,74723,1,2,0:0:0:0:
448,192,74894,1,2,0:0:0:0:
192,192,75066,1,8,0:0:0:0:
320,192,75237,1,4,0:0:0:0:
448,192,75237,1,4,0:0:0:0:
192,192,75409,1,4,0:0:0:0:
64,192,75409,1,4,0:0:0:0:
320,192,75580,1,2,0:0:0:0:
448,192,75752,1,8,0:0:0:0:
192,192,75923,1,4,0:0:0:0:
320,192,75923,1,4,0:0:0:0:
64,192,76094,1,4,0:0:0:0:
448,192,76094,1,4,0:0:0:0:
192,192,76266,1,2,0:0:0:0:
320,192,76437,1,4,0:0:0:0:
448,192,76609,1,4,0:0:0:0:
64,192,76609,1,4,0:0:0:0:
320,192,76780,1,0,0:0:0:0:
192,192,76952,1,0,0:0:0:0:
448,192,76952,1,0,0:0:0:0:
64,192,77123,1,0,0:0:0:0:
320,192,77294,1,0,0:0:0:0:
448,192,77466,1,0,0:0:0:0:
320,192,77637,1,0,0:0:0:0:
192,192,77809,1,4,0:0:0:0:
64,192,77809,1,4,0:0:0:0:
320,192,77980,1,0,0:0:0:0:
192,192,78152,128,4,78494:0:0:0:0:
448,192,78152,1,0,0:0:0:0:
320,192,78494,1,0,0:0:0:0:
64,192,78837,1,0,0:0:0:0:
192,192,79094,1,0,0:0:0:0:
448,192,79352,1,0,0:0:0:0:
192,192,79694,1,0,0:0:0:0:
320,192,80037,1,0,0:0:0:0:
192,192,80380,1,0,0:0:0:0:
64,192,80552,1,0,0:0:0:0:
192,192,80723,1,0,0:0:0:0:
320,192,80894,1,0,0:0:0:0:
448,192,81237,1,0,0:0:0:0:
64,192,81580,1,0,0:0:0:0:
192,192,81752,1,0,0:0:0:0:
320,192,81923,1,0,0:0:0:0:
192,192,82094,1,0,0:0:0:0:
448,192,82437,1,0,0:0:0:0:
192,192,82780,1,0,0:0:0:0:
448,192,83123,1,0,0:0:0:0:
192,192,83466,1,0,0:0:0:0:
64,192,83637,1,4,0:0:0:0:
320,192,83894,1,4,0:0:0:0:
448,192,84152,1,4,0:0:0:0:
192,192,84323,128,0,85009:0:0:0:0:
448,192,85009,1,4,0:0:0:0:
320,192,85266,1,4,0:0:0:0:
192,192,85523,1,4,0:0:0:0:
64,192,85694,128,0,86380:0:0:0:0:
320,192,86380,1,0,0:0:0:0:
64,192,86552,1,0,0:0:0:0:
448,192,86723,1,0,0:0:0:0:
320,192,86894,1,0,0:0:0:0:
192,192,87066,128,0,87752:0:0:0:0:
448,192,87752,128,0,88437:0:0:0:0:
320,192,87752,1,0,0:0:0:0:
192,192,88437,5,4,0:0:0:0:
192,192,88609,1,4,0:0:0:0:
448,192,88609,1,0,0:0:0:0:
64,192,88780,1,4,0:0:0:0:
320,192,88780,1,0,0:0:0:0:
448,192,89123,1,0,0:0:0:0:
192,192,89123,1,0,0:0:0:0:
64,192,89466,1,8,0:0:0:0:
192,192,89466,1,8,0:0:0:0:
320,192,89809,1,0,0:0:0:0:
192,192,90152,1,8,0:0:0:0:
448,192,90152,1,8,0:0:0:0:
64,192,90494,1,0,0:0:0:0:
320,192,90837,1,8,0:0:0:0:
448,192,90837,1,8,0:0:0:0:
192,192,91180,1,0,0:0:0:0:
64,192,91523,1,8,0:0:0:0:
320,192,91523,1,8,0:0:0:0:
192,192,91866,1,0,0:0:0:0:
320,192,92209,1,8,0:0:0:0:
448,192,92209,1,8,0:0:0:0:
192,192,92552,1,0,0:0:0:0:
64,192,92894,1,8,0:0:0:0:
448,192,92894,1,0,0:0:0:0:
320,192,93237,1,8,0:0:0:0:
64,192,93580,1,8,0:0:0:0:
192,192,93580,1,8,0:0:0:0:
320,192,93923,1,0,0:0:0:0:
192,192,94266,1,8,0:0:0:0:
448,192,94266,1,8,0:0:0:0:
320,192,94609,1,0,0:0:0:0:
192,192,94952,1,8,0:0:0:0:
64,192,94952,1,8,0:0:0:0:
320,192,95294,1,0,0:0:0:0:
192,192,95637,1,8,0:0:0:0:
448,192,95637,1,8,0:0:0:0:
64,192,95980,1,0,0:0:0:0:
192,192,96323,1,8,0:0:0:0:
448,192,96323,1,8,0:0:0:0:
320,192,96666,1,0,0:0:0:0:
192,192,97009,1,8,0:0:0:0:
64,192,97009,1,8,0:0:0:0:
320,192,97352,1,0,0:0:0:0:
64,192,97694,1,8,0:0:0:0:
448,192,97694,1,8,0:0:0:0:
320,192,98037,1,0,0:0:0:0:
192,192,98380,1,8,0:0:0:0:
448,192,98380,1,8,0:0:0:0:
320,192,98552,1,4,0:0:0:0:
192,192,98894,1,4,0:0:0:0:
320,192,99066,1,0,0:0:0:0:
64,192,99237,1,4,0:0:0:0:
448,192,99409,128,0,99752:0:0:0:0:
192,192,99409,1,4,0:0:0:0:
64,192,99752,1,4,0:0:0:0:
320,192,99752,128,0,100094:0:0:0:0:
192,192,100094,1,0,0:0:0:0:
64,192,100437,1,0,0:0:0:0:
448,192,100437,1,0,0:0:0:0:
320,192,100780,1,0,0:0:0:0:
64,192,101123,1,0,0:0:0:0:
192,192,101123,1,0,0:0:0:0:
448,192,101294,1,0,0:0:0:0:
320,192,101637,1,0,0:0:0:0:
64,192,101809,1,0,0:0:0:0:
320,192,101980,1,0,0:0:0:0:
192,192,102323,1,0,0:0:0:0:
64,192,102494,1,0,0:0:0:0:
448,192,102494,1,0,0:0:0:0:
320,192,102837,1,0,0:0:0:0:
64,192,103009,1,0,0:0:0:0:
320,192,103180,1,4,0:0:0:0:
448,192,103180,1,4,0:0:0:0:
64,192,103523,1,0,0:0:0:0:
192,192,103866,1,0,0:0:0:0:
448,192,103866,1,0,0:0:0:0:
64,192,104037,1,4,0:0:0:0:
320,192,104037,1,4,0:0:0:0:
448,192,104380,1,4,0:0:0:0:
192,192,104380,1,0,0:0:0:0:
64,192,104723,1,0,0:0:0:0:
320,192,104723,1,4,0:0:0:0:
192,192,105066,1,0,0:0:0:0:
448,192,105066,1,4,0:0:0:0:
320,192,105409,1,4,0:0:0:0:
64,192,105580,1,4,0:0:0:0:
448,192,105752,1,0,0:0:0:0:
192,192,105923,1,0,0:0:0:0:
320,192,106094,1,0,0:0:0:0:
448,192,106266,1,0,0:0:0:0:
320,192,106437,1,0,0:0:0:0:
64,192,106609,1,0,0:0:0:0:
192,192,106780,128,0,107123:0:0:0:0:
320,192,107123,1,0,0:0:0:0:
64,192,107294,1,0,0:0:0:0:
192,192,107466,1,0,0:0:0:0:
320,192,107637,1,0,0:0:0:0:
448,192,107809,1,0,0:0:0:0:
192,192,107980,1,0,0:0:0:0:
64,192,108152,1,0,0:0:0:0:
192,192,108323,1,0,0:0:0:0:
448,192,108323,128,0,109352:0:0:0:0:
64,192,108666,1,0,0:0:0:0:
320,192,109009,1,0,0:0:0:0:
64,192,109352,1,0,0:0:0:0:
448,192,109523,1,4,0:0:0:0:
192,192,109523,1,0,0:0:0:0:
192,192,109866,1,4,0:0:0:0:
320,192,109866,1,0,0:0:0:0:
64,192,110209,5,4,0:0:0:0:
192,192,110380,1,0,0:0:0:0:
320,192,110552,1,0,0:0:0:0:
448,192,110723,1,0,0:0:0:0:
320,192,110894,1,0,0:0:0:0:
192,192,111066,128,0,111409:0:0:0:0:
448,192,111409,128,4,113809:0:0:0:0:
64,192,111409,1,0,0:0:0:0:
64,192,113123,128,0,113809:0:0:0:0:
320,192,113809,1,4,0:0:0:0:
