osu file format v13

[General]
AudioFilename: [Sona] A Symphony of Justice.mp3
AudioLeadIn: 0
PreviewTime: 162570
Countdown: 0
SampleSet: Soft
StackLeniency: 0.7
Mode: 0
LetterboxInBreaks: 1
WidescreenStoryboard: 0

[Editor]
Bookmarks: 12505,27886,52501,77117
DistanceSpacing: 1
BeatDivisor: 2
GridSize: 4
TimelineZoom: 1

[Metadata]
Title:A Symphony of Justice
TitleUnicode:A Symphony of Justice
Artist:Shiroko
ArtistUnicode:Shiroko
Creator:Norman
Version:Normal
Source:
Tags:sona league of legends lol Hatsune Miku vocaloid Yume to Hazakura Aoki Gekkoh 青木月光
BeatmapID:378002
BeatmapSetID:153842

[Difficulty]
HPDrainRate:3
CircleSize:3
OverallDifficulty:3
ApproachRate:4
SliderMultiplier:0.9
SliderTickRate:1

[Events]
//Background and Video events
0,0,"cats.jpg",0,0
//Break Periods
2,102001,112789
//Storyboard Layer 0 (Background)
//Storyboard Layer 1 (Fail)
//Storyboard Layer 2 (Pass)
//Storyboard Layer 3 (Foreground)
//Storyboard Sound Samples
//Background Colour Transformations
3,100,163,162,255

[TimingPoints]
3340,384.615384615385,4,2,1,40,1,0
52570,-100,4,2,1,50,0,0
77186,-100,4,2,1,60,0,0
114109,-100,4,2,1,50,0,0
138724,-100,4,2,1,60,0,0
163340,-100,4,2,1,70,0,1
212570,-100,4,2,1,60,0,0

[Colours]
Combo1 : 153,215,38
Combo2 : 237,45,29
Combo3 : 245,197,27

[HitObjects]
256,192,12570,12,4,15647,0:0:0:0:
96,164,16416,6,0,P|92:208|72:248,1,90
72,340,17186,2,0,B|140:328|184:372|184:372|244:356,1,180,2|0,0:0|0:0,0:0:0:0:
328,332,18340,1,0,0:0:0:0:
332,244,18724,6,0,P|404:292|400:380,1,180,8|0,0:0|0:0,0:0:0:0:
328,332,19878,1,0,0:0:0:0:
332,244,20263,2,0,P|340:155|380:74,1,180,2|0,0:0|0:0,0:0:0:0:
468,72,21416,1,0,0:0:0:0:
484,160,21801,6,0,P|416:220|332:244,1,180,8|0,0:0|0:0,0:0:0:0:
256,292,22955,1,0,0:0:0:0:
180,244,23340,2,0,B|92:224|92:280|4:244,2,180,2|0|8,0:0|0:0|0:0,0:0:0:0:
56,116,25647,5,0,0:0:0:0:
232,72,26416,1,4,0:0:0:0:
180,244,27186,1,0,0:0:0:0:
324,352,27955,6,0,B|368:316|360:248|360:248|420:224,1,180,4|0,0:0|0:0,0:0:0:0:
504,192,29109,1,0,0:0:0:0:
488,104,29493,2,0,P|420:48|332:44,1,180,0|0,0:0|0:0,0:0:0:0:
256,96,30647,1,0,0:0:0:0:
256,188,31032,6,0,B|236:276|288:276|256:364,2,180,2|0|2,0:0|0:0|0:0,0:0:0:0:
124,312,33340,1,0,0:0:0:0:
16,172,34109,6,0,B|48:132|96:140|96:140|84:96|112:56,1,180,4|0,0:0|0:0,0:0:0:0:
186,114,35263,2,0,P|202:72|200:28,1,90
344,28,36416,2,0,P|340:72|356:114,1,90
448,116,37186,6,0,B|448:188|376:204|376:204|352:256,1,180,2|0,0:0|0:0,0:0:0:0:
320,340,38340,1,0,0:0:0:0:
240,380,38724,1,2,0:0:0:0:
88,284,39493,1,0,0:0:0:0:
48,108,40263,6,0,B|92:84|132:108|132:108|152:60|204:56,1,180,4|0,0:0|0:0,0:0:0:0:
216,144,41416,1,0,0:0:0:0:
232,232,41801,2,0,B|296:220|304:160|304:160|380:160,1,180
456,116,42955,2,0,P|468:160|456:204,1,90,0|2,0:0|0:0,0:0:0:0:
368,360,44109,5,0,0:0:0:0:
196,304,44878,1,2,0:0:0:0:
136,372,45263,2,0,P|113:333|108:288,1,90
192,156,46416,5,2,0:0:0:0:
236,76,46801,1,0,0:0:0:0:
316,36,47186,2,0,P|360:36|404:56,1,90
488,80,47955,2,0,B|472:128|428:140|428:140|428:232,1,180
428,320,49109,1,0,0:0:0:0:
340,320,49493,6,0,B|248:320|248:320|168:356,1,180,2|0,0:0|0:0,0:0:0:0:
76,356,50647,2,0,B|48:320|48:320|48:268,1,90,0|2,0:0|0:0,0:0:0:0:
48,96,51801,1,0,0:0:0:0:
128,136,52186,1,0,0:0:0:0:
208,96,52570,6,0,P|292:72|380:96,1,180,4|0,0:0|0:0,0:0:0:0:
460,136,53724,1,0,0:0:0:0:
412,212,54109,2,0,P|384:248|372:292,1,90,8|0,0:0|0:0,0:0:0:0:
302,347,54878,2,0,L|210:347,1,90
140,292,55647,6,0,B|124:224|60:208|60:208|44:148,1,180,8|0,0:0|0:0,0:0:0:0:
136,140,56801,1,0,0:0:0:0:
80,68,57186,1,2,0:0:0:0:
260,60,57955,1,0,0:0:0:0:
320,128,58340,1,0,0:0:0:0:
408,124,58724,6,0,B|452:172|420:244|420:244|424:296,1,180,4|0,0:0|0:0,0:0:0:0:
344,340,59878,1,0,0:0:0:0:
344,340,60263,2,0,B|256:356|256:356|164:340,1,180,8|0,0:0|0:0,0:0:0:0:
80,316,61416,2,0,L|80:224,1,90,0|8,0:0|0:0,0:0:0:0:
80,136,62186,5,0,0:0:0:0:
124,56,62570,2,0,P|80:48|36:56,2,90,0|0|2,0:0|0:0|0:0,0:0:0:0:
284,136,64109,2,0,P|328:144|372:135,1,90
452,96,64878,6,0,B|472:160|432:200|432:200|468:204|488:248,1,180,8|0,0:0|0:0,0:0:0:0:
408,284,66032,1,0,0:0:0:0:
328,324,66416,2,8,P|288:344|256:376,1,90,0|0,0:0|0:0,0:0:0:0:
168,364,67186,2,0,P|148:324|116:292,1,90,0|2,0:0|0:0,0:0:0:0:
28,272,67955,6,0,B|40:224|80:208|80:208|60:116,1,180,8|0,0:0|0:0,0:0:0:0:
36,32,69109,1,0,0:0:0:0:
124,32,69493,2,0,B|216:32|216:32|296:72,1,180,2|0,0:0|0:0,0:0:0:0:
456,152,71032,6,0,B|444:204|396:212|396:212|428:244|416:296,1,180,8|0,0:0|0:0,0:0:0:0:
328,272,72186,1,0,0:0:0:0:
240,296,72570,2,0,P|176:316|124:360,1,135
80,372,73340,2,0,L|80:256,1,90
256,192,74109,12,4,75647,0:0:0:0:
168,84,76416,6,0,L|140:172,1,90
52,196,77186,6,0,B|76:244|76:244|136:256|168:324,1,180,4|0,0:0|0:0,0:0:0:0:
256,348,78340,1,0,0:0:0:0:
344,323,78724,2,0,P|364:283|399:256,1,90,2|0,0:0|0:0,0:0:0:0:
464,192,79493,2,0,L|464:96,1,90,0|0,0:0|0:0,0:0:0:0:
416,24,80263,6,0,B|384:40|380:68|380:68|328:24|264:48,1,180,8|0,0:0|0:0,0:0:0:0:
308,128,81416,1,0,0:0:0:0:
216,124,81801,1,2,0:0:0:0:
132,88,82186,2,0,L|108:48,2,45
144,176,82955,2,0,P|132:220|108:256,1,90,0|8,0:0|0:0,0:0:0:0:
60,336,83724,5,0,0:0:0:0:
152,336,84109,2,0,L|244:336,1,90
328,360,84878,2,0,P|360:300|420:272,1,135,0|0,0:0|0:0,0:0:0:0:
456,248,85647,2,0,P|428:200|424:164,1,90,2|0,0:0|0:0,0:0:0:0:
380,88,86416,5,8,0:0:0:0:
292,68,86801,2,0,L|204:52,1,90
120,88,87570,2,0,L|120:132,2,45,0|0|2,0:0|0:0|0:0,0:0:0:0:
28,88,88340,2,0,L|28:180,1,90
28,268,89109,1,0,0:0:0:0:
72,348,89493,6,0,B|120:324|120:268|120:268|156:248|196:272,1,180,8|0,0:0|0:0,0:0:0:0:
256,340,90647,1,0,0:0:0:0:
316,272,91032,2,0,B|356:248|392:268|392:268|392:324|440:348,1,180,2|0,0:0|0:0,0:0:0:0:
484,268,92186,1,0,0:0:0:0:
484,180,92570,6,0,B|484:128|484:128|484:64|416:28,1,180,8|0,0:0|0:0,0:0:0:0:
324,28,93724,1,0,0:0:0:0:
256,88,94109,2,0,P|228:128|192:148,1,90,2|0,0:0|0:0,0:0:0:0:
104,136,94878,2,0,L|104:228,1,90
28,272,95647,6,0,P|104:312|181:272,1,180,8|0,0:0|0:0,0:0:0:0:
264,236,96801,1,0,0:0:0:0:
341,285,97186,2,0,P|374:315|418:320,1,90,2|0,0:0|0:0,0:0:0:0:
412,232,97955,2,0,P|432:192|436:148,1,90
428,56,98724,5,8,0:0:0:0:
256,112,99493,1,0,0:0:0:0:
84,56,100263,1,2,0:0:0:0:
256,112,101032,2,0,L|256:204,1,90
256,292,101801,5,4,0:0:0:0:
188,108,114109,6,0,P|140:108|104:132,1,90,4|0,0:0|0:0,0:0:0:0:
84,216,114878,2,0,P|132:216|168:192,1,90
252,172,115647,2,0,B|304:164|320:208|320:208|288:244|296:296,1,180,2|0,0:0|0:0,0:0:0:0:
384,276,116801,1,0,0:0:0:0:
448,340,117186,6,0,P|476:280|452:216,1,135,2|0,0:0|0:0,0:0:0:0:
428,180,117955,2,0,L|428:88,1,90
356,36,118724,2,0,B|288:68|288:68|276:124|208:136,1,180,2|0,0:0|0:0,0:0:0:0:
200,44,119878,1,0,0:0:0:0:
132,104,120263,6,0,P|128:148|148:192,1,90,2|0,0:0|0:0,0:0:0:0:
212,252,121032,2,0,L|212:348,1,90
300,342,121801,2,0,B|390:342|390:342|464:292,1,180,2|0,0:0|0:0,0:0:0:0:
464,200,122955,2,0,L|464:104,1,90,0|2,0:0|0:0,0:0:0:0:
384,72,123724,6,0,P|396:48|412:36,2,45
312,124,124493,1,0,0:0:0:0:
240,72,124878,2,0,B|188:72|188:72|124:72|88:140,1,180,2|0,0:0|0:0,0:0:0:0:
88,232,126032,1,0,0:0:0:0:
171,256,126416,6,0,P|115:320|31:300,1,180,2|0,0:0|0:0,0:0:0:0:
88,232,127570,1,0,0:0:0:0:
148,164,127955,2,0,L|237:172,1,90,2|0,0:0|0:0,0:0:0:0:
280,252,128724,2,0,P|277:293|300:334,1,90
368,272,129493,6,0,P|376:208|424:160,1,135,2|0,0:0|0:0,0:0:0:0:
464,136,130263,2,0,P|428:112|404:72,1,90
320,44,131032,2,0,B|268:20|212:36|212:36|208:72|180:96,1,180,2|0,0:0|0:0,0:0:0:0:
96,128,132186,1,0,0:0:0:0:
8,132,132570,6,0,P|20:176|52:204,1,90,2|0,0:0|0:0,0:0:0:0:
144,208,133340,2,0,L|144:300,1,90
200,368,134109,2,0,B|228:352|232:320|232:320|280:368|344:344,1,180,2|0,0:0|0:0,0:0:0:0:
304,264,135263,1,0,0:0:0:0:
320,176,135647,6,0,P|344:112|384:60,1,135,2|0,0:0|0:0,0:0:0:0:
428,60,136416,2,0,P|460:92|480:132,1,90
496,220,137186,1,2,0:0:0:0:
440,288,137570,2,0,L|460:328,2,45
352,280,138340,1,0,0:0:0:0:
264,288,138724,6,0,B|240:340|240:340|196:384|124:352,1,180,4|0,0:0|0:0,0:0:0:0:
176,276,139878,1,0,0:0:0:0:
112,212,140263,2,0,P|84:176|48:152,2,90,2|0|0,0:0|0:0|0:0,0:0:0:0:
176,276,141416,1,0,0:0:0:0:
268,276,141801,6,0,B|324:276|324:276|368:328|436:300,1,180,8|0,0:0|0:0,0:0:0:0:
396,220,142955,2,0,L|420:132,1,90,0|2,0:0|0:0,0:0:0:0:
388,48,143724,2,0,P|412:44|432:44,2,45
300,68,144493,1,0,0:0:0:0:
212,92,144878,6,0,P|124:112|36:104,1,180,8|0,0:0|0:0,0:0:0:0:
12,192,146032,2,0,P|0:236|0:284,1,90,0|2,0:0|0:0,0:0:0:0:
36,364,146801,1,0,0:0:0:0:
124,336,147186,2,0,P|163:313|197:279,1,90
256,216,147955,6,0,L|348:216,1,90,8|0,0:0|0:0,0:0:0:0:
412,276,148724,2,0,B|448:244|432:196|432:196|484:200|512:160,1,180,0|2,0:0|0:0,0:0:0:0:
440,108,149878,2,0,L|420:60,2,45
352,128,150647,2,0,L|276:80,1,90,0|8,0:0|0:0,0:0:0:0:
196,36,151416,5,0,0:0:0:0:
196,36,151801,2,0,B|172:100|212:140|212:140|168:192,1,180,0|2,0:0|0:0,0:0:0:0:
104,252,152955,1,0,0:0:0:0:
20,284,153340,2,0,P|44:320|88:340,1,90
172,360,154109,5,8,0:0:0:0:
352,360,154878,2,0,L|388:276,1,90
420,192,155647,1,2,0:0:0:0:
368,116,156032,2,0,L|392:68,2,45
332,200,156801,1,0,0:0:0:0:
260,256,157186,6,0,B|216:280|176:256|176:256|152:300|96:296,1,180,8|0,0:0|0:0,0:0:0:0:
100,208,158340,2,0,L|60:116,1,90,0|2,0:0|0:0,0:0:0:0:
228,56,159493,1,0,0:0:0:0:
256,192,160263,12,4,161801,0:0:0:0:
76,108,162570,6,0,B|116:88|116:88|164:88,1,90
248,60,163340,6,0,B|268:120|224:156|224:156|224:232,1,180,4|0,0:0|0:0,0:0:0:0:
180,308,164493,2,0,P|224:316|268:308,1,90,0|2,0:0|0:0,0:0:0:0:
356,284,165263,2,0,P|360:308|356:332,2,45
356,192,166032,1,0,0:0:0:0:
432,144,166416,6,0,B|396:88|328:104|328:104|332:68|296:32,1,180,8|0,0:0|0:0,0:0:0:0:
240,104,167570,1,0,0:0:0:0:
168,48,167955,2,0,P|152:92|156:136,1,90,2|0,0:0|0:0,0:0:0:0:
88,192,168724,2,0,L|44:192|-4:192,2,90,0|0|8,0:0|0:0|0:0,0:0:0:0:
144,364,170263,6,0,P|188:372|232:360,1,90
292,296,171032,2,0,P|332:240|392:212,1,135,0|0,0:0|0:0,0:0:0:0:
436,212,171801,2,0,P|444:168|436:124,1,90,8|0,0:0|0:0,0:0:0:0:
380,52,172570,6,0,B|332:40|292:64|292:64|252:40|204:52,1,180,8|0,0:0|0:0,0:0:0:0:
120,84,173724,2,0,L|120:176,1,90,0|2,0:0|0:0,0:0:0:0:
108,264,174493,2,0,P|88:260|64:248,2,45
192,232,175263,1,0,0:0:0:0:
280,232,175647,6,0,P|336:244|404:292,1,135,8|0,0:0|0:0,0:0:0:0:
424,324,176416,2,0,P|464:300|488:264,1,90
492,176,177186,1,2,0:0:0:0:
444,100,177570,2,0,P|416:64|376:44,1,90
360,132,178340,1,0,0:0:0:0:
292,72,178724,6,0,B|260:120|280:168|280:168|196:192,1,180,8|0,0:0|0:0,0:0:0:0:
116,212,179878,1,0,0:0:0:0:
36,168,180263,2,0,P|32:256|104:304,1,180,2|0,0:0|0:0,0:0:0:0:
116,212,181416,1,0,0:0:0:0:
144,128,181801,6,0,P|168:92|208:68,1,90,8|0,0:0|0:0,0:0:0:0:
256,144,182570,2,0,P|292:121|339:116,1,90
356,204,183340,2,0,B|408:188|444:208|444:208|436:260|472:288,2,180,2|0|8,0:0|0:0|0:0,0:0:0:0:
204,296,185647,6,0,P|160:312|116:308,1,90
148,224,186416,1,2,0:0:0:0:
88,156,186801,2,0,L|52:120,2,45
176,140,187570,2,0,L|244:80,1,90,0|4,0:0|0:0,0:0:0:0:
316,28,188340,5,0,0:0:0:0:
388,80,188724,2,0,P|428:112|468:124,1,90
508,200,189493,2,0,P|440:232|412:284,1,135,0|0,0:0|0:0,0:0:0:0:
396,324,190263,2,0,P|356:304|308:300,1,90,8|0,0:0|0:0,0:0:0:0:
224,324,191032,6,0,B|212:288|228:260|228:260|168:280|120:240,1,180,8|0,0:0|0:0,0:0:0:0:
188,180,192186,1,0,0:0:0:0:
100,156,192570,2,0,P|60:176|36:216,1,90,2|0,0:0|0:0,0:0:0:0:
121,240,193340,1,0,0:0:0:0:
188,180,193724,2,0,L|188:88,1,90,0|8,0:0|0:0,0:0:0:0:
256,32,194493,5,0,0:0:0:0:
328,88,194878,2,0,P|368:100|416:100,1,90
496,60,195647,2,0,B|520:120|476:168|476:168|496:228,1,180,2|0,0:0|0:0,0:0:0:0:
496,320,196801,1,0,0:0:0:0:
404,320,197186,6,0,B|316:300|316:348|224:320,1,180,8|0,0:0|0:0,0:0:0:0:
144,288,198340,2,0,P|112:264|84:220,1,90,0|2,0:0|0:0,0:0:0:0:
52,140,199109,2,0,L|8:140,2,45
84,56,199878,2,0,L|176:56,1,90,0|8,0:0|0:0,0:0:0:0:
264,56,200647,5,0,0:0:0:0:
352,32,201032,2,0,B|364:72|340:104|340:104|400:88|440:128,1,180,0|2,0:0|0:0,0:0:0:0:
372,188,202186,2,0,L|368:236,2,45
460,212,202955,2,0,L|452:308,1,90,0|8,0:0|0:0,0:0:0:0:
396,368,203724,5,0,0:0:0:0:
308,344,204109,2,0,P|264:332|228:308,1,90
144,344,204878,2,0,B|124:304|144:268|144:268|84:276|56:232,1,180,2|0,0:0|0:0,0:0:0:0:
128,180,206032,1,0,0:0:0:0:
96,96,206416,6,0,P|140:92|184:108,1,90,8|0,0:0|0:0,0:0:0:0:
256,156,207186,2,0,L|328:96,1,90
396,40,207955,2,0,P|416:80|412:124,1,90,2|0,0:0|0:0,0:0:0:0:
396,212,208724,2,0,P|392:256|412:295,1,90
480,240,209493,5,8,0:0:0:0:
340,352,210263,1,0,0:0:0:0:
176,280,211032,1,2,0:0:0:0:
136,200,211416,2,0,L|96:172,2,45
228,204,212186,2,0,P|240:164|240:116,1,90,0|4,0:0|0:0,0:0:0:0:
412,60,213340,6,0,L|428:148,1,90
504,200,214109,2,0,P|460:236|384:228,1,135,2|0,0:0|0:0,0:0:0:0:
344,212,214878,2,0,L|332:308,1,90
264,360,215647,6,0,P|216:312|152:296,1,135,2|0,0:0|0:0,0:0:0:0:
108,308,216416,2,0,P|68:288|40:252,1,90
4,172,217186,1,2,0:0:0:0:
56,100,217570,2,0,L|56:52,2,45
140,132,218340,2,0,P|184:144|228:144,1,90,0|2,0:0|0:0,0:0:0:0:
400,88,219493,6,0,L|408:180,1,90
484,228,220263,2,0,P|432:268|364:256,1,135,2|0,0:0|0:0,0:0:0:0:
324,248,221032,2,0,P|300:284|296:340,1,90
256,192,221801,12,4,224878,0:0:0:0:
