osu file format v13

[General]
AudioFilename: [Sona] A Symphony of Justice.mp3
AudioLeadIn: 0
PreviewTime: 162570
Countdown: 0
SampleSet: Soft
StackLeniency: 0.7
Mode: 0
LetterboxInBreaks: 1
WidescreenStoryboard: 0

[Editor]
Bookmarks: 12505,27886,52501,77117
DistanceSpacing: 1
BeatDivisor: 4
GridSize: 4
TimelineZoom: 1

[Metadata]
Title:A Symphony of Justice
TitleUnicode:A Symphony of Justice
Artist:Shiroko
ArtistUnicode:Shiroko
Creator:Norman
Version:Hard
Source:
Tags:sona league of legends lol Hatsune Miku vocaloid Yume to Hazakura Aoki Gekkoh 青木月光
BeatmapID:378001
BeatmapSetID:153842

[Difficulty]
HPDrainRate:5
CircleSize:4
OverallDifficulty:5
ApproachRate:6
SliderMultiplier:0.9
SliderTickRate:1

[Events]
//Background and Video events
0,0,"cats.jpg",0,0
//Break Periods
2,102000,113059
//Storyboard Layer 0 (Background)
//Storyboard Layer 1 (Fail)
//Storyboard Layer 2 (Pass)
//Storyboard Layer 3 (Foreground)
//Storyboard Sound Samples
//Background Colour Transformations
3,100,163,162,255

[TimingPoints]
3340,384.615384615385,4,2,1,40,1,0
52570,-100,4,2,1,50,0,0
77186,-100,4,2,1,60,0,0
114109,-100,4,2,1,50,0,0
138724,-100,4,2,1,60,0,0
163340,-100,4,2,1,70,0,1
212570,-100,4,2,1,60,0,0

[Colours]
Combo1 : 153,215,38
Combo2 : 237,45,29
Combo3 : 245,197,27

[HitObjects]
256,192,12570,12,2,15647,0:0:0:0:
132,72,16224,5,0,0:0:0:0:
132,72,16416,2,0,L|92:152,1,90
20,208,17186,2,0,P|48:240|96:244,1,90,8|0,0:0|0:0,0:0:0:0:
136,232,17763,1,0,0:0:0:0:
180,244,17955,2,0,L|180:336,1,90
256,380,18724,5,2,0:0:0:0:
288,352,18916,2,0,P|328:328|372:324,1,90
408,300,19493,2,0,L|440:216,1,90
468,128,20263,5,8,0:0:0:0:
408,60,20647,1,0,0:0:0:0:
364,48,20840,1,0,0:0:0:0:
320,60,21032,2,0,P|276:68|232:60,1,90,0|0,0:0|0:0,0:0:0:0:
148,24,21801,6,0,P|120:80|60:116,1,135,2|0,0:0|0:0,0:0:0:0:
28,152,22570,2,0,L|60:236,1,90
60,328,23340,6,0,P|100:324|136:288,1,90,8|0,0:0|0:0,0:0:0:0:
168,260,23916,1,0,0:0:0:0:
212,260,24109,2,0,L|304:260,1,90
392,260,24878,5,2,0:0:0:0:
420,292,25070,1,0,0:0:0:0:
472,220,25455,1,0,0:0:0:0:
488,176,25647,2,0,P|500:132|488:88,1,90
408,132,26416,5,4,0:0:0:0:
336,80,26801,2,0,L|340:32,2,45
256,124,27570,1,0,0:0:0:0:
180,72,27955,6,0,P|136:60|92:72,1,90,4|0,0:0|0:0,0:0:0:0:
48,148,28724,2,0,P|92:160|136:148,1,90
208,200,29493,2,0,P|252:272|208:348,1,180
156,272,30647,1,0,0:0:0:0:
248,272,31032,6,0,L|340:272,1,90,2|0,0:0|0:0,0:0:0:0:
380,292,31609,1,0,0:0:0:0:
420,272,31801,2,0,P|436:232|472:200,1,90
512,120,32570,2,0,B|488:72|428:64|428:64|412:84|388:96|360:92,1,180,2|0,0:0|0:0,0:0:0:0:
280,60,33724,1,0,0:0:0:0:
228,132,34109,6,0,L|180:208,1,90,4|0,0:0|0:0,0:0:0:0:
96,240,34878,2,0,P|64:208|20:196,1,90
16,288,35647,2,0,B|60:352|136:324|136:324|160:360,1,180
240,324,36801,1,0,0:0:0:0:
328,304,37186,5,2,0:0:0:0:
416,324,37570,2,0,L|436:364,2,45
464,248,38340,1,0,0:0:0:0:
464,248,38724,2,0,P|436:208|428:168,1,90,2|0,0:0|0:0,0:0:0:0:
424,124,39301,1,0,0:0:0:0:
428,80,39493,1,0,0:0:0:0:
352,32,39878,1,0,0:0:0:0:
268,68,40263,6,0,L|184:108,1,90,4|0,0:0|0:0,0:0:0:0:
108,152,41032,2,0,P|136:188|140:232,1,90
156,320,41801,2,0,B|88:328|60:276|60:276|0:304,1,180
140,231,42955,1,0,0:0:0:0:
232,232,43340,6,0,P|264:260|276:304,1,90,2|0,0:0|0:0,0:0:0:0:
316,324,43916,1,0,0:0:0:0:
356,304,44109,2,0,L|448:304,1,90
492,228,44878,2,0,P|512:188|512:140,1,90,2|0,0:0|0:0,0:0:0:0:
512,100,45455,1,0,0:0:0:0:
492,60,45647,1,0,0:0:0:0:
408,24,46032,1,0,0:0:0:0:
324,56,46416,6,0,P|284:80|240:80,1,90,2|0,0:0|0:0,0:0:0:0:
152,100,47186,2,0,L|152:192,1,90
152,280,47955,1,0,0:0:0:0:
84,336,48340,2,0,L|52:368,2,45
152,280,49109,1,0,0:0:0:0:
240,280,49493,6,0,L|336:280,1,90,2|0,0:0|0:0,0:0:0:0:
372,300,50070,1,0,0:0:0:0:
412,280,50263,2,0,P|436:244|476:220,1,90
476,132,51032,2,0,B|428:106|424:60|424:60|381:81|340:56,1,180,2|0,0:0|0:0,0:0:0:0:
256,32,52186,1,0,0:0:0:0:
168,56,52570,6,0,P|136:88|92:96,1,90,4|0,0:0|0:0,0:0:0:0:
52,84,53147,1,0,0:0:0:0:
8,96,53340,2,0,L|8:188,1,90
0,276,54109,2,0,P|40:288|72:324,1,90,8|0,0:0|0:0,0:0:0:0:
104,352,54686,1,0,0:0:0:0:
148,352,54878,2,0,L|240:352,1,90
328,352,55647,5,8,0:0:0:0:
408,312,56032,1,0,0:0:0:0:
444,284,56224,1,0,0:0:0:0:
468,244,56416,2,0,P|476:200|468:156,1,90
444,68,57186,1,2,0:0:0:0:
268,40,57955,1,0,0:0:0:0:
196,96,58340,1,0,0:0:0:0:
124,40,58724,6,0,B|88:92|124:148|124:148|88:204,1,180,4|0,0:0|0:0,0:0:0:0:
32,272,59878,1,0,0:0:0:0:
88,344,60263,2,0,P|128:356|176:344,1,90,8|0,0:0|0:0,0:0:0:0:
212,320,60840,1,0,0:0:0:0:
256,316,61032,2,0,L|348:316,1,90,0|0,0:0|0:0,0:0:0:0:
436,308,61801,6,0,B|436:268|404:244|404:244|448:216|440:152,1,180,8|0,0:0|0:0,0:0:0:0:
352,168,62955,1,0,0:0:0:0:
380,84,63340,1,2,0:0:0:0:
200,68,64109,1,0,0:0:0:0:
120,28,64493,1,0,0:0:0:0:
68,100,64878,6,0,P|56:164|16:220,1,135,8|0,0:0|0:0,0:0:0:0:
0,264,65647,2,0,L|68:324,1,90
144,372,66416,1,2,0:0:0:0:
144,372,66801,2,0,P|180:344|204:308,1,90,0|0,0:0|0:0,0:0:0:0:
256,232,67570,1,0,0:0:0:0:
256,232,67955,6,0,B|228:144|288:144|256:56,1,180,8|0,0:0|0:0,0:0:0:0:
180,104,69109,1,0,0:0:0:0:
336,192,69493,1,2,0:0:0:0:
428,192,69878,2,0,L|472:192,2,45
256,248,71032,6,0,B|204:276|204:276|172:344|104:328,1,180,8|0,0:0|0:0,0:0:0:0:
120,240,72186,1,0,0:0:0:0:
76,160,72570,2,0,P|56:120|56:76,1,90,8|0,0:0|0:0,0:0:0:0:
88,44,73147,1,0,0:0:0:0:
132,56,73340,2,0,P|152:96|152:140,1,90
256,192,74109,12,4,75647,0:0:0:0:
396,108,76416,5,0,0:0:0:0:
312,72,76801,1,0,0:0:0:0:
256,144,77186,6,0,P|204:168|124:160,1,135,4|0,0:0|0:0,0:0:0:0:
88,144,77955,2,0,L|60:232,1,90
32,316,78724,1,2,0:0:0:0:
120,336,79109,2,0,P|112:364|96:384,2,45
208,316,79878,1,0,0:0:0:0:
292,280,80263,6,0,P|328:256|352:216,1,90,8|0,0:0|0:0,0:0:0:0:
372,176,80840,1,0,0:0:0:0:
416,176,81032,2,0,L|508:176,1,90
508,84,81801,2,0,L|408:84,1,90,2|0,0:0|0:0,0:0:0:0:
372,84,82378,1,0,0:0:0:0:
328,84,82570,1,0,0:0:0:0:
256,28,82955,1,0,0:0:0:0:
184,84,83340,6,0,P|148:136|84:164,1,135,8|0,0:0|0:0,0:0:0:0:
40,172,84109,1,0,0:0:0:0:
0,252,84493,1,0,0:0:0:0:
60,320,84878,2,0,P|96:348|140:352,1,90,2|0,0:0|0:0,0:0:0:0:
184,364,85455,1,0,0:0:0:0:
220,336,85647,2,0,P|248:308|296:300,1,90
384,320,86416,6,0,L|384:228,1,90,8|0,0:0|0:0,0:0:0:0:
384,184,86993,1,0,0:0:0:0:
384,140,87186,1,0,0:0:0:0:
428,64,87570,1,0,0:0:0:0:
344,32,87955,2,0,P|320:44|308:60,1,45,2|0,0:0|0:0,0:0:0:0:
276,88,88340,2,0,P|261:104|240:114,2,45
204,32,89109,1,0,0:0:0:0:
144,96,89493,6,0,B|132:140|160:172|160:172|116:208,1,135,4|0,0:0|0:0,0:0:0:0:
80,232,90263,1,0,0:0:0:0:
80,320,90647,1,0,0:0:0:0:
168,344,91032,2,0,P|212:352|256:348,1,90,2|0,0:0|0:0,0:0:0:0:
300,340,91609,1,0,0:0:0:0:
340,320,91801,1,0,0:0:0:0:
428,340,92186,1,0,0:0:0:0:
452,252,92570,6,0,P|464:208|496:176,1,90,8|0,0:0|0:0,0:0:0:0:
512,136,93147,1,0,0:0:0:0:
496,92,93340,2,0,L|416:48,1,90
332,24,94109,1,2,0:0:0:0:
268,88,94493,2,0,P|284:104|308:112,2,45
188,48,95263,1,0,0:0:0:0:
108,92,95647,6,0,P|72:116|48:160,1,90,8|0,0:0|0:0,0:0:0:0:
24,192,96224,1,0,0:0:0:0:
49,228,96416,2,0,P|71:266|108:292,1,90
180,344,97186,1,2,0:0:0:0:
324,308,97570,1,0,0:0:0:0:
308,264,97763,1,0,0:0:0:0:
272,236,97955,1,0,0:0:0:0:
264,376,98340,1,0,0:0:0:0:
272,236,98724,5,8,0:0:0:0:
272,236,98916,2,0,L|312:156,1,90
336,116,99493,2,0,P|368:84|412:76,1,90
412,168,100263,1,2,0:0:0:0:
456,248,100647,2,0,L|480:288,2,45
412,168,101416,2,0,P|376:196|364:240,1,90,0|4,0:0|0:0,0:0:0:0:
104,128,114109,5,4,0:0:0:0:
180,172,114493,2,0,P|152:208|108:216,1,90
104,128,115263,1,0,0:0:0:0:
184,84,115647,2,0,P|228:92|256:128,1,90,2|0,0:0|0:0,0:0:0:0:
332,172,116416,1,0,0:0:0:0:
408,124,116801,1,0,0:0:0:0:
484,172,117186,6,0,L|484:264,1,90,2|0,0:0|0:0,0:0:0:0:
484,308,117763,1,0,0:0:0:0:
448,332,117955,2,0,P|404:332|364:352,1,90
280,380,118724,1,2,0:0:0:0:
212,320,119109,1,0,0:0:0:0:
184,284,119301,1,0,0:0:0:0:
160,244,119493,2,0,P|136:204|128:160,1,90
172,80,120263,6,0,P|128:68|84:80,2,90,2|0|0,0:0|0:0|0:0,0:0:0:0:
256,112,121416,1,0,0:0:0:0:
340,79,121801,2,0,B|356:112|348:136|348:136|416:132|444:196,1,180,2|0,0:0|0:0,0:0:0:0:
356,228,122955,1,0,0:0:0:0:
356,320,123340,6,0,P|312:312|280:280,1,90,2|0,0:0|0:0,0:0:0:0:
248,252,123916,1,0,0:0:0:0:
204,252,124109,2,0,L|112:252,1,90
36,296,124878,2,0,P|28:252|36:208,1,90,2|0,0:0|0:0,0:0:0:0:
52,164,125455,1,0,0:0:0:0:
80,132,125647,1,0,0:0:0:0:
164,100,126032,1,0,0:0:0:0:
248,136,126416,6,0,P|280:168|324:180,1,90,2|0,0:0|0:0,0:0:0:0:
412,160,127186,2,0,L|412:252,1,90
484,304,127955,2,0,B|444:340|444:340|376:320|328:368,1,180,2|0,0:0|0:0,0:0:0:0:
256,312,129109,1,0,0:0:0:0:
184,368,129493,6,0,B|152:332|100:340,1,90,2|0,0:0|0:0,0:0:0:0:
60,352,130070,1,0,0:0:0:0:
16,340,130263,2,0,L|16:248,1,90
16,160,131032,1,2,0:0:0:0:
60,80,131416,1,0,0:0:0:0:
92,48,131609,1,0,0:0:0:0:
136,40,131801,2,0,P|180:40|220:60,1,90
280,128,132570,5,2,0:0:0:0:
372,128,132955,2,0,L|468:128,2,90
280,128,134109,2,0,B|256:216|316:216|280:304,1,180,2|0,0:0|0:0,0:0:0:0:
200,260,135263,1,0,0:0:0:0:
168,344,135647,6,0,P|128:320|112:280,1,90,2|0,0:0|0:0,0:0:0:0:
96,240,136224,1,0,0:0:0:0:
96,196,136416,2,0,L|96:100,1,90
128,24,137186,2,0,B|160:32|172:64|172:64|216:24|284:48,1,180,2|0,0:0|0:0,0:0:0:0:
236,124,138340,1,0,0:0:0:0:
300,184,138724,6,0,P|340:184|384:160,1,90,4|0,0:0|0:0,0:0:0:0:
416,132,139301,1,0,0:0:0:0:
460,140,139493,2,0,L|496:224,1,90
512,312,140263,2,0,P|472:328|444:364,1,90,2|0,0:0|0:0,0:0:0:0:
400,376,140840,1,0,0:0:0:0:
356,376,141032,2,0,L|260:376,1,90
192,328,141801,5,8,0:0:0:0:
132,260,142186,2,0,P|116:276|108:296,2,45
192,196,142955,2,0,P|223:161|232:119,1,90,0|2,0:0|0:0,0:0:0:0:
288,48,143724,1,0,0:0:0:0:
332,36,143916,1,0,0:0:0:0:
376,28,144109,1,0,0:0:0:0:
452,76,144493,1,0,0:0:0:0:
460,164,144878,6,0,L|468:256,1,90,8|0,0:0|0:0,0:0:0:0:
468,300,145455,1,0,0:0:0:0:
428,320,145647,2,0,P|384:336|356:368,1,90
268,376,146416,2,0,L|212:304,1,90,2|0,0:0|0:0,0:0:0:0:
184,272,146993,1,0,0:0:0:0:
156,236,147186,1,0,0:0:0:0:
104,164,147570,1,0,0:0:0:0:
156,92,147955,6,0,P|200:80|236:52,1,90,8|0,0:0|0:0,0:0:0:0:
276,36,148532,1,0,0:0:0:0:
320,32,148724,2,0,P|360:20|408:32,1,90
364,112,149493,1,2,0:0:0:0:
408,188,149878,1,0,0:0:0:0:
448,204,150070,1,0,0:0:0:0:
488,224,150263,2,0,P|488:272|500:312,1,90
428,364,151032,6,0,L|336:364,1,90,8|0,0:0|0:0,0:0:0:0:
256,324,151801,2,0,P|232:284|196:260,1,90
168,344,152570,1,2,0:0:0:0:
76,340,152955,2,0,P|80:316|96:288,1,45
96,252,153340,2,0,L|96:160,1,90
64,76,154109,6,0,B|124:56|164:100|164:100|228:72,1,180,8|0,0:0|0:0,0:0:0:0:
312,40,155263,1,0,0:0:0:0:
360,116,155647,2,0,P|380:156|420:180,1,90,2|0,0:0|0:0,0:0:0:0:
460,168,156224,1,0,0:0:0:0:
504,180,156416,2,0,L|504:272,1,90
496,360,157186,6,0,B|452:364|428:328|428:328|388:360|332:344,1,180,8|0,0:0|0:0,0:0:0:0:
256,296,158340,1,0,0:0:0:0:
184,348,158724,1,2,0:0:0:0:
112,296,159109,1,0,0:0:0:0:
84,260,159301,1,0,0:0:0:0:
68,220,159493,2,0,P|52:176|52:132,1,90
256,192,160263,12,4,161801,0:0:0:0:
152,64,162570,5,0,0:0:0:0:
96,136,162955,1,0,0:0:0:0:
152,208,163340,6,0,P|184:240|228:252,1,90,4|0,0:0|0:0,0:0:0:0:
268,240,163916,1,0,0:0:0:0:
312,252,164109,2,0,L|312:344,1,90
440,296,164878,2,0,L|440:204,1,90,2|0,0:0|0:0,0:0:0:0:
440,160,165455,1,0,0:0:0:0:
440,116,165647,1,0,0:0:0:0:
364,68,166032,1,0,0:0:0:0:
288,116,166416,5,8,0:0:0:0:
288,116,166609,2,0,P|244:116|200:96,1,90
168,68,167186,2,0,L|76:68,1,90
28,144,167955,1,2,0:0:0:0:
68,224,168340,1,0,0:0:0:0:
76,268,168532,1,0,0:0:0:0:
88,312,168724,2,0,P|132:316|172:336,1,90
256,372,169493,6,0,P|304:328|372:312,1,135,8|0,0:0|0:0,0:0:0:0:
416,312,170263,1,0,0:0:0:0:
464,236,170647,1,0,0:0:0:0:
464,144,171032,2,0,L|464:52,1,90,2|0,0:0|0:0,0:0:0:0:
428,24,171609,1,0,0:0:0:0:
384,36,171801,2,0,P|344:60|300:60,1,90
224,108,172570,6,0,L|236:152,1,45,8|0,0:0|0:0,0:0:0:0:
216,192,172955,2,0,L|220:236,1,45,0|0,0:0|0:0,0:0:0:0:
208,280,173340,1,0,0:0:0:0:
96,356,173724,1,0,0:0:0:0:
28,240,174109,1,2,0:0:0:0:
132,156,174493,1,0,0:0:0:0:
132,156,174686,1,0,0:0:0:0:
132,156,174878,1,0,0:0:0:0:
216,192,175263,1,0,0:0:0:0:
292,148,175647,6,0,L|372:104,1,90,8|0,0:0|0:0,0:0:0:0:
416,100,176224,1,0,0:0:0:0:
460,116,176416,2,0,P|480:156|480:200,1,90
472,288,177186,1,2,0:0:0:0:
384,312,177570,1,0,0:0:0:0:
340,324,177763,1,0,0:0:0:0:
296,336,177955,1,0,0:0:0:0:
208,360,178340,1,0,0:0:0:0:
152,288,178724,6,0,P|124:252|88:228,1,90,8|0,0:0|0:0,0:0:0:0:
44,240,179301,1,0,0:0:0:0:
0,228,179493,2,0,L|0:136,1,90
104,52,180263,2,0,L|104:142,1,90,2|0,0:0|0:0,0:0:0:0:
120,184,180840,1,0,0:0:0:0:
140,224,181032,1,0,0:0:0:0:
184,300,181416,1,0,0:0:0:0:
320,300,181801,6,0,P|364:284|392:252,1,90,8|0,0:0|0:0,0:0:0:0:
416,212,182378,1,0,0:0:0:0:
416,168,182570,2,0,L|416:68,1,90
292,24,183340,1,2,0:0:0:0:
240,148,183724,1,0,0:0:0:0:
240,148,183916,1,0,0:0:0:0:
240,148,184109,1,0,0:0:0:0:
148,48,184493,1,0,0:0:0:0:
108,128,184878,6,0,P|100:148|84:164,1,45,8|0,0:0|0:0,0:0:0:0:
0,268,185455,2,0,P|7:247|24:232,1,45
84,300,186032,1,0,0:0:0:0:
180,360,186416,1,2,0:0:0:0:
292,340,186801,1,0,0:0:0:0:
336,324,186993,1,0,0:0:0:0:
368,292,187186,2,0,P|396:256|404:212,1,90
340,92,187955,6,0,P|312:128|304:172,1,90,4|0,0:0|0:0,0:0:0:0:
316,216,188532,1,0,0:0:0:0:
304,260,188724,2,0,L|212:260,1,90
124,260,189493,1,2,0:0:0:0:
44,300,189878,1,0,0:0:0:0:
24,260,190070,1,0,0:0:0:0:
44,220,190263,1,0,0:0:0:0:
120,168,190647,1,0,0:0:0:0:
160,88,191032,5,8,0:0:0:0:
168,44,191224,1,0,0:0:0:0:
256,64,191609,1,0,0:0:0:0:
296,84,191801,2,0,L|376:128,1,90
464,132,192570,2,0,P|452:176|420:204,1,90,2|0,0:0|0:0,0:0:0:0:
376,216,193147,1,0,0:0:0:0:
344,248,193340,2,0,L|344:340,1,90
256,376,194109,6,0,P|224:344|180:332,1,90,8|0,0:0|0:0,0:0:0:0:
140,348,194686,1,0,0:0:0:0:
96,332,194878,2,0,L|96:236,1,90
96,152,195647,1,2,0:0:0:0:
120,64,196032,2,0,P|96:60|76:64,2,45
180,128,196801,1,0,0:0:0:0:
308,80,197186,5,8,0:0:0:0:
324,121,197378,1,0,0:0:0:0:
322,166,197570,1,0,0:0:0:0:
303,206,197763,1,0,0:0:0:0:
269,235,197955,1,0,0:0:0:0:
180,128,198340,1,0,0:0:0:0:
322,166,198724,1,2,0:0:0:0:
404,128,199109,2,0,L|444:108,1,45
488,108,199493,2,0,P|504:148|504:196,1,90
468,276,200263,6,0,B|428:248|380:256|380:256|348:288,1,135,8|0,0:0|0:0,0:0:0:0:
324,324,201032,1,0,0:0:0:0:
236,324,201416,1,0,0:0:0:0:
176,204,201801,1,2,0:0:0:0:
76,296,202186,2,0,L|44:328,2,45
84,208,202955,1,0,0:0:0:0:
76,120,203340,6,0,L|72:76,1,45,8|0,0:0|0:0,0:0:0:0:
148,28,203916,1,0,0:0:0:0:
192,28,204109,2,0,P|236:36|272:64,1,90
312,144,204878,1,2,0:0:0:0:
392,104,205263,2,0,P|400:124|400:148,1,45,0|0,0:0|0:0,0:0:0:0:
416,188,205647,2,0,P|428:204|456:220,2,45
300,204,206416,6,0,P|268:232|244:276,1,90,8|0,0:0|0:0,0:0:0:0:
252,316,206993,1,0,0:0:0:0:
212,340,207186,2,0,L|120:340,1,90
32,340,207955,1,2,0:0:0:0:
12,248,208340,1,0,0:0:0:0:
4,204,208532,1,0,0:0:0:0:
12,160,208724,2,0,P|24:112|48:80,1,90
156,148,209493,6,0,L|176:188,1,45,8|0,0:0|0:0,0:0:0:0:
356,148,210070,2,0,L|336:188,1,45
256,296,210647,1,0,0:0:0:0:
256,144,211032,1,2,0:0:0:0:
256,296,211416,1,0,0:0:0:0:
228,332,211609,1,0,0:0:0:0:
196,364,211801,2,0,P|152:352|108:352,1,90
24,316,212570,6,0,P|0:256|0:184,1,135,4|0,0:0|0:0,0:0:0:0:
12,144,213340,1,0,0:0:0:0:
72,76,213724,1,0,0:0:0:0:
156,108,214109,2,0,P|196:104|236:76,1,90,2|0,0:0|0:0,0:0:0:0:
272,48,214686,1,0,0:0:0:0:
304,76,214878,2,0,L|368:140,1,90
416,215,215647,6,0,P|433:202|447:184,1,45,2|0,0:0|0:0,0:0:0:0:
379,300,216224,2,0,P|382:322|391:343,1,45,0|0,0:0|0:0,0:0:0:0:
324,228,216801,2,0,P|282:210|236:212,1,90,0|2,0:0|0:0,0:0:0:0:
180,336,217570,2,0,P|200:344|224:344,1,45
268,344,217955,1,0,0:0:0:0:
238,211,218340,1,0,0:0:0:0:
156,248,218724,5,2,0:0:0:0:
32,192,219109,1,0,0:0:0:0:
20,148,219301,1,0,0:0:0:0:
20,104,219493,2,0,P|48:68|88:48,1,90
176,32,220263,1,2,0:0:0:0:
244,92,220647,2,0,L|280:124,2,45
176,32,221416,1,0,0:0:0:0:
336,32,221801,5,2,0:0:0:0:
360,68,221993,2,0,P|380:108|384:152,1,90
380,192,222570,1,0,0:0:0:0:
256,248,222955,1,0,0:0:0:0:
132,192,223340,1,2,0:0:0:0:
256,64,223724,1,0,0:0:0:0:
256,108,223916,1,0,0:0:0:0:
256,160,224109,2,0,B|244:204|272:208|256:248,1,90
256,340,224878,5,4,0:0:0:0:
