osu file format v13

[General]
AudioFilename: Shirobon - Under The Moonlight.mp3
AudioLeadIn: 0
PreviewTime: -1
Countdown: 1
SampleSet: Normal
StackLeniency: 0.7
Mode: 0
LetterboxInBreaks: 1
WidescreenStoryboard: 0

[Editor]
DistanceSpacing: 1.2
BeatDivisor: 4
GridSize: 4
TimelineZoom: 1

[Metadata]
Title:Under The Moonlight
TitleUnicode:Under The Moonlight
Artist:Shirobon
ArtistUnicode:Shirobon
Creator:Cydros
Version:Insane
Source:
Tags:Shirobon Under The Moonlight Cydros Chiptune
BeatmapID:482313
BeatmapSetID:204236

[Difficulty]
HPDrainRate:8
CircleSize:4.3
OverallDifficulty:8.5
ApproachRate:8.5
SliderMultiplier:1.4
SliderTickRate:1

[Events]
//Background and Video events
0,0,"ZJdWui9.png",0,0
//Break Periods
//Storyboard Layer 0 (Background)
//Storyboard Layer 1 (Fail)
//Storyboard Layer 2 (Pass)
//Storyboard Layer 3 (Foreground)
//Storyboard Sound Samples
//Background Colour Transformations
3,100,163,162,255

[TimingPoints]
800,428.571428571429,4,1,0,50,1,0
10228,-200,4,1,0,50,0,0
11085,-100,4,1,0,50,0,0
55014,-100,4,1,0,50,0,1
81585,-100,4,1,0,50,0,0
171585,-100,4,1,0,50,0,1
199014,-100,4,1,0,50,0,0

[HitObjects]
108,88,800,5,0,0:0:0:0:
184,160,1014,1,0,0:0:0:0:
276,108,1228,2,0,P|312:84|360:76,1,70,0|8,0:0|0:0,0:0:0:0:
256,192,1657,12,0,2942,0:0:0:0:
256,192,3157,5,0,0:0:0:0:
256,192,3371,12,0,4442,0:0:0:0:
132,308,5942,5,0,0:0:0:0:
284,236,6371,1,0,0:0:0:0:
140,84,7014,1,0,0:0:0:0:
352,80,7657,5,0,0:0:0:0:
364,112,7764,1,0,0:0:0:0:
368,148,7871,2,0,P|356:188|332:212,2,70,0|0|0,0:0|0:0|0:0,0:0:0:0:
256,192,8514,12,0,10014,0:0:0:0:
212,192,10228,6,0,P|248:148|304:196,1,140,0|8,0:0|0:0,0:0:0:0:
268,312,12800,6,0,P|308:296|316:256,1,70
304,172,13228,1,0,0:0:0:0:
200,196,13442,1,0,0:0:0:0:
224,92,13657,1,0,0:0:0:0:
256,192,13871,12,0,14942,0:0:0:0:
156,148,15157,5,0,0:0:0:0:
236,80,15371,2,0,L|272:56,1,35
328,144,15692,1,0,0:0:0:0:
356,268,16014,1,0,0:0:0:0:
328,288,16121,1,0,0:0:0:0:
300,308,16228,2,0,L|316:340,1,35
212,280,16550,1,0,0:0:0:0:
148,200,16764,1,0,0:0:0:0:
112,156,16871,1,0,0:0:0:0:
76,112,16978,1,0,0:0:0:0:
256,192,17085,12,0,18371,0:0:0:0:
148,184,19657,5,0,0:0:0:0:
244,84,19871,1,0,0:0:0:0:
348,176,20085,1,0,0:0:0:0:
404,304,20300,1,0,0:0:0:0:
304,340,20514,1,0,0:0:0:0:
160,100,21371,5,0,0:0:0:0:
140,128,21478,1,0,0:0:0:0:
132,160,21585,2,0,P|128:200|140:236,2,70,0|0|0,0:0|0:0|0:0,0:0:0:0:
236,164,22228,1,0,0:0:0:0:
256,192,22335,12,0,23514,0:0:0:0:
384,160,23942,6,0,P|380:212|360:236,1,70,0|4,0:0|0:0,0:0:0:0:
240,100,24585,1,0,0:0:0:0:
120,220,25014,1,4,0:0:0:0:
152,324,25442,1,4,0:0:0:0:
252,264,25657,1,4,0:0:0:0:
336,324,25871,1,4,0:0:0:0:
416,256,26085,1,4,0:0:0:0:
348,176,26300,1,4,0:0:0:0:
380,100,26514,1,4,0:0:0:0:
356,72,26621,5,0,0:0:0:0:
320,60,26728,1,0,0:0:0:0:
280,60,26835,1,0,0:0:0:0:
244,76,26942,1,0,0:0:0:0:
184,124,27157,1,0,0:0:0:0:
132,200,27371,5,0,0:0:0:0:
152,236,27478,1,0,0:0:0:0:
184,264,27585,2,0,P|216:292|228:344,1,70,0|4,0:0|0:0,0:0:0:0:
328,288,28014,1,0,0:0:0:0:
436,160,28442,1,0,0:0:0:0:
388,92,28657,2,0,P|360:52|336:36,1,70
280,92,29085,5,0,0:0:0:0:
228,160,29300,2,0,P|180:184|152:180,1,70
152,116,29728,2,0,P|172:72|168:40,1,70
100,64,30157,1,0,0:0:0:0:
52,132,30371,1,0,0:0:0:0:
116,288,30800,6,0,P|152:324|156:344,1,70
212,280,31228,1,0,0:0:0:0:
280,228,31442,2,0,P|328:220|372:232,1,70
428,256,31871,1,0,0:0:0:0:
472,336,32085,1,0,0:0:0:0:
344,336,32514,6,0,P|296:320|280:300,2,70,0|0|0,0:0|0:0|0:0,0:0:0:0:
352,244,33157,1,0,0:0:0:0:
416,180,33371,1,0,0:0:0:0:
328,156,33585,1,0,0:0:0:0:
240,100,33800,1,0,0:0:0:0:
232,204,34014,6,0,P|208:248|184:268,1,70
92,276,34442,1,0,0:0:0:0:
96,64,34871,1,0,0:0:0:0:
308,64,35300,1,0,0:0:0:0:
388,132,35514,1,0,0:0:0:0:
424,232,35728,1,0,0:0:0:0:
368,320,35942,2,0,P|332:348|296:348,1,70
288,248,36371,1,0,0:0:0:0:
152,272,36585,5,0,0:0:0:0:
92,144,36800,1,0,0:0:0:0:
180,84,37014,1,0,0:0:0:0:
180,84,37228,1,0,0:0:0:0:
368,64,37657,6,0,P|372:112|360:140,1,70
272,180,38085,1,0,0:0:0:0:
184,240,38300,2,0,P|164:280|164:312,1,70
264,324,38728,1,0,0:0:0:0:
356,260,38942,1,0,0:0:0:0:
456,300,39371,6,0,P|424:336|392:348,2,70,0|0|0,0:0|0:0|0:0,0:0:0:0:
460,196,40014,1,0,0:0:0:0:
404,108,40228,1,0,0:0:0:0:
316,164,40442,1,0,0:0:0:0:
208,80,40764,1,0,0:0:0:0:
88,144,41085,1,0,0:0:0:0:
76,200,41192,1,0,0:0:0:0:
72,256,41300,1,8,0:0:0:0:
172,316,41621,5,0,0:0:0:0:
172,316,41728,1,8,0:0:0:0:
272,284,41942,1,0,0:0:0:0:
376,276,42157,2,0,P|416:296|436:328,1,70,8|0,0:0|0:0,0:0:0:0:
428,188,42585,1,8,0:0:0:0:
352,116,42800,2,0,P|324:80|324:44,2,70,0|8|0,0:0|0:0|0:0,0:0:0:0:
268,176,43442,1,8,0:0:0:0:
192,104,43657,1,0,0:0:0:0:
96,60,43871,1,8,0:0:0:0:
52,164,44085,1,0,0:0:0:0:
128,328,44514,6,0,P|172:292|200:292,1,70,0|8,0:0|0:0,0:0:0:0:
272,288,44942,1,8,0:0:0:0:
372,324,45157,1,8,0:0:0:0:
452,256,45371,1,8,0:0:0:0:
404,156,45585,1,8,0:0:0:0:
292,176,45800,1,0,0:0:0:0:
124,168,46228,6,0,P|120:128|136:104,1,70,0|8,0:0|0:0,0:0:0:0:
204,56,46657,1,0,0:0:0:0:
288,64,46871,1,0,0:0:0:0:
288,64,46978,1,0,0:0:0:0:
288,64,47085,1,8,0:0:0:0:
348,124,47300,1,8,0:0:0:0:
428,80,47514,1,0,0:0:0:0:
452,168,47728,6,0,P|448:220|424:248,1,70,8|0,0:0|0:0,0:0:0:0:
368,288,48157,1,8,0:0:0:0:
164,344,48585,1,8,0:0:0:0:
88,148,49014,1,8,0:0:0:0:
136,56,49228,5,0,0:0:0:0:
252,120,49442,1,8,0:0:0:0:
256,220,49657,2,0,P|260:264|276:288,1,70,0|8,0:0|0:0,0:0:0:0:
308,344,50085,1,0,0:0:0:0:
436,300,50300,1,8,0:0:0:0:
388,176,50514,1,0,0:0:0:0:
360,48,50728,2,0,P|404:32|444:28,1,70,8|0,0:0|0:0,0:0:0:0:
244,224,51371,6,0,P|228:268|204:296,1,70
188,312,51692,5,0,0:0:0:0:
163,336,51799,1,0,0:0:0:0:
130,345,51906,1,0,0:0:0:0:
97,334,52013,1,0,0:0:0:0:
74,308,52120,1,0,0:0:0:0:
69,274,52227,1,0,0:0:0:0:
68,240,52335,1,0,0:0:0:0:
67,205,52442,1,0,0:0:0:0:
74,170,52549,1,0,0:0:0:0:
89,139,52656,5,0,0:0:0:0:
111,112,52763,1,0,0:0:0:0:
139,91,52870,1,0,0:0:0:0:
171,77,52977,1,0,0:0:0:0:
205,70,53084,1,0,0:0:0:0:
240,72,53192,1,0,0:0:0:0:
272,92,53300,1,0,0:0:0:0:
292,120,53407,1,0,0:0:0:0:
294,154,53514,1,0,0:0:0:0:
279,185,53621,1,0,0:0:0:0:
249,203,53728,1,0,0:0:0:0:
215,203,53835,1,0,0:0:0:0:
185,186,53942,1,0,0:0:0:0:
224,136,54050,5,0,0:0:0:0:
224,136,54157,1,0,0:0:0:0:
224,136,54264,1,0,0:0:0:0:
224,136,54371,1,0,0:0:0:0:
224,136,54478,1,0,0:0:0:0:
224,136,54585,1,0,0:0:0:0:
344,76,54800,1,0,0:0:0:0:
344,76,54907,1,0,0:0:0:0:
344,76,55014,5,0,0:0:0:0:
404,120,55228,2,0,P|424:180|424:208,1,70
384,284,55657,1,0,0:0:0:0:
296,204,55871,1,2,0:0:0:0:
180,236,56085,1,0,0:0:0:0:
180,236,56300,1,0,0:0:0:0:
116,336,56514,6,0,P|72:308|64:276,1,70
64,252,56835,1,0,0:0:0:0:
64,217,56942,1,0,0:0:0:0:
64,182,57049,1,0,0:0:0:0:
69,147,57156,1,0,0:0:0:0:
82,115,57263,1,0,0:0:0:0:
111,95,57370,1,0,0:0:0:0:
145,88,57477,1,0,0:0:0:0:
180,87,57584,1,2,0:0:0:0:
276,112,57800,6,0,P|316:148|328:180,2,70,0|0|0,0:0|0:0|0:0,0:0:0:0:
336,36,58442,1,0,0:0:0:0:
420,88,58657,1,0,0:0:0:0:
360,172,58871,2,0,L|316:228,1,70
236,284,59300,1,0,0:0:0:0:
236,284,59407,5,0,0:0:0:0:
236,284,59514,1,0,0:0:0:0:
140,332,59728,1,0,0:0:0:0:
104,196,59942,1,0,0:0:0:0:
192,88,60157,1,0,0:0:0:0:
260,88,60264,1,0,0:0:0:0:
300,92,60371,1,0,0:0:0:0:
340,104,60478,1,0,0:0:0:0:
368,128,60585,2,0,P|392:160|400:192,1,70
400,228,60907,1,0,0:0:0:0:
376,260,61014,2,0,P|332:300|296:312,2,70,0|0|0,0:0|0:0|0:0,0:0:0:0:
340,232,61550,5,0,0:0:0:0:
308,216,61657,1,0,0:0:0:0:
272,208,61764,1,0,0:0:0:0:
236,216,61871,2,0,P|196:240|176:272,1,70
160,288,62192,1,0,0:0:0:0:
124,304,62300,1,0,0:0:0:0:
84,300,62407,1,0,0:0:0:0:
60,268,62514,2,0,P|56:216|68:184,1,70
112,124,62942,5,0,0:0:0:0:
180,72,63157,2,0,P|216:64|252:64,1,70
332,76,63585,1,0,0:0:0:0:
372,136,63692,1,0,0:0:0:0:
372,171,63799,1,0,0:0:0:0:
372,206,63906,1,0,0:0:0:0:
360,252,64014,2,0,P|328:288|288:288,1,70
264,292,64335,1,0,0:0:0:0:
220,292,64442,1,0,0:0:0:0:
128,300,64657,6,0,P|84:308|48:340,2,70,0|0|0,0:0|0:0|0:0,0:0:0:0:
88,196,65300,1,0,0:0:0:0:
200,184,65514,1,0,0:0:0:0:
184,72,65728,1,0,0:0:0:0:
96,48,65942,2,0,P|64:64|64:104,1,70
132,132,66371,1,0,0:0:0:0:
248,116,66585,1,0,0:0:0:0:
264,208,66800,2,0,P|280:256|312:292,1,70
336,272,67121,5,0,0:0:0:0:
380,272,67228,1,0,0:0:0:0:
420,252,67335,1,0,0:0:0:0:
432,208,67442,2,0,P|440:152|436:132,1,70
408,108,67764,1,0,0:0:0:0:
364,104,67871,2,0,L|288:96,1,70
248,88,68192,1,0,0:0:0:0:
204,100,68300,5,0,0:0:0:0:
172,132,68407,1,0,0:0:0:0:
148,172,68514,1,0,0:0:0:0:
144,216,68621,1,0,0:0:0:0:
152,260,68728,1,0,0:0:0:0:
288,292,68942,5,0,0:0:0:0:
424,332,69157,1,0,0:0:0:0:
412,228,69371,2,0,P|400:176|400:144,1,70
440,68,69800,1,0,0:0:0:0:
336,108,70014,1,0,0:0:0:0:
224,108,70228,2,0,P|184:84|164:64,1,70
124,68,70550,5,0,0:0:0:0:
92,82,70657,1,0,0:0:0:0:
72,110,70764,1,0,0:0:0:0:
62,144,70871,1,0,0:0:0:0:
62,178,70978,1,0,0:0:0:0:
71,212,71085,1,0,0:0:0:0:
90,241,71192,1,0,0:0:0:0:
118,262,71299,1,2,0:0:0:0:
212,308,71514,6,0,P|256:336|272:356,2,70,0|0|0,0:0|0:0|0:0,0:0:0:0:
256,212,72157,1,0,0:0:0:0:
176,144,72371,1,0,0:0:0:0:
100,72,72585,1,0,0:0:0:0:
200,44,72800,2,0,P|264:40|288:44,1,70
292,144,73228,1,0,0:0:0:0:
184,232,73442,1,0,0:0:0:0:
172,336,73657,2,0,P|216:348|260:348,1,70
280,344,73978,5,0,0:0:0:0:
320,348,74085,1,0,0:0:0:0:
360,336,74192,1,0,0:0:0:0:
396,312,74300,2,0,P|432:284|448:264,1,70
456,228,74621,5,0,0:0:0:0:
452,188,74728,1,0,0:0:0:0:
440,152,74835,1,0,0:0:0:0:
427,119,74942,1,0,0:0:0:0:
404,93,75049,1,0,0:0:0:0:
374,76,75156,1,0,0:0:0:0:
339,71,75263,1,0,0:0:0:0:
305,78,75370,1,0,0:0:0:0:
275,96,75477,1,0,0:0:0:0:
254,123,75584,1,0,0:0:0:0:
340,188,75800,5,0,0:0:0:0:
356,292,76014,1,0,0:0:0:0:
256,324,76228,2,0,P|200:336|176:328,1,70
88,300,76657,1,0,0:0:0:0:
176,244,76871,1,0,0:0:0:0:
132,148,77085,2,0,P|112:112|124:84,1,70
160,68,77407,1,0,0:0:0:0:
200,56,77514,1,0,0:0:0:0:
240,52,77621,1,0,0:0:0:0:
280,56,77728,6,0,P|320:48|348:40,1,70
388,44,78050,1,0,0:0:0:0:
420,68,78157,1,0,0:0:0:0:
404,152,78371,2,0,P|444:196|468:200,2,70,0|0|0,0:0|0:0|0:0,0:0:0:0:
300,172,79014,1,0,0:0:0:0:
380,252,79228,5,0,0:0:0:0:
276,296,79442,1,0,0:0:0:0:
220,196,79657,2,0,P|224:148|216:124,1,70
172,32,80085,1,0,0:0:0:0:
68,52,80300,1,0,0:0:0:0:
44,132,80514,2,0,P|32:176|40:212,1,70
52,240,80835,5,0,0:0:0:0:
72,276,80942,1,0,0:0:0:0:
108,300,81050,1,0,0:0:0:0:
148,312,81157,2,0,P|188:312|212:296,1,70
240,264,81478,5,0,0:0:0:0:
244,224,81585,1,0,0:0:0:0:
256,184,81692,1,0,0:0:0:0:
284,152,81800,1,0,0:0:0:0:
316,124,81907,1,0,0:0:0:0:
