osu file format v13

[General]
AudioFilename: nanana.mp3
AudioLeadIn: 2000
PreviewTime: 35475
Countdown: 0
SampleSet: Soft
StackLeniency: 0.7
Mode: 0
LetterboxInBreaks: 0
WidescreenStoryboard: 0

[Editor]
DistanceSpacing: 1.1
BeatDivisor: 4
GridSize: 4
TimelineZoom: 1.2

[Metadata]
Title:Butterfly Effect (TV Size)
TitleUnicode:バタフライエフェクト (TV Size)
Artist:Shiritsu Ebisu Chuugaku
ArtistUnicode:私立惠比寿中学
Creator:xxdeathx
Version:Easy
Source:Ryuugajou Nanana no Maizoukin
Tags:nanana's buried treasure opening theme op anime kin 龍ヶ嬢七々々の埋蔵金
BeatmapID:419573
BeatmapSetID:173664

[Difficulty]
HPDrainRate:2
CircleSize:3
OverallDifficulty:2
ApproachRate:2
SliderMultiplier:0.76
SliderTickRate:2

[Events]
//Background and Video events
Video,-418,"nananavid.avi"
0,0,"bg.png",0,0
//Break Periods
//Storyboard Layer 0 (Background)
//Storyboard Layer 1 (Fail)
//Storyboard Layer 2 (Pass)
//Storyboard Layer 3 (Foreground)
//Storyboard Sound Samples
//Background Colour Transformations
3,100,163,162,255

[TimingPoints]
150,355.029585798817,4,2,1,70,1,0
4410,-100,4,2,1,90,0,0
5830,-100,4,2,1,70,0,0
6540,-100,4,2,1,60,0,0
8670,-100,4,2,1,70,0,0
9913,-100,4,2,1,50,0,0
11510,-100,4,2,1,60,0,0
20031,-100,4,2,1,90,0,0
22871,-100,4,2,1,60,0,0
31392,-100,4,2,1,90,0,0
33877,-100,4,2,1,70,0,0
35652,-100,4,2,1,80,0,1
44173,-100,4,2,1,80,0,0
49499,-100,4,2,1,80,0,0
51274,-100,4,2,1,80,0,1
62635,-90.9090909090909,4,2,1,90,0,1
68315,-90.9090909090909,4,2,1,80,0,1
73996,-100,4,2,1,70,0,0
74706,-100,4,2,1,60,0,0
76836,-100,4,2,1,70,0,0
78078,-100,4,2,1,50,0,0
79676,-100,4,2,1,70,0,0
80386,-100,4,2,1,60,0,0
82516,-100,4,2,1,70,0,0
83759,-100,4,2,1,50,0,0
88197,-100,4,2,1,5,0,0

[Colours]
Combo1 : 255,0,0
Combo2 : 255,129,2
Combo3 : 170,170,255
Combo4 : 213,62,251
Combo5 : 242,208,13

[HitObjects]
52,268,150,6,0,P|112:320|192:304,1,152,12|8,0:0|0:0,0:0:0:0:
260,332,1215,1,8,0:0:0:0:
240,252,1570,2,0,P|200:228|132:240,2,114,8|0|8,0:0|1:0|0:0,0:0:0:0:
324,268,2990,6,0,P|368:252|388:224,1,76,8|8,0:0|0:0,0:0:0:0:
316,188,3700,2,0,L|236:160,1,76,8|8,0:0|0:0,0:0:0:0:
256,192,4410,12,4,5830,0:0:0:0:
420,200,6540,5,0,1:0:0:0:
344,300,7073,2,0,P|284:296|232:328,1,114,0|8,1:0|0:0,0:0:0:0:
176,264,7960,2,0,L|104:236,1,76,0|8,1:0|0:0,0:0:0:0:
136,160,8670,6,0,L|207:188,1,76,0|8,1:0|0:0,0:0:0:0:
284,220,9380,2,0,P|340:224|389:198,1,114,0|4,1:0|0:0,0:0:0:0:
256,192,10090,12,4,11510,1:2:0:0:
392,164,12221,6,0,P|376:200|308:228,2,114,0|0|8,1:0|1:0|0:0,1:0:0:0:
436,92,13641,2,0,P|396:80|348:92,1,76,0|8,1:0|0:0,1:0:0:0:
304,144,14351,6,0,L|152:88,1,152,4|8,1:2|0:0,1:0:0:0:
76,184,15593,2,0,P|128:208|160:260,1,114,8|8,0:0|0:0,1:0:0:0:
172,336,16481,2,0,L|260:336,1,76,0|8,1:0|0:0,1:0:0:0:
304,272,17191,5,4,1:2:0:0:
312,104,17901,2,0,P|275:61|219:54,2,114,8|8|8,0:0|0:0|0:0,1:0:0:0:
328,188,19321,2,0,L|316:272,1,76,0|8,1:0|0:0,1:0:0:0:
400,280,20031,6,0,L|412:192,1,76,4|8,1:2|0:0,0:0:0:0:
460,136,20741,1,12,0:0:0:0:
336,132,21274,2,0,B|304:136|272:136|272:136|220:76|152:112,1,190,12|4,0:0|1:2,0:0:0:0:
116,180,22516,1,8,0:0:0:0:
200,180,22871,5,4,1:2:0:0:
360,232,23581,2,0,L|260:287,2,114,0|0|8,1:0|1:0|0:0,0:0:0:0:
440,212,25002,2,0,P|420:176|388:156,1,76,0|8,1:0|0:0,0:0:0:0:
308,172,25712,6,0,P|268:208|164:188,1,152,4|8,1:2|0:0,0:0:0:0:
228,84,26954,2,0,P|272:44|338:50,1,114,0|0,1:0|1:0,0:0:0:0:
300,124,27842,2,0,L|308:204,1,76,8|8,0:0|0:0,0:0:0:0:
268,276,28552,6,0,B|320:304|384:272|392:216,1,152,4|8,1:2|0:0,0:0:0:0:
344,108,29794,2,0,L|228:96,1,114,0|8,1:0|0:0,0:0:0:0:
208,176,30682,2,0,L|288:184,1,76,0|8,1:0|0:0,0:0:0:0:
316,260,31392,6,0,P|284:280|232:292,1,76,4|12,1:2|0:2,0:0:0:0:
200,360,32102,1,0,1:0:0:0:
108,276,32635,2,0,P|140:216|196:200,1,114,4|12,1:2|0:2,0:0:0:0:
264,196,33522,1,4,1:2:0:0:
264,280,33877,2,0,L|188:280,1,76,12|8,1:2|0:0,0:0:0:0:
148,120,34942,2,0,L|224:120,1,76,0|8,1:0|0:0,0:0:0:0:
292,72,35652,6,0,P|360:56|424:108,1,152,4|0,1:2|1:0,0:0:0:0:
344,140,36718,1,8,0:0:0:0:
260,156,37073,2,0,L|112:92,1,152,0|0,1:0|1:0,0:0:0:0:
40,76,38138,1,8,0:0:0:0:
76,152,38493,6,0,P|36:216|63:285,1,152,4|0,1:2|1:0,0:0:0:0:
140,304,39558,1,8,0:0:0:0:
120,224,39913,2,0,P|184:232|224:308,1,152,0|0,1:0|1:0,0:0:0:0:
300,336,40978,1,8,0:0:0:0:
384,332,41333,6,0,P|448:284|436:204,1,152,4|0,1:2|1:0,0:0:0:0:
376,168,42398,1,8,0:0:0:0:
372,252,42753,2,0,P|328:248|256:220,2,114,0|0|8,1:0|1:0|0:0,0:0:0:0:
448,220,44173,5,4,0:2:0:0:
468,140,44528,2,0,L|376:64,1,114,12|12,0:2|0:2,0:0:0:0:
328,132,45416,2,0,P|284:136|280:208,1,114,4|12,1:2|0:2,0:0:0:0:
328,256,46303,2,0,P|292:276|248:276,1,76,4|12,1:2|0:2,0:0:0:0:
184,320,47013,5,0,1:0:0:0:
104,304,47368,2,0,P|64:236|148:188,1,190,12|12,0:0|0:0,0:0:0:0:
224,208,48611,2,0,L|340:240,1,114,8|8,0:2|0:0,0:0:0:0:
340,320,49499,6,0,P|416:248|352:160,1,228,8|8,0:0|0:0,0:0:0:0:
204,228,51274,6,0,L|132:316,1,114,4|0,0:0|1:0,0:0:0:0:
92,196,52339,1,8,0:0:0:0:
160,148,52694,2,0,P|212:136|268:164,1,114,0|0,1:0|1:0,0:0:0:0:
308,280,53759,1,8,0:0:0:0:
392,288,54114,6,0,L|456:188,1,114,0|0,1:0|1:0,0:0:0:0:
416,72,55179,1,8,0:0:0:0:
348,120,55534,2,0,P|296:108|240:132,1,114,4|4,1:2|1:2,0:0:0:0:
124,88,56599,1,8,0:0:0:0:
168,160,56954,6,0,L|240:252,1,114,4|0,1:2|1:0,0:0:0:0:
360,284,58019,1,8,0:0:0:0:
288,328,58374,2,0,P|228:344|176:316,1,114,0|0,1:0|1:0,0:0:0:0:
60,348,59439,1,8,0:0:0:0:
80,268,59794,6,0,L|196:224,1,114,0|0,1:0|1:0,0:0:0:0:
312,208,60860,1,8,0:0:0:0:
288,288,61215,2,0,P|344:288|388:240,1,114,4|0,1:2|1:0,0:0:0:0:
384,124,62280,1,8,0:0:0:0:
320,56,62635,6,0,L|228:56,1,83.6000025512696,4|8,1:2|0:0,0:0:0:0:
216,144,63345,2,0,L|308:144,1,83.6000025512696,8|8,0:0|0:0,0:0:0:0:
316,236,64055,2,0,L|224:236,1,83.6000025512696,8|8,0:0|0:0,0:0:0:0:
212,324,64765,2,0,L|304:324,1,83.6000025512696,8|8,0:0|0:0,0:0:0:0:
381,290,65475,6,0,L|302:224,1,83.6000025512696,8|8,0:0|0:0,0:0:0:0:
376,164,66185,2,0,L|277:137,1,83.6000025512696,8|8,0:0|0:0,0:0:0:0:
292,52,66895,2,0,L|172:92,1,125.400003826904,8|4,0:0|1:2,0:0:0:0:
248,208,67960,1,8,0:0:0:0:
276,296,68315,6,0,P|320:268|336:224,1,83.6000025512696,8|8,0:0|0:0,0:0:0:0:
304,152,69025,1,8,0:0:0:0:
220,116,69380,1,8,0:0:0:0:
152,52,69735,6,0,P|128:100|132:144,1,83.6000025512696,8|8,0:0|0:0,0:0:0:0:
196,192,70445,1,8,0:0:0:0:
280,228,70800,1,8,0:0:0:0:
368,256,71155,6,0,P|336:300|292:316,1,83.6000025512696,8|8,0:0|0:0,0:0:0:0:
224,288,71865,1,8,0:0:0:0:
132,304,72221,2,0,P|132:263|154:228,1,83.6000025512696,8|8,0:0|0:0,0:0:0:0:
236,188,72931,2,0,L|288:196,1,41.8000012756348,8|4,0:0|1:2,0:0:0:0:
468,104,73996,6,0,L|384:88,1,76,0|8,1:0|0:0,0:0:0:0:
312,112,74706,2,0,P|260:88|188:96,2,114,0|0|8,1:0|1:0|0:0,0:0:0:0:
280,188,76126,2,0,L|204:224,1,76,0|8,1:0|0:0,0:0:0:0:
132,200,76836,6,0,L|56:207,2,76,4|8|0,1:2|0:0|1:0,0:0:0:0:
152,324,78078,2,0,P|216:300|240:264,1,114,0|8,1:0|0:0,0:0:0:0:
256,180,78966,1,0,1:0:0:0:
268,96,79321,1,8,0:0:0:0:
328,152,79676,6,0,L|376:228,1,76,4|8,1:2|0:0,0:0:0:0:
296,260,80386,2,0,P|348:300|408:292,2,114,0|0|8,1:0|1:0|0:0,0:0:0:0:
212,276,81806,2,0,P|176:299|139:301,1,76,0|8,1:0|0:0,0:0:0:0:
80,248,82516,5,4,1:2:0:0:
92,164,82871,1,8,0:0:0:0:
156,220,83226,2,0,P|196:196|268:220,1,114,0|4,1:0|1:2,0:0:0:0:
468,348,84824,6,0,L|348:348,1,114,4|2,1:2|0:0,0:0:0:0:
256,192,85534,12,0,88197,0:0:0:0:
