osu file format v8

[General]
AudioFilename: Mizore Shirayuki's Song!.mp3
AudioLeadIn: 0
PreviewTime: 57231
Countdown: 1
SampleSet: Soft
StackLeniency: 0.7
Mode: 0
LetterboxInBreaks: 1

[Editor]
Bookmarks: 1510
DistanceSpacing: 0.8
BeatDivisor: 4
GridSize: 8

[Metadata]
Title:SnowStorm (TV Size)
Artist:Shirayuki Mizore
Creator:CzekoMisiek
Version:Snow!!
Source:Rosario + Vampire Capu 2
Tags:Snow Storm Mizore Shirayuki

[Difficulty]
HPDrainRate:7
CircleSize:5
OverallDifficulty:6
ApproachRate:6
SliderMultiplier:1.4
SliderTickRate:2

[Events]
//Background and Video events
0,0,"Konachan.com - 33959 rosario+vampire shirayuki_mizore.jpg"
Video,3226,"Rosario_Vampire_Capu2_Mizore-Chan_SnowStorm.flv"
//Break Periods
//Storyboard Layer 0 (Background)
//Storyboard Layer 1 (Fail)
//Storyboard Layer 2 (Pass)
//Storyboard Layer 3 (Foreground)
//Storyboard Sound Samples
//Background Colour Transformations
3,100,163,162,255

[TimingPoints]
65016,566.037735849057,4,2,1,43,1,0
65020,-100,4,2,1,43,0,1
67257,-100,4,2,1,43,0,0
67284,-100,4,2,1,43,0,1
74009,-100,4,2,1,43,0,0
74076,-100,4,2,1,43,0,1
76246,-100,4,2,1,43,0,0
76340,-100,4,2,1,43,0,1
84831,-100,4,2,1,43,0,0

[Colours]
Combo1 : 86,220,243
Combo2 : 255,255,255
Combo3 : 53,169,255

[HitObjects]
176,296,14355,1,0
232,288,14638,1,2
280,256,14921,1,0
320,216,15204,1,2
376,152,15629,1,2
304,136,16619,5,0
248,152,16902,1,2
200,184,17185,1,0
168,232,17468,1,2
128,304,17893,1,2
432,272,19166,5,0
432,216,19449,1,0
416,160,19732,1,2
336,80,20299,1,0
280,80,20582,1,0
224,88,20865,5,2
176,120,21148,1,0
144,168,21431,1,0
136,224,21714,1,0
160,272,21997,1,2
256,192,22421,12,0,24544
432,48,25959,5,8
432,104,26242,1,0
432,160,26525,1,2
432,272,27091,1,8
376,272,27374,1,0
320,272,27657,1,2
320,216,27940,2,0,B|320:136,3,70,0|8|0|2
320,88,29072,5,0
264,88,29355,1,8
208,88,29638,1,0
152,88,29921,1,4
80,176,30487,5,8
104,224,30770,1,0
152,256,31053,1,2
200,288,31336,1,0
248,320,31619,1,8
304,328,31902,1,0
360,320,32185,2,0,B|456:296|480:208|480:208,2,140,2|8|2
192,328,34166,5,2
192,272,34449,1,0
192,216,34732,1,0
192,160,35015,1,4
200,48,35582,5,2
144,48,35865,1,0
88,48,36148,1,8
16,48,36714,2,0,B|-8:120|32:200,1,140,2|8
64,224,37563,1,0
112,248,37846,1,2
224,280,38412,5,8
272,256,38695,1,0
296,240,38836,2,0,B|360:184|384:88,1,175,2|8
360,40,39827,1,0
304,40,40110,1,4
192,56,40676,5,0
152,96,40959,1,0
120,144,41242,1,4
104,200,41525,1,0
96,256,41808,1,0
104,312,42091,1,0
152,336,42374,2,0,B|200:376|240:384|288:352,1,140,2|8
336,336,43223,5,0
376,296,43506,1,2
440,208,44072,5,8
448,152,44355,1,0
440,96,44638,1,0
368,48,45063,1,0
336,40,45204,5,0
280,40,45487,2,0,B|184:32|136:80,1,140,2|0
128,120,46336,5,8
128,176,46619,2,0,B|128:280|152:352|224:368,1,210,0|8
256,344,47751,5,0
312,344,48034,1,4
456,144,48600,5,8
424,96,48883,1,0
376,72,49166,1,2
296,56,49591,1,0
264,56,49732,1,8
208,56,50015,1,0
96,80,50582,6,0,B|24:184|32:272|80:328|208:352,1,350,2|8
240,352,52280,1,0
296,336,52563,1,2
344,304,52846,1,0
384,264,53129,1,8
448,88,53695,5,2
368,88,54119,1,8
280,88,54544,1,2
224,88,54827,1,8
168,88,55110,1,0
112,88,55393,1,4
56,144,55959,2,0,B|-16:144,2,70,8|0|2
56,200,56808,6,0,B|144:328|328:344|392:352,1,350,8|4
416,344,58506,5,0
456,304,58789,1,0
472,248,59072,1,2
440,144,59638,1,0
392,120,59921,6,0,B|256:40|160:32|120:32,2,280,2|4|4
280,128,62751,1,4
80,72,63317,6,8,B|184:72,1,70,8|0
208,72,63883,2,8,B|280:72,1,70,8|0
336,72,64449,2,8,B|416:72,1,70,8|0
464,72,65016,1,4
352,272,66148,6,8,B|256:272,1,70
224,272,66714,2,8,B|152:272|144:272,1,70
88,272,67280,2,8,B|0:176|-8:120|8:16|24:8,1,280,4|8
72,32,68695,5,0
120,56,68978,1,8
168,80,69261,1,0
224,88,69544,1,4
304,80,69968,1,8
384,56,70393,1,0
440,56,70676,2,0,B|440:200,2,140,2|8|2
392,248,72374,5,8
336,248,72657,1,4
224,264,73223,5,4
184,224,73506,1,8
152,176,73789,1,0
128,128,74072,2,8,B|104:40|288:8,1,210,4|0
328,32,75204,1,2
376,64,75487,1,4
424,96,75770,1,8
456,136,76053,1,0
480,184,76336,2,8,B|416:304|296:304,1,210,4|2
128,248,77751,5,0
128,192,78034,1,2
128,136,78317,1,0
128,80,78600,1,8
240,80,79166,1,8
296,80,79449,1,0
320,80,79591,1,8
408,80,80015,2,0,B|408:176,1,70,0|8
408,208,80582,2,0,B|408:304,1,70,0|2
328,280,81289,1,2
72,280,82563,5,8
72,224,82846,1,0
72,168,83129,1,8
128,72,83695,1,8
184,72,83978,1,0
208,72,84119,1,8
296,72,84544,1,0
256,192,84827,12,0,88648
