osu file format v5

[General]
AudioFilename: Taiyou no Kakera.mp3
AudioLeadIn: 3000
PreviewTime: -1
Countdown: 1
SampleSet: Normal
StackLeniency: 0.7
Mode: 0
LetterboxInBreaks: 1
EditorBookmarks: 20577,48164,53164,64682

[Metadata]
Title:Taiyou no Kakera
Artist:Shiraishi Ryoko
Creator:ztrot
Version:Hard
Source:Himawari!!
Tags:

[Difficulty]
HPDrainRate:7
CircleSize:5
OverallDifficulty:7
SliderMultiplier:1.3
SliderTickRate:2

[Events]
//Background and Video events
1,0,"[GNU]Himawari - 02[7E8B3CD0]XviD_xvid.avi"
0,0,"himawari_1.jpg"
//Break Periods
//Storyboard Layer 0 (Background)
//Storyboard Layer 1 (Failing)
//Storyboard Layer 2 (Passing)
//Storyboard Layer 3 (Foreground)
//Storyboard Sound Samples
//Background Colour Transformations
3,100,255,255,0

[TimingPoints]
9072,361.3369467028,4,1,0,81,1

[HitObjects]
24,336,9071,1,0
104,232,9433,1,0
40,128,9794,1,0
152,64,10156,1,8
152,128,10336,1,8
280,128,10698,1,8
344,144,10878,2,2,B|408:80|408:176|472:80,2,130,10|10|10
464,184,11962,5,0
416,304,12324,1,0
336,200,12685,1,0
256,304,13046,1,8
256,240,13227,1,8
144,304,13588,1,8
144,240,13769,1,8
16,240,14130,2,0,B|80:304|-16:304|80:368,1,130,10|10
192,352,14853,5,0
296,272,15214,1,0
336,152,15576,1,0
208,152,15937,1,8
208,88,16118,1,8
152,208,16479,1,8
88,208,16660,2,2,B|24:144|120:144|24:80,2,130,10|10|10
216,216,17744,5,0
336,264,18105,1,0
456,208,18466,1,0
424,80,18828,1,8
424,144,19008,1,8
312,80,19370,1,8
312,144,19550,1,8
184,128,19912,2,0,B|120:64|120:160|56:64,1,130,10|10
56,216,20634,5,0
120,216,20815,1,0
88,272,20996,1,4
272,216,21538,5,0
336,216,21718,1,0
304,272,21899,1,4
256,152,22260,5,0
256,88,22441,1,0
312,112,22622,1,0
344,56,22802,1,10
392,104,22983,1,10
432,152,23164,1,6
416,280,23525,6,0,B|104:128,1,325
128,72,24609,5,0
72,104,24790,1,0
208,240,25332,1,8
264,208,25512,1,8
376,136,25874,1,0
464,232,26235,2,0,B|240:232,1,195
200,232,26958,1,0
200,168,27138,1,8
328,176,27500,5,0
296,120,27680,1,0
264,64,27861,1,0
128,64,28222,1,0
128,128,28403,1,8
128,256,28764,1,0
240,192,29126,2,2,B|240:384|400:384|368:200,1,325,2|6
416,96,30390,5,0
384,152,30571,1,0
328,192,30752,1,8
328,64,31113,1,0
272,96,31294,2,10,B|240:32|144:128,1,130,10|2
280,160,32016,2,2,B|416:224|336:312|136:160,1,325
40,80,33281,5,0
88,128,33462,1,0
152,128,33642,1,8
280,128,34004,1,0
344,128,34184,1,8
344,256,34546,2,0,B|504:256,1,130,0|0
472,192,35088,5,0
376,192,35359,1,0
376,288,35630,1,8
320,312,35810,2,2,B|192:312,1,97.5
128,304,36352,1,8
128,240,36533,2,2,B|128:112,1,97.5
224,144,37075,5,8
288,144,37256,1,8
288,80,37436,1,8
352,80,37617,1,8
384,136,37798,1,8
424,184,37978,2,2,B|512:280,1,97.5,2|2
392,264,38520,1,8
352,312,38701,2,2,B|224:312,1,97.5
160,312,39243,1,8
160,248,39424,1,8
384,120,40146,5,8
336,168,40327,1,8
304,112,40508,1,8
272,168,40688,1,8
240,112,40869,2,10,B|168:184,1,97.5,2|2
136,272,41411,1,8
200,272,41592,2,2,B|328:272,1,97.5
392,272,42134,1,8
392,208,42314,2,2,B|392:80,1,97.5
488,88,42857,5,8
424,88,43037,1,8
360,88,43218,1,8
296,88,43399,1,8
232,88,43579,1,8
232,152,43760,2,2,B|232:264,1,97.5
232,344,44302,1,8
168,344,44483,2,10,B|168:224,1,97.5,2|2
168,144,45025,1,4
200,88,45205,5,0
392,96,45747,1,2
392,288,46289,1,2
304,192,46651,5,8
264,144,46831,1,8
200,32,47193,1,8
200,160,47554,1,4
32,264,48096,5,0
112,160,48457,1,0
200,256,48819,1,0
248,136,49180,1,8
248,72,49361,2,2,B|152:72|120:72|24:72,1,195,10|2
56,136,50083,2,10,B|56:360,1,195
184,328,50987,5,0
440,328,51709,1,2
432,264,51890,1,2
376,224,52071,1,10
328,264,52251,2,2,B|72:264|72:32,1,390,2|6
264,72,53877,5,0
360,72,54148,1,0
360,168,54419,1,8
296,168,54600,1,8
264,256,54871,1,0
360,256,55142,1,8
424,256,55323,1,8
456,48,55865,1,4
456,152,56768,6,8,B|552:152|552:248|424:248,2,195
328,160,58213,1,0
328,32,58575,1,0
280,72,58755,1,4
40,288,59659,5,0
168,288,60020,1,0
296,288,60381,1,0
392,200,60743,1,8
344,152,60923,2,2,B|184:152|120:152,1,195
80,152,61646,2,2,B|48:216|16:248|16:216|16:344,1,195,8|2
144,336,62549,1,4
200,80,63272,5,0
160,136,63453,1,8
200,184,63633,1,8
240,232,63814,2,2,B|176:264|272:360|-16:72|240:360,1,260
280,336,64717,5,0
368,288,64988,1,0
272,256,65259,1,8
232,200,65440,2,2,B|328:136,1,97.5
400,96,65982,1,8
400,32,66163,1,8
472,96,66434,1,0
472,192,66705,1,8
416,224,66885,2,10,B|416:352|288:352|272:312,1,195
256,152,67969,5,0
200,32,68331,1,0
96,192,68873,1,8
272,272,69415,2,2,B|336:304|400:336,1,130,10|6
256,192,70318,12,4,73209
24,48,74112,5,0
120,136,74473,1,0
40,240,74835,1,0
168,256,75196,1,8
168,320,75377,1,8
296,320,75738,1,8
296,256,75919,2,2,B|360:320|360:224|424:320,2,130,10|10|10
504,192,77003,5,0
440,80,77364,1,0
360,184,77726,1,0
232,184,78087,1,8
232,248,78268,1,8
104,248,78629,1,8
104,184,78810,1,8
104,56,79171,2,0,B|168:120|168:24|232:120,1,130,10|10
344,88,79894,5,0
432,184,80255,1,0
320,256,80616,1,0
192,256,80978,1,8
192,192,81158,1,8
80,256,81520,1,8
80,192,81700,2,2,B|129:117|129:213|193:149,2,130,10|10|10
208,224,82784,5,0
312,144,83146,1,0
432,184,83507,1,0
432,312,83868,1,8
368,312,84049,1,8
240,312,84410,1,8
304,312,84591,1,8
304,184,84952,2,2,B|240:120|240:216|176:120,1,130,10|10
24,152,85675,5,0
88,152,85856,1,0
56,208,86036,1,4
248,168,86578,5,0
312,168,86759,1,0
280,224,86940,1,4
216,112,87301,5,0
184,168,87482,1,0
200,232,87662,1,0
248,272,87843,1,8
312,272,88024,1,8
352,224,88204,1,4
400,104,88566,1,4
