osu file format v5

[General]
AudioFilename: Sorairo no Tsubasa.mp3
AudioLeadIn: 0
PreviewTime: -1
Countdown: 1
SampleSet: Normal
StackLeniency: 0.7
Mode: 0
LetterboxInBreaks: 1
EditorDistanceSpacing: 0.699999988079071

[Metadata]
Title:Sorairo no Tsubasa (Tv Size)
Artist:Shiraishi Ryoko
Creator:ztrot
Version:Normal
Source:himawari!!
Tags:Shiraishi Ryoko, Sorairo no Tsubasa, Himawari!!

[Difficulty]
HPDrainRate:4
CircleSize:4
OverallDifficulty:3
SliderMultiplier:1
SliderTickRate:1

[Events]
//Background and Video events
1,0,"[ray=out]_Himawari!!_-_02_[E0630451]_xvid_001.avi"
0,0,"ms.02.jpg"
//Break Periods
//Storyboard Layer 0 (Background)
//Storyboard Layer 1 (Failing)
//Storyboard Layer 2 (Passing)
//Storyboard Layer 3 (Foreground)
//Storyboard Sound Samples
//Background Colour Transformations
3,100,163,162,255

[TimingPoints]
7490.28439598726,285.714285714286,4,1,0,60,1,0
65918,-100,4,1,0,60,0,1
87204,-100,4,2,0,1,0,0

[Colours]
Combo1 : 255,128,64
Combo2 : 255,255,0

[HitObjects]
256,56,7490,1,0
328,56,7775,1,0
328,128,8061,1,0
256,128,8347,1,4
256,200,8633,5,0
184,200,8918,1,0
184,272,9204,1,0
256,272,9490,1,4
328,272,9775,5,0
328,200,10061,1,0
400,200,10347,1,0
400,272,10633,1,4
328,272,10918,5,0
256,272,11204,1,0
184,272,11490,1,0
184,200,11775,1,4
112,200,12061,5,0
112,56,12633,1,0
184,56,12918,1,0
256,56,13204,1,0
344,168,13775,5,0
416,168,14061,1,0
416,240,14347,1,0
344,240,14633,1,0
272,240,14918,1,0
256,168,15204,1,8
256,96,15490,1,8
392,96,16061,5,0
392,168,16347,1,0
392,240,16633,1,0
328,272,16918,1,0
256,256,17204,2,12,B|264:192|192:176|184:176,1,100,12|12
136,184,17775,5,0
136,112,18061,1,0
200,88,18347,1,0
272,96,18633,1,0
256,192,18918,12,8,20061
256,120,20633,5,0
184,120,20918,1,0
152,184,21204,2,0,L|224:256|304:224|312:168|312:168|352:112,1,300
416,120,22347,1,0
416,264,22918,5,0
416,192,23204,1,0
416,120,23490,1,0
344,120,23775,1,0
296,176,24061,1,0
296,248,24347,1,0
224,248,24633,2,0,B|144:304|136:288|192:120|192:120|192:120,1,200,0|8
184,72,25490,1,8
320,88,26061,5,0
248,88,26347,1,0
208,144,26633,1,0
136,144,26918,2,0,B|184:168|32:248|32:248|32:288,1,200
96,312,27775,1,0
160,296,28061,2,0,B|368:336|312:248|312:248|312:144,1,300
352,88,29204,1,4
456,176,29775,5,0
392,144,30061,1,0
328,176,30347,2,0,B|440:216|296:288|408:344,1,200,8|0
256,344,31490,2,0,B|152:240|248:176,1,200,8|0
216,40,32633,5,8
216,112,32918,1,8
288,112,33204,1,8
328,168,33490,1,8
288,224,33775,1,12
424,224,34347,5,0
424,152,34633,1,0
424,80,34918,1,8
248,112,35490,1,8
248,184,35775,1,0
248,256,36061,1,8
120,304,36633,1,8
184,280,36918,1,0
248,256,37204,2,0,B|488:216|440:208,1,200,0|0
448,144,38061,1,8
448,72,38347,1,8
64,64,39775,5,8
64,136,40061,1,8
128,104,40347,1,8
200,104,40633,1,8
472,48,41775,5,8
472,120,42061,1,0
472,192,42347,1,8
432,248,42633,1,8
360,248,42918,1,8
216,248,43490,1,0
216,176,43775,1,8
72,248,44347,5,0
144,248,44633,1,0
144,176,44918,1,0
216,176,45204,2,0,B|256:312|384:240,1,200
392,184,46061,1,0
392,112,46347,2,12,B|312:8|208:128,2,200
368,240,48061,5,0
296,240,48347,1,0
224,240,48633,1,0
224,96,49204,1,8
296,96,49490,1,8
368,96,49775,1,8
440,208,50347,5,0
368,208,50633,1,0
296,208,50918,1,0
152,208,51490,1,8
152,136,51775,1,8
152,64,52061,1,8
304,64,52633,5,0
304,136,52918,1,0
304,208,53204,1,0
440,208,53775,1,8
440,280,54061,1,8
368,280,54347,1,0
232,240,54918,1,8
160,240,55204,1,8
88,240,55490,2,0,B|104:112|352:128,1,300
408,128,56633,1,4
264,160,57204,5,0
192,160,57490,1,0
264,160,57775,1,0
400,160,58347,1,8
328,160,58633,1,8
400,160,58918,1,12
264,272,59490,5,0
336,272,59775,1,0
264,272,60061,1,0
336,152,60633,1,8
264,152,60918,1,8
192,152,61204,1,12
56,192,61775,5,0
128,192,62061,1,0
128,120,62347,2,0,B|128:32|296:40,1,200
352,40,63204,1,0
352,112,63490,1,0
352,184,63775,1,0
400,240,64061,1,0
352,296,64347,1,0
280,296,64633,2,0,B|106:296|58:129|259:33,1,400
312,44,66061,5,0
352,104,66347,1,0
296,144,66633,1,0
352,176,66918,1,4
32,104,68061,5,0
168,104,68633,1,0
304,104,69204,1,0
104,48,70061,5,0
104,120,70347,2,0,B|168:256|264:144,2,200,8|0|8
224,48,72061,5,0
288,32,72347,1,0
296,104,72633,2,0,B|424:104|480:176,1,200,8|0
496,240,73490,1,0
424,240,73775,2,0,B|464:408|184:440|200:304|216:232,2,400,8|0|8
232,160,76918,5,0
160,160,77204,1,0
56,248,77775,1,8
192,248,78347,2,0,B|480:136|393:86,1,300,0|0
320,88,79490,2,0,B|240:96|104:144|192:96|88:112|112:96,2,200,8|8|8
456,96,81204,5,0
384,96,81490,1,0
384,168,81775,2,0,C|440:200|392:264|352:304,1,200
280,304,82633,1,0
232,248,82918,2,0,B|336:80|-8:48|24:184|88:272,2,400
256,192,85633,12,4,87204
