osu file format v6

[General]
AudioFilename: 02 - Love Diamond.mp3
AudioLeadIn: 0
PreviewTime: 54284
Countdown: 1
SampleSet: Normal
StackLeniency: 0.4
Mode: 0
LetterboxInBreaks: 1
SkinPreference:Default

[Editor]
DistanceSpacing: 0.800000011920929
BeatDivisor: 2
GridSize: 8

[Metadata]
Title:Love Diamond
Artist:Shiraishi Ryoko
Creator:ztrot
Version:Normal
Source:Himawari!
Tags:anime ninja schoolgirls sunflowers

[Difficulty]
HPDrainRate:4
CircleSize:3
OverallDifficulty:5
SliderMultiplier:1.4
SliderTickRate:1

[Events]
//Background and Video events
0,0,"BG.jpg"
//Break Periods
2,74692,82765
//Storyboard Layer 0 (Background)
//Storyboard Layer 1 (Fail)
//Storyboard Layer 2 (Pass)
//Storyboard Layer 3 (Foreground)
//Storyboard Sound Samples
//Background Colour Transformations
3,100,163,162,255

[TimingPoints]
6289.57356813732,315.756236185665,4,1,0,80,1,0

[Colours]
Combo1 : 100,50,0
Combo2 : 255,255,102

[HitObjects]
480,344,13867,2,0,B|480:192|352:64|200:112,1,420
256,208,15130,1,0
48,192,16078,5,0
48,304,16393,2,0,B|208:400|264:176,2,280
96,88,18288,5,0
186,21,18604,1,0
273,90,18919,2,0,B|449:170|441:354|241:354,1,420
189,347,20024,2,0,B|69:331|37:203,1,210
152,216,20814,1,0
264,216,21130,1,0
264,216,21287,1,0
48,48,22708,5,0
256,136,23340,5,0
368,160,23656,1,0
472,200,23971,2,0,B|299:360|69:310,1,420
88,200,25234,1,8
392,80,26182,5,0
488,24,26497,2,0,B|488:200|304:200,2,280
256,120,28392,5,0
144,120,28708,1,0
96,224,29024,1,0
144,328,29339,1,0
256,328,29655,1,0
304,224,29971,1,0
416,224,30287,6,0,B|416:56|224:56,2,280
216,128,32181,5,0
216,240,32497,1,0
216,128,32813,1,0
256,344,33444,5,4
472,272,34076,2,0,B|328:208|512:80|320:64,1,280
340,67,34865,1,0
256,136,35181,1,0
64,336,35970,5,0
64,224,36286,1,0
256,208,36602,12,0,37865
424,312,38812,5,0
424,200,39128,1,0
336,136,39443,1,0
248,200,39759,1,8
248,312,40075,1,0
136,312,40391,1,0
136,200,40707,1,0
40,136,41022,1,8
136,80,41338,1,0
232,136,41654,1,4
464,40,42917,5,0
256,344,43548,5,4
472,272,44180,2,0,B|328:208|512:80|320:64,1,280
340,67,44969,1,0
256,136,45285,1,0
72,344,46074,5,0
184,352,46390,1,0
296,352,46706,2,2,B|119:336|159:56|303:56,1,420
304,168,47969,1,0
32,360,48916,5,0
32,248,49232,1,0
120,176,49548,1,0
200,248,49863,1,0
312,248,50179,1,0
256,152,50495,1,0
488,352,51442,5,0
488,240,51758,2,0,B|360:96|232:264,2,280
376,264,53337,1,0
376,152,53653,1,0
176,56,54284,6,2,L|104:192|176:320|248:192|216:136,1,490
368,64,55863,1,0
424,160,56179,1,0
312,160,56494,1,0
374,260,56810,6,2,L|302:124|374:-4|446:124|414:180,1,490
312,288,58389,1,0
200,288,58705,1,0
256,192,59020,1,0
256,0,59336,5,4
56,104,59968,1,0
120,256,60441,5,4
392,256,61231,1,0
256,72,61862,5,4
256,296,62494,1,0
400,192,62967,5,4
112,192,63757,1,8
256,56,64388,6,2,L|184:192|256:320|328:192|296:136,1,490
256,320,65967,1,0
256,208,66283,1,8
256,208,66441,1,0
256,56,66914,6,2,L|184:192|256:320|328:192|296:136,1,490
256,320,68493,1,0
256,208,68809,1,0
72,328,69440,5,4
256,192,70072,1,0
120,80,70545,5,4
392,80,71335,1,0
256,352,71966,5,4
256,128,72598,1,0
480,32,73072,5,4
352,280,73861,1,0
152,184,74492,1,4
256,344,83965,5,0
424,344,84597,2,0,B|488:240|496:104|448:0|304:224,1,420,4|0
256,288,85860,1,0
256,288,86807,5,0
168,288,87123,2,0,B|0:288|0:104,2,280,4|0|4
256,80,89017,5,0
256,192,89333,1,0
256,80,89649,1,0
48,344,90596,5,0
160,344,90912,2,0,B|304:344|400:200,1,280
344,112,91859,1,0
288,112,92017,1,0
256,160,92175,1,4
256,344,93438,5,0
256,344,94069,5,0
256,232,94385,1,0
256,344,94701,6,0,B|256:360|171:350|88:200|120:40|280:40,1,420
256,152,95964,1,0
40,352,96911,5,0
40,240,97227,2,0,B|40:72|224:72,2,280
256,192,99121,5,0
256,304,99437,1,0
336,224,99753,1,0
256,304,100069,1,0
176,224,100384,1,8
256,304,100700,1,0
256,192,101016,1,0
256,304,101332,1,0
336,224,101647,1,8
256,304,101963,1,0
176,224,102279,1,4
256,40,104174,5,4
40,112,104806,2,0,B|184:176|0:304|192:320,1,280
172,317,105595,1,0
256,248,105911,1,0
448,48,106700,5,0
448,160,107016,1,0
256,208,107332,12,0,108595
88,72,109542,5,0
88,184,109858,1,0
176,248,110173,1,0
264,184,110489,1,8
264,72,110805,1,0
376,72,111121,1,0
376,184,111437,1,0
472,240,111752,1,8
376,304,112068,1,0
280,240,112384,1,4
48,344,113647,5,0
256,40,114278,5,4
40,112,114910,2,0,B|184:176|0:304|192:320,1,280
172,317,115699,1,0
256,248,116015,1,0
440,40,116804,5,0
328,32,117120,1,0
216,32,117436,2,2,B|392:47|352:327|208:327,1,420
208,216,118699,1,0
480,24,119646,5,0
480,136,119962,1,0
392,208,120278,1,0
304,136,120593,1,0
192,136,120909,1,0
192,248,121225,1,0
24,32,122172,5,0
24,144,122488,2,0,B|152:288|280:120,2,280
136,120,124067,1,0
136,232,124383,1,0
336,328,125014,6,2,L|408:192|336:64|264:192|296:248,1,490
144,320,126593,1,0
88,224,126909,1,0
200,224,127224,1,0
138,124,127540,6,2,L|210:260|138:388|66:260|98:204,1,490
200,96,129119,1,0
312,96,129435,1,0
256,192,129750,1,0
256,384,130066,5,4
456,280,130698,1,0
392,128,131171,5,4
120,128,131961,1,0
256,312,132592,5,4
256,88,133224,1,0
112,192,133697,5,4
400,192,134487,1,8
256,328,135118,6,2,L|328:192|256:64|184:192|216:248,1,490
256,64,136697,1,0
256,176,137013,1,8
256,176,137171,1,0
256,328,137644,6,2,L|328:192|256:64|184:192|216:248,1,490
256,64,139223,1,0
256,176,139539,1,0
440,56,140170,5,4
256,192,140802,1,0
392,304,141275,5,4
120,304,142065,1,0
256,32,142696,5,4
256,256,143328,1,0
32,352,143802,5,4
160,104,144591,1,0
360,200,145222,1,4
