osu file format v6

[General]
AudioFilename: 02 - Love Diamond.mp3
AudioLeadIn: 0
PreviewTime: 54284
Countdown: 1
SampleSet: Normal
StackLeniency: 0.7
Mode: 0
LetterboxInBreaks: 1
SkinPreference:Default

[Editor]
DistanceSpacing: 0.699999988079071
BeatDivisor: 2
GridSize: 8

[Metadata]
Title:Love Diamond
Artist:Shiraishi Ryoko
Creator:ztrot
Version:Light
Source:Himawari!
Tags:anime ninja schoolgirls sunflowers

[Difficulty]
HPDrainRate:2
CircleSize:3
OverallDifficulty:4
SliderMultiplier:1.2
SliderTickRate:1

[Events]
//Background and Video events
0,0,"BG.jpg"
//Break Periods
2,74692,82645
//Storyboard Layer 0 (Background)
//Storyboard Layer 1 (Fail)
//Storyboard Layer 2 (Pass)
//Storyboard Layer 3 (Foreground)
//Storyboard Sound Samples
//Background Colour Transformations
3,100,163,162,255

[TimingPoints]
6289.57356813732,315.756236185665,4,1,0,80,1,0

[Colours]
Combo1 : 100,50,0
Combo2 : 255,255,102

[HitObjects]
40,296,13867,2,0,B|40:232|40:168|40:104|40:40|136:40|200:40|264:40|336:40|344:40,1,480
256,280,16078,5,0
256,200,16393,1,4
168,56,17025,1,0
352,56,17656,1,0
88,272,18919,5,0
424,272,20182,1,0
424,104,20814,1,0
256,104,21445,1,0
48,352,23971,5,0
48,16,25234,1,8
464,24,26497,5,0
464,192,27129,1,0
464,360,27760,1,4
128,352,29024,5,0
256,240,29655,1,0
392,144,30287,5,0
256,48,30918,1,0
120,144,31550,1,0
256,360,33444,5,4
88,360,34076,2,0,B|24:256|32:120|144:24|312:56,1,480,4|0
256,216,35970,5,0
424,360,36602,2,0,B|488:256|480:120|368:24|200:56,1,480,4|0
256,304,38812,5,0
256,216,39128,1,0
88,216,39759,5,8
256,216,40391,1,0
424,216,41022,1,8
256,216,41654,1,4
256,8,44180,6,2,B|112:8|112:192|112:360|280:360,1,480
256,192,46074,5,0
256,8,46706,6,2,B|400:8|400:192|400:360|232:360,1,480
256,8,49232,5,0
168,152,49863,1,0
344,152,50495,1,4
168,328,51442,5,0
168,328,51758,1,0
344,328,52389,1,0
256,168,53021,1,4
256,56,54284,6,2,L|184:192|256:320|328:192|296:136,1,480
256,56,56810,6,2,L|328:192|256:320|184:192|216:136,1,480
256,0,59336,5,4
256,376,60441,5,4
0,192,61862,5,4
512,192,62967,5,4
311,164,63757,1,8
256,56,64388,6,2,L|184:192|256:320|328:192|296:136,1,480
144,192,66283,1,8
256,56,66914,6,2,L|184:192|256:320|328:192|296:136,1,480
32,352,69440,5,4
32,32,70545,5,4
256,352,71966,5,4
480,32,73072,5,4
336,192,73861,5,0
168,192,74492,1,4
256,344,83965,5,0
424,344,84597,2,0,B|488:240|480:104|368:8|200:40,1,480,4|0
256,288,86807,5,0
168,288,87123,2,0,B|40:288|40:112,2,240,4|0|4
411,55,89649,6,0,B|563:183|475:383|227:351,1,480
256,184,91543,1,0
88,184,92175,1,4
256,48,94701,6,0,B|120:32|24:192|112:352|256:376|256:360,2,480,4|0|4
344,192,97858,1,0
176,192,98490,1,4
472,24,99753,5,0
472,192,100384,1,8
472,360,101016,1,0
304,360,101647,1,8
304,192,102279,1,4
88,24,104805,6,0,B|24:128|32:264|144:360|312:328,1,480,4|0
424,24,107331,6,0,B|488:128|480:264|368:360|200:328,1,480,4|0
48,40,109857,5,0
216,40,110489,1,8
216,208,111120,1,0
384,208,111752,1,8
384,40,112383,1,4
88,360,114909,6,0,B|24:256|32:120|144:24|312:56,1,480,4|0
424,360,117435,6,0,B|488:256|480:120|368:24|200:56,1,480,4|0
256,360,119961,5,4
256,192,120593,1,0
256,24,121224,1,4
424,192,122487,5,4
256,192,123119,1,0
88,192,123750,1,4
256,328,125013,6,2,L|184:192|256:64|328:192|296:248,1,480
256,328,127539,6,2,L|328:192|256:64|184:192|216:248,1,480
256,368,130065,5,4
256,8,131170,5,4
0,192,132591,5,4
512,192,133696,5,4
311,220,134486,1,0
256,328,135117,6,2,L|184:192|256:64|328:192|296:248,1,480,4|2
144,192,137012,1,0
256,328,137643,6,2,L|184:192|256:64|328:192|296:248,1,480,4|2
32,32,140169,5,4
32,352,141274,5,4
256,32,142695,5,4
480,352,143801,5,4
336,192,144590,5,0
168,192,145221,1,4
