osu file format v6

[General]
AudioFilename: 02 - Love Diamond.mp3
AudioLeadIn: 0
PreviewTime: 54284
Countdown: 1
SampleSet: Normal
StackLeniency: 0.3
Mode: 0
LetterboxInBreaks: 1
SkinPreference:Default

[Editor]
DistanceSpacing: 0.899999976158142
BeatDivisor: 4
GridSize: 8

[Metadata]
Title:Love Diamond
Artist:Shiraishi Ryoko
Creator:ztrot
Version:Hard
Source:Himawari!
Tags:anime ninja schoolgirls sunflowers

[Difficulty]
HPDrainRate:6
CircleSize:4
OverallDifficulty:8
SliderMultiplier:1.6
SliderTickRate:1

[Events]
//Background and Video events
0,0,"BG.jpg"
//Break Periods
2,75640,83215
//Storyboard Layer 0 (Background)
//Storyboard Layer 1 (Fail)
//Storyboard Layer 2 (Pass)
//Storyboard Layer 3 (Foreground)
//Storyboard Sound Samples
//Background Colour Transformations
3,100,163,162,255

[TimingPoints]
6289.57356813732,315.756236185665,4,1,0,80,1,0
74966,-100,4,1,0,60,0,0
83334,-100,4,1,0,80,0,0
145695,-100,4,1,0,60,0,0

[Colours]
Combo1 : 100,50,0
Combo2 : 255,255,102

[HitObjects]
40,344,6289,1,0
40,208,6605,1,8
136,112,6921,1,0
184,160,7078,1,0
232,208,7236,1,8
256,344,7552,5,0
256,208,7868,1,8
376,112,8184,1,0
328,160,8341,1,0
280,208,8499,1,8
144,192,8815,5,0
144,192,8973,2,0,B|144:48|40:48|40:216,1,240,4|0
144,248,9605,2,0,B|144:392|40:392|40:224,1,240,4|0
144,192,10236,2,0,B|144:48|40:48|40:216,1,240,4|0
94,226,10868,1,4
256,352,11341,5,0
256,280,11499,1,0
256,208,11657,1,8
256,72,11973,1,0
224,152,12131,1,0
256,152,12210,1,0
288,152,12288,1,8
408,192,12604,5,0
424,256,12762,1,0
384,312,12920,1,8
256,352,13236,1,4
224,272,13394,1,0
256,272,13473,1,0
296,272,13551,1,8
56,336,13867,5,4
0,192,14183,1,8
56,48,14499,1,0
120,192,14814,1,8
208,80,15130,6,0,B|248:40|296:80,1,80
256,136,15446,2,0,B|296:176|336:120,1,80,8|0
400,128,15762,1,0
416,200,15920,1,0
360,248,16078,1,8
256,344,16393,2,2,B|56:320|48:128,2,320,6|2|6
256,200,17972,1,8
440,56,18288,5,0
440,128,18446,1,0
384,168,18604,1,8
328,128,18761,1,0
328,200,18919,2,2,B|328:296|200:296,2,160,2|10|2
248,216,19709,1,0
176,216,19867,1,8
104,216,20024,6,2,B|64:56|224:48,1,240
360,48,20814,1,2
448,168,21130,1,2
448,168,21287,2,2,B|408:328|248:288,1,240,2|10
136,344,22077,1,0
136,272,22235,1,0
136,200,22393,1,8
64,80,22708,6,4,B|112:168|216:128,1,160,4|12
88,40,23340,6,4,B|136:136|248:64,1,160,4|12
368,72,23971,1,4
352,208,24287,1,8
312,336,24603,1,0
312,336,24761,1,0
256,296,24919,1,8
200,336,25077,1,0
200,336,25234,1,0
88,264,25550,1,8
40,136,25866,1,0
112,136,26024,1,0
184,136,26182,1,8
416,96,26497,5,4
416,232,26813,1,8
416,96,27129,1,0
336,208,27445,1,8
416,96,27760,1,4
256,320,28392,5,0
256,176,28708,1,8
256,32,29024,2,0,B|160:32|160:152,1,160,0|8
256,32,29655,2,0,B|352:32|352:152,1,160,0|8
256,264,30287,2,4,B|248:448|144:32|48:320,1,320
32,152,31234,1,8
152,24,31550,5,0
152,96,31707,1,0
152,168,31865,1,8
224,168,32023,2,0,B|288:72|376:136,1,160,4|0
408,176,32497,1,8
408,248,32655,1,0
352,296,32813,1,4
256,192,33128,1,8
256,328,33444,1,4
216,328,33523,1,0
176,328,33602,1,0
104,328,33760,1,8
40,192,34076,5,0
40,48,34391,1,8
184,24,34707,1,0
232,80,34865,1,0
216,152,35023,1,8
128,264,35339,1,0
128,264,35654,1,8
256,328,35970,5,0
256,256,36128,1,0
256,224,36207,1,0
256,192,36286,1,8
256,120,36444,1,0
256,120,36602,1,8
256,208,36681,12,0,37549
456,192,37865,5,0
312,192,38180,1,8
456,192,38496,1,0
384,176,38654,1,0
384,144,38733,1,0
384,112,38812,1,8
312,80,38970,1,0
256,40,39128,5,4
256,264,39443,1,8
200,80,39759,1,0
312,232,40075,1,8
200,80,40391,1,4
256,264,40707,1,8
312,80,41022,1,0
256,216,41338,1,0
256,184,41417,1,0
256,144,41496,1,0
56,320,41970,5,8
16,192,42285,1,0
56,136,42443,1,0
96,192,42601,1,8
160,312,42917,5,4
160,240,43075,1,0
232,240,43233,1,8
232,312,43390,1,0
304,312,43548,1,4
304,240,43706,1,0
304,200,43785,1,0
304,160,43864,1,8
456,120,44180,6,0,B|296:24|120:120,1,320,4|0
80,120,44969,1,0
80,264,45285,1,0
192,352,45601,1,0
192,280,45759,1,8
400,312,46074,5,0
400,168,46390,1,8
256,168,46706,1,4
256,208,46785,12,4,47969
256,344,48285,5,8
256,208,48600,1,0
256,136,48758,1,0
256,64,48916,1,8
120,88,49232,6,0,B|56:160,1,80
120,192,49548,1,8
128,264,49706,1,0
128,264,49863,2,0,B|192:344,1,80
232,280,50179,1,8
288,328,50337,1,0
360,304,50495,5,4
448,192,50811,1,4
352,88,51126,1,4
296,40,51284,1,0
240,88,51442,1,8
96,112,51758,6,0,B|16:176,1,80
32,232,52074,1,8
96,272,52232,1,0
152,224,52389,2,0,B|232:264,1,80
240,328,52705,1,8
304,288,52863,1,0
304,216,53021,1,4
392,328,53337,6,0,B|488:320|488:200,1,160,0|4
400,240,53810,1,0
256,96,54284,6,2,L|184:232|256:360|328:232|296:176,1,480
256,96,55389,1,0
144,168,55863,1,0
144,304,56179,1,8
144,168,56494,1,0
256,96,56810,6,2,L|328:232|256:352|184:232|216:176,1,480
256,96,57915,1,0
80,304,58389,5,0
32,168,58705,1,8
80,32,59020,1,0
152,48,59178,1,0
200,104,59336,1,4
176,248,59652,1,0
176,320,59810,1,0
240,280,59968,1,0
272,280,60047,1,0
312,280,60126,1,0
432,216,60283,5,0
432,144,60441,2,0,B|432:48|232:48,1,240,4|0
240,120,61073,1,0
176,152,61231,1,0
200,184,61310,1,0
224,216,61389,1,0
160,304,61546,5,0
160,304,61704,2,0,B|16:304|16:104,1,240,4|0
32,72,62336,1,0
96,32,62494,1,0
128,48,62573,1,0
160,64,62652,1,0
160,136,62809,1,0
160,208,62967,5,0
160,352,63283,1,4
160,352,63441,1,0
352,352,63757,1,0
352,352,63915,1,4
256,56,64388,6,2,L|184:192|256:320|328:192|296:136,1,480
256,56,65493,1,0
48,64,65967,1,0
112,192,66283,1,0
112,120,66441,1,0
256,328,66914,6,2,L|184:192|256:64|328:192|296:248,1,480
256,328,68019,1,0
464,328,68493,5,0
464,184,68809,1,0
400,56,69125,1,4
400,56,69282,1,0
48,328,69756,5,0
48,288,69835,1,0
48,248,69914,1,0
48,176,70072,1,8
256,32,70388,5,0
256,32,70545,1,4
320,160,70861,1,0
256,192,71019,1,0
296,256,71177,1,0
232,288,71335,1,8
152,168,71651,5,0
96,120,71808,1,0
40,72,71966,1,4
40,216,72282,1,0
80,280,72440,1,0
152,264,72598,1,8
296,312,72914,1,0
352,264,73072,5,0
376,240,73150,1,0
400,216,73229,1,0
400,144,73387,1,4
344,96,73545,1,0
288,144,73703,1,0
232,96,73861,1,0
232,96,74019,1,0
256,344,74492,5,4
176,192,74650,1,0
328,192,74808,1,0
256,40,75124,5,4
176,192,75282,1,0
328,192,75440,1,0
256,32,83965,5,4
344,144,84281,1,8
456,48,84597,5,4
512,192,84912,1,8
456,336,85228,1,0
392,192,85544,1,8
304,304,85860,6,0,B|264:344|216:304,1,80
256,248,86175,2,0,B|216:208|176:264,1,80,8|0
112,256,86491,1,0
96,184,86649,1,0
152,136,86807,1,8
256,40,87123,2,2,B|456:64|464:256,2,320,6|2|6
256,184,88701,1,8
72,328,89017,5,0
72,256,89175,1,0
128,216,89333,1,8
184,256,89491,1,0
184,184,89649,2,2,B|184:88|312:88,2,160,2|10|2
264,168,90438,1,0
336,168,90596,1,8
408,168,90754,6,2,B|448:328|288:336,1,240
152,336,91543,1,2
64,216,91859,1,2
64,216,92017,2,2,B|104:56|264:96,1,240,2|10
376,40,92806,1,0
376,112,92964,1,0
376,184,93122,1,8
448,304,93438,6,4,B|400:216|296:256,1,160,4|12
424,344,94069,6,4,B|376:248|264:320,1,160,4|12
144,312,94701,1,4
160,176,95017,1,8
200,48,95332,1,0
200,48,95490,1,0
256,88,95648,1,8
312,48,95806,1,0
312,48,95964,1,0
424,120,96280,1,8
472,248,96595,1,0
400,248,96753,1,0
328,248,96911,1,8
96,288,97227,5,4
96,152,97543,1,8
96,288,97858,1,0
176,176,98174,1,8
96,288,98490,1,4
256,64,99121,5,0
256,208,99437,1,8
256,352,99753,2,0,B|352:352|352:232,1,160,0|8
256,352,100384,2,0,B|160:352|160:232,1,160,0|8
256,120,101016,2,4,B|264:-64|368:352|464:64,1,320
480,232,101963,1,8
360,360,102279,5,0
360,288,102437,1,0
360,216,102595,1,8
288,216,102753,2,0,B|224:312|136:248,1,160,4|0
104,208,103226,1,8
104,136,103384,1,0
160,88,103542,1,4
256,192,103858,1,8
256,56,104174,1,4
296,56,104252,1,0
336,56,104331,1,0
408,56,104489,1,8
472,192,104805,5,0
472,336,105121,1,8
328,360,105437,1,0
280,304,105594,1,0
296,232,105752,1,8
384,120,106068,1,0
384,120,106384,1,8
256,56,106700,5,0
256,128,106857,1,0
256,160,106936,1,0
256,192,107015,1,8
256,272,107173,1,0
256,272,107331,1,8
256,208,107410,12,0,108278
56,192,108594,5,0
200,192,108910,1,8
56,192,109226,1,0
128,208,109383,1,0
128,248,109462,1,0
128,288,109541,1,8
200,304,109699,1,0
256,344,109857,5,4
256,120,110173,1,8
312,304,110489,1,0
200,152,110804,1,8
312,304,111120,1,4
256,120,111436,1,8
200,304,111752,1,0
256,168,112067,1,0
256,200,112146,1,0
256,232,112225,1,0
456,64,112699,5,8
496,192,113015,1,0
456,248,113173,1,0
416,192,113330,1,8
352,72,113646,5,4
352,144,113804,1,0
280,144,113962,1,8
280,72,114120,1,0
208,72,114278,1,4
208,144,114436,1,0
208,184,114515,1,0
208,216,114593,1,0
56,264,114909,6,0,B|216:360|392:264,1,320,4|0
432,264,115699,1,0
432,120,116014,1,0
320,32,116330,1,0
320,104,116488,1,8
112,72,116804,5,0
112,216,117120,1,8
256,216,117435,1,4
256,208,117514,12,4,118698
256,40,119014,5,8
256,176,119330,1,0
256,248,119488,1,0
256,320,119646,1,8
392,296,119961,6,0,B|456:224,1,80
392,192,120277,1,8
384,120,120435,1,0
384,120,120593,2,0,B|320:40,1,80
280,104,120909,1,8
224,56,121066,1,0
152,80,121224,5,4
64,192,121540,1,4
160,296,121856,1,4
216,344,122014,1,0
272,296,122172,1,8
416,272,122487,6,0,B|496:208,1,80
480,152,122803,1,8
416,112,122961,1,0
360,160,123119,2,0,B|280:120,1,80
272,56,123435,1,8
208,96,123593,1,0
208,168,123750,1,4
120,56,124066,6,0,B|24:64|24:184,1,160,0|4
112,144,124540,1,0
256,288,125013,6,2,L|328:152|256:24|184:152|216:208,1,480
256,288,126119,1,0
368,216,126592,1,0
368,80,126908,1,8
368,216,127224,1,0
256,288,127539,6,2,L|184:152|256:32|328:152|296:208,1,480
256,288,128645,1,0
432,80,129118,5,0
480,216,129434,1,8
432,352,129750,1,0
360,336,129908,1,0
312,280,130066,1,4
336,136,130381,1,0
336,64,130539,1,0
272,104,130697,1,0
240,104,130776,1,0
208,104,130855,1,0
80,168,131013,5,0
80,240,131171,2,0,B|80:336|280:336,1,240,4|0
272,264,131802,1,0
336,232,131960,1,0
312,200,132039,1,0
288,168,132118,1,0
352,80,132276,5,0
352,80,132434,2,0,B|496:80|496:280,1,240,4|0
480,312,133065,1,0
416,352,133223,1,0
384,336,133302,1,0
352,320,133381,1,0
352,248,133539,1,0
352,176,133697,5,0
352,32,134012,1,4
352,32,134170,1,0
160,32,134486,1,0
160,32,134644,1,4
256,328,135118,6,2,L|328:192|256:64|184:192|216:248,1,480
256,328,136223,1,0
464,320,136696,1,0
400,192,137012,1,0
400,264,137170,1,0
256,56,137644,6,2,L|328:192|256:320|184:192|216:136,1,480
256,56,138749,1,0
48,56,139222,5,0
48,200,139538,1,0
112,328,139854,1,4
112,328,140012,1,0
464,56,140485,5,0
464,96,140564,1,0
464,136,140643,1,0
464,208,140801,1,8
256,352,141117,5,0
256,352,141275,1,4
192,224,141591,1,0
256,192,141748,1,0
216,128,141906,1,0
280,96,142064,1,0
360,216,142380,5,0
416,264,142538,1,0
472,312,142696,1,4
472,168,143012,1,0
432,104,143169,1,0
360,120,143327,1,8
216,72,143643,1,0
160,120,143801,5,0
136,144,143880,1,0
112,168,143959,1,0
112,240,144117,1,4
168,288,144275,1,0
224,240,144432,1,0
280,288,144590,1,0
280,288,144748,1,0
256,40,145222,5,4
328,192,145380,1,0
176,192,145538,1,0
256,344,145853,5,4
328,192,146011,1,0
176,192,146169,1,0
