osu file format v9

[General]
AudioFilename: Shiraishi Ryoko - Kirari Futari.mp3
AudioLeadIn: 0
PreviewTime: 20325
Countdown: 0
SampleSet: Soft
StackLeniency: 0.5
Mode: 0
LetterboxInBreaks: 0

[Editor]
DistanceSpacing: 0.9
BeatDivisor: 4
GridSize: 8

[Metadata]
Title:Kirari Futari
Artist:Shiraishi Ryoko
Creator:quintitem
Version:Normal
Source:Natsu no Arashi
Tags:azuki collab

[Difficulty]
HPDrainRate:4
CircleSize:4
OverallDifficulty:2
ApproachRate:4
SliderMultiplier:1.5
SliderTickRate:0.5

[Events]
//Background and Video events
0,0,"Natsu_no_Arashi2.jpg"
//Break Periods
2,92761,104663
//Storyboard Layer 0 (Background)
//Storyboard Layer 1 (Fail)
//Storyboard Layer 2 (Pass)
//Storyboard Layer 3 (Foreground)
Sprite,Foreground,TopLeft,"Storyboard\artist2.png",320,240 M,0,983,2167,69,365,69,345 F,0,983,2167,0,1 M,0,4930,6114,69,345,69,365 F,0,4930,6114,1,0
Sprite,Foreground,TopLeft,"Storyboard\aa.png",320,240 F,0,6311,6509,0,1 M,0,6311,10456,68,365,118,365 F,0,10259,10456,1,0
Sprite,Foreground,TopLeft,"Storyboard\ab.png",320,240 F,0,12627,12825,0,1 M,0,12627,17167,402,402,352,402 F,0,16969,17167,1,0
Sprite,Foreground,TopLeft,"Storyboard\ac.png",320,240 M,0,20522,,107,402 F,0,20522,20719,0,1 F,0,26443,26640,1,0
Sprite,Foreground,TopLeft,"Storyboard\ad.png",320,240 M,0,23680,,387,402 F,0,23680,23877,0,1 F,0,26443,26640,1,0
Sprite,Foreground,TopLeft,"Storyboard\ae.png",320,240 M,0,27035,,107,402 F,0,27035,27232,0,1 F,0,32561,32759,1,0
Sprite,Foreground,TopLeft,"Storyboard\af.png",320,240 M,0,29996,,309,402 F,0,29996,30193,0,1 F,0,32561,32759,1,0
Sprite,Foreground,TopLeft,"Storyboard\ag.png",320,240 M,0,33154,,107,402 F,0,33154,33351,0,1 F,0,39075,39272,1,0
Sprite,Foreground,TopLeft,"Storyboard\ah.png",320,240 M,0,36311,,393,402 F,0,36311,36509,0,1 F,0,39075,39272,1,0
Sprite,Foreground,TopLeft,"Storyboard\ai.png",320,240 M,0,39667,,107,402 F,0,39667,39864,0,1 F,0,45982,46180,1,0
Sprite,Foreground,TopLeft,"Storyboard\aj.png",320,240 M,0,42627,,249,402 F,0,42627,42825,0,1 F,0,45982,46180,1,0
Sprite,Foreground,TopLeft,"Storyboard\ba.png",320,240 M,0,46575,,107,402 F,0,46575,46772,0,1 F,0,49338,49535,1,0
Sprite,Foreground,TopLeft,"Storyboard\bb.png",320,240 M,0,49732,,107,402 F,0,49732,49930,0,1 F,0,52496,52693,1,0
Sprite,Foreground,TopLeft,"Storyboard\bc.png",320,240 M,0,52890,,107,402 F,0,52890,53088,0,1 F,0,59206,59404,1,0
Sprite,Foreground,TopLeft,"Storyboard\bd.png",320,240 M,0,56246,,311,402 F,0,56246,56443,0,1 F,0,59206,59404,1,0
Sprite,Foreground,TopLeft,"Storyboard\ca.png",320,240 M,0,61575,,107,402 F,0,61575,61772,0,1 F,0,67693,67890,1,0
Sprite,Foreground,TopLeft,"Storyboard\cb.png",320,240 M,0,64732,,386,402 F,0,64732,64930,0,1 F,0,67693,67890,1,0
Sprite,Foreground,TopLeft,"Storyboard\cc.png",320,240 M,0,68088,,107,402 F,0,68088,68285,0,1 F,0,73811,74009,1,0
Sprite,Foreground,TopLeft,"Storyboard\cd.png",320,240 M,0,72627,,326,402 F,0,72627,72825,0,1 F,0,73811,74009,1,0
Sprite,Foreground,TopLeft,"Storyboard\ce.png",320,240 M,0,74206,,107,402 F,0,74206,74404,0,1 F,0,80127,80325,1,0
Sprite,Foreground,TopLeft,"Storyboard\cf.png",320,240 M,0,77364,,341,402 F,0,77364,77561,0,1 F,0,80127,80325,1,0
Sprite,Foreground,TopLeft,"Storyboard\cg.png",320,240 M,0,80719,,107,402 F,0,80719,80917,0,1 F,0,92364,92561,1,0
Sprite,Foreground,TopLeft,"Storyboard\ch.png",320,240 M,0,88022,,348,402 F,0,88022,88219,0,1 F,0,92364,92561,1,0
Sprite,Foreground,TopLeft,"Storyboard\da.png",320,240 M,0,105785,,107,402 F,0,105785,105982,0,1 F,0,111706,111904,1,0
Sprite,Foreground,TopLeft,"Storyboard\db.png",320,240 M,0,108943,,392,402 F,0,108943,109140,0,1 F,0,111706,111904,1,0
Sprite,Foreground,TopLeft,"Storyboard\dc.png",320,240 M,0,112298,,107,402 F,0,112298,112496,0,1 F,0,118417,118614,1,0
Sprite,Foreground,TopLeft,"Storyboard\dd.png",320,240 M,0,115259,,267,402 F,0,115259,115456,0,1 F,0,118417,118614,1,0
Sprite,Foreground,TopLeft,"Storyboard\ea.png",320,240 M,0,119206,,107,402 F,0,119206,119404,0,1 F,0,121969,122167,1,0
Sprite,Foreground,TopLeft,"Storyboard\eb.png",320,240 M,0,122364,,107,402 F,0,122364,122561,0,1 F,0,125127,125325,1,0
Sprite,Foreground,TopLeft,"Storyboard\ec.png",320,240 M,0,125522,,107,402 F,0,125522,125719,0,1 F,0,131838,132035,1,0
Sprite,Foreground,TopLeft,"Storyboard\ed.png",320,240 M,0,128877,,263,402 F,0,128877,129075,0,1 F,0,131838,132035,1,0
Sprite,Foreground,TopLeft,"Storyboard\ca.png",320,240 M,0,134206,,107,402 F,0,134206,134404,0,1 F,0,140127,140325,1,0
Sprite,Foreground,TopLeft,"Storyboard\fb.png",320,240 M,0,137364,,383,402 F,0,137364,137561,0,1 F,0,140127,140325,1,0
Sprite,Foreground,TopLeft,"Storyboard\fc.png",320,240 M,0,140719,,107,402 F,0,140719,140917,0,1 F,0,146443,146640,1,0
Sprite,Foreground,TopLeft,"Storyboard\fd.png",320,240 M,0,145259,,348,402 F,0,145259,145456,0,1 F,0,146443,146640,1,0
Sprite,Foreground,TopLeft,"Storyboard\fe.png",320,240 M,0,146838,,107,402 F,0,146838,147035,0,1 F,0,152759,152956,1,0
Sprite,Foreground,TopLeft,"Storyboard\ff.png",320,240 M,0,149996,,357,402 F,0,149996,150193,0,1 F,0,152759,152956,1,0
Sprite,Foreground,TopLeft,"Storyboard\fg.png",320,240 M,0,153351,,107,402 F,0,153351,153548,0,1 F,0,164996,165193,1,0
Sprite,Foreground,TopLeft,"Storyboard\ch.png",320,240 M,0,160654,,367,402 F,0,160654,160851,0,1 F,0,164996,165193,1,0
//Storyboard Sound Samples
//Background Colour Transformations
3,100,163,162,255

[TimingPoints]
983,394.736842105263,4,2,1,100,1,0
2561,-111.111111111111,4,2,1,75,0,0
19535,-111.111111111111,4,2,1,70,0,0
34535,-111.111111111111,4,2,1,80,0,0
45785,-111.111111111111,4,2,1,70,0,0
46475,-111.111111111111,4,2,1,95,0,0
56048,-111.111111111111,4,2,1,85,0,0
58614,-111.111111111111,4,2,1,75,0,0
61575,-100,4,2,1,90,0,0
62561,-100,4,2,1,90,0,1
62660,-100,4,2,1,95,0,0
75094,-100,4,2,1,80,0,0
75982,-100,4,2,1,95,0,0
76673,-100,4,2,1,80,0,0
77561,-100,4,2,1,95,0,0
84469,-111.111111111111,4,2,1,90,0,0
87824,-200,4,2,1,85,0,0
92561,-200,4,2,1,0,0,0
105193,-111.111111111111,4,2,1,70,0,0
107167,-111.111111111111,4,2,1,80,0,0
118417,-111.111111111111,4,2,1,70,0,0
119107,-111.111111111111,4,2,1,95,0,0
128680,-111.111111111111,4,2,1,85,0,0
131048,-111.111111111111,4,2,1,75,0,0
134206,-100,4,2,1,90,0,0
135193,-100,4,2,1,90,0,1
135292,-100,4,2,1,95,0,0
147825,-100,4,2,1,80,0,0
148614,-100,4,2,1,95,0,0
149305,-100,4,2,1,80,0,0
150193,-100,4,2,1,95,0,0
157101,-111.111111111111,4,2,1,90,0,0
160456,-200,4,2,1,85,0,0
165588,-200,4,2,1,0,0,0

[Colours]
Combo1 : 137,99,62
Combo2 : 89,82,77
Combo3 : 63,106,150
Combo4 : 182,82,84

[HitObjects]
256,192,6114,1,12
196,96,7298,6,0,B|56:96,2,134.999993562699,4|8|0
300,124,8483,2,0,B|381:112|384:22,2,134.999993562699,8|0|8
328,228,9667,2,0,B|476:228,2,134.999993562699,0|8|0
228,268,10851,2,0,B|229:347|311:358,2,134.999993562699,8|0|8
168,268,11838,2,0,B|168:56,1,202.499990344048,0|8
412,64,13219,6,0,B|493:75|496:165,2,134.999993562699,8|4|8
308,132,14404,2,0,B|308:276,2,134.999993562699,0|8|0
228,40,15588,2,0,B|84:40,2,134.999993562699,8|0|8
188,156,16772,2,0,B|106:167|103:257,2,134.999993562699,0|8|0
224,272,17956,1,8
224,272,18154,2,0,B|292:216|356:336|416:268,1,202.499990344048,0|4
256,192,19930,5,4
236,72,20325,1,4
120,40,20719,1,8
100,160,21114,2,0,B|12:160,2,67.4999967813493,0|0|6
132,276,21904,6,0,B|292:276,1,134.999993562699
388,292,22693,2,0,B|388:368,2,67.4999967813493,0|0|2
456,192,23483,2,0,B|456:48,2,134.999993562699
352,132,24667,2,0,B|72:132,2,269.999987125397,2|0|2
352,252,26640,2,0,B|433:263|438:368,2,134.999993562699
288,356,27825,6,0,B|16:356,2,269.999987125397,2|0|2
308,112,30193,2,0,B|465:128|479:318,2,269.999987125397,0|2|0
196,160,32167,2,0,B|196:24,2,134.999993562699,0|2|2
108,244,33351,1,2
196,328,33746,5,10
196,328,33943,1,0
196,328,34140,2,0,B|52:328,2,134.999993562699,6|8|0
312,292,35325,2,0,B|312:372,2,67.4999967813493,8|0|0
384,192,36114,2,0,B|465:203|470:308,2,134.999993562699,8|0|8
284,124,37298,6,0,B|286:43|367:32,2,134.999993562699,0|8|0
168,160,38482,2,0,B|32:160,2,134.999993562699,8|0|10
184,280,39667,2,0,B|44:280,2,134.999993562699,0|8|0
288,344,40851,6,0,B|445:328|459:138,3,269.999987125397,8|8|8|8
400,56,43614,1,2
280,36,44009,2,0,B|8:36,2,269.999987125397,8|8|8
324,148,45982,1,0
256,248,46377,5,8
256,248,46575,2,0,B|256:328,2,67.4999967813493,0|8|8
136,236,47364,2,0,B|56:236,2,67.4999967813493,0|8|8
212,140,48154,1,0
212,140,48351,2,0,B|209:59|128:48,2,134.999993562699,4|8|0
324,192,49535,5,8
324,192,49732,2,0,B|324:144|380:144,2,67.4999967813493,0|8|8
380,300,50522,2,0,B|428:300|428:368,2,67.4999967813493,0|8|8
264,332,51311,1,0
264,332,51509,2,0,B|112:332,2,134.999993562699,4|8|0
232,216,52693,6,0,B|316:216,2,67.4999967813493,8|0|6
168,112,53482,2,0,B|20:112,2,134.999993562699,8|0|10
268,40,54667,1,2
384,80,55061,1,10
452,180,55456,1,2
456,300,55851,1,10
340,336,56246,6,0,B|116:336,4,202.499990344048,12|12|12|12|4
300,220,59009,1,4
256,192,59404,12,0,61575
152,96,62561,6,0,B|57:109|57:226,2,150,4|8|0
264,56,63746,1,8
376,96,64140,2,0,B|464:96,2,75,0|2|10
304,192,64930,2,0,B|304:348,2,150,0|8|0
208,264,66114,6,0,B|56:264,2,150,8|0|8
180,148,67298,2,0,B|181:59|87:46,2,150,0|8|0
280,84,68482,1,8
332,192,68877,6,0,B|484:192,1,150,4|8
484,252,69469,2,0,B|244:252,1,225,0|8
188,348,70456,2,0,B|97:334|98:246,1,150,0|8
44,220,71048,2,0,B|47:78|180:68,1,225,0|8
288,24,72035,6,0,B|378:37|377:125,1,150,0|8
436,128,72627,2,0,B|436:372,1,225,0|8
316,336,73614,1,0
224,260,74009,2,0,B|76:260,2,150,10|0|8
256,144,75193,5,8
336,52,75588,2,0,B|492:52,2,150,12|0|8
360,172,76772,1,8
396,288,77167,2,0,B|486:275|485:187,2,150,12|0|8
288,340,78351,5,4
204,252,78746,2,0,B|114:265|115:353,2,150,8|0|8
148,148,79930,2,0,B|148:60|58:47,2,150,0|8|0
256,96,81114,1,8
328,192,81509,5,4
432,132,81904,1,8
432,132,82101,2,0,B|432:360,1,225,0|8
320,308,83088,1,0
204,336,83483,1,8
204,336,83680,2,0,B|75:326|72:184,1,225,0|8
256,192,84667,12,8,87627
256,116,88022,6,0,B|256:72,4,37.5,8|8|0|8|8
256,192,89206,12,0,92561
256,80,105983,6,0,B|175:91|170:196,1,134.999993562699,8|8
208,220,106575,1,8
172,268,106772,2,0,B|28:268,2,134.999993562699,4|8|0
280,324,107956,1,8
280,324,108154,1,0
280,324,108351,2,0,B|416:324,2,134.999993562699,0|8|0
328,212,109535,6,0,B|468:212,2,134.999993562699,8|0|8
244,124,110719,2,0,B|247:43|328:32,2,134.999993562699,0|8|0
124,124,111904,1,10
184,228,112298,2,0,B|48:228,2,134.999993562699,0|8|0
280,304,113483,6,0,B|437:288|451:98,1,269.999987125397,8|8
340,68,114667,1,0
224,28,115061,2,0,B|67:44|53:234,1,269.999987125397,8|8
92,324,116246,1,2
212,348,116640,2,0,B|484:348,2,269.999987125397,8|8|8
256,236,118614,1,0
368,192,119009,5,8
368,192,119206,2,0,B|416:192|416:256,2,67.4999967813493,0|8|8
292,96,119996,2,0,B|292:52|348:52,2,67.4999967813493,0|8|8
180,140,120785,1,0
180,140,120983,2,0,B|24:140,2,134.999993562699,4|8|0
148,256,122167,6,0,B|72:256,2,67.4999967813493,8|0|8
188,300,122759,1,8
308,276,123154,1,0
308,276,123351,1,8
308,276,123548,1,8
396,192,123943,1,0
396,192,124140,2,0,B|399:111|480:100,2,134.999993562699,4|8|0
280,156,125325,5,8
280,156,125522,1,0
280,156,125719,1,6
184,80,126114,1,8
72,132,126509,1,0
56,252,126904,1,10
164,308,127298,1,2
164,308,127693,1,10
284,336,128088,1,2
284,336,128483,1,10
404,308,128877,6,0,B|404:96,1,202.499990344048,12|12
236,36,130061,2,0,B|236:240,1,202.499990344048,12|12
60,192,131246,1,4
60,192,131640,1,4
256,192,132035,12,0,134206
192,88,135193,6,0,B|40:88,1,150,4|8
60,220,135983,2,0,B|208:220,1,150,0|8
256,348,136772,1,0
256,348,136969,1,2
256,348,137167,2,0,B|100:348,2,150,10|0|8
388,324,138351,5,0
484,232,138746,1,8
388,136,139140,2,0,B|389:47|295:34,1,150,0|8
164,36,139930,2,0,B|74:48|75:137,1,150,0|8
128,260,140719,1,0
128,260,141114,1,8
128,260,141509,1,4
244,328,141904,5,8
244,328,142101,2,0,B|484:328,1,225,0|8
452,192,143088,1,0
468,56,143483,1,8
468,56,143680,2,0,B|224:56,1,225,0|8
108,36,144667,5,0
48,156,145061,1,8
48,156,145259,1,0
244,212,145851,2,0,B|244:360,2,150,8|0|10
380,220,147035,2,0,B|469:232|468:321,2,150,0|8|8
340,92,148219,6,0,B|496:92,2,150,12|0|8
216,40,149404,1,8
180,172,149798,2,0,B|32:172,2,150,12|0|8
256,284,150983,5,4
376,344,151377,1,8
464,244,151772,2,0,B|464:88,2,150,0|8|0
340,192,152956,1,8
256,84,153351,1,0
176,192,153746,1,8
84,288,154140,5,4
208,340,154535,1,8
208,340,154733,1,0
408,308,155325,1,8
476,192,155719,1,0
408,76,156114,1,8
408,76,156311,2,0,B|176:76,1,225,0|8
256,192,157298,12,8,160259
256,268,160654,6,0,B|256:312,4,37.5,8|8|0|8|8
256,192,161838,12,0,165588
