osu file format v9

[General]
AudioFilename: Shiraishi Ryoko - Kirari Futari.mp3
AudioLeadIn: 0
PreviewTime: 20325
Countdown: 0
SampleSet: Soft
StackLeniency: 0.5
Mode: 0
LetterboxInBreaks: 0

[Editor]
DistanceSpacing: 1
BeatDivisor: 4
GridSize: 8

[Metadata]
Title:Kirari Futari
Artist:Shiraishi Ryoko
Creator:quintitem
Version:Arashi
Source:Natsu no Arashi
Tags:azuki collab

[Difficulty]
HPDrainRate:7
CircleSize:5
OverallDifficulty:5
ApproachRate:7
SliderMultiplier:1.7
SliderTickRate:0.5

[Events]
//Background and Video events
0,0,"Natsu_no_Arashi2.jpg"
//Break Periods
2,92761,104885
2,165788,173767
//Storyboard Layer 0 (Background)
//Storyboard Layer 1 (Fail)
//Storyboard Layer 2 (Pass)
//Storyboard Layer 3 (Foreground)
Sprite,Foreground,TopLeft,"Storyboard\mappera.png",320,240 M,0,6114,,480,60 F,0,6114,6311,0,1 F,0,92364,92561,1,0 F,0,184140,184338,0,1 F,0,204864,205061,1,0
Sprite,Foreground,TopLeft,"Storyboard\mapperq.png",320,240 M,0,105785,,430,60 F,0,105785,105982,0,1 F,0,165390,165588,1,0 F,0,174667,174864,0,1 F,0,183943,184140,1,0 F,0,205061,205259,0,1 F,0,223417,223614,1,0
Sprite,Foreground,TopLeft,"Storyboard\artist.png",320,240 M,0,983,2167,69,365,69,345 F,0,983,2167,0,1 M,0,4930,6114,69,345,69,365 F,0,4930,6114,1,0
Sprite,Foreground,TopLeft,"Storyboard\aa.png",320,240 F,0,6311,6509,0,1 M,0,6311,10456,68,365,118,365 F,0,10259,10456,1,0
Sprite,Foreground,TopLeft,"Storyboard\ab.png",320,240 F,0,12627,12825,0,1 M,0,12627,17167,402,402,352,402 F,0,16969,17167,1,0
Sprite,Foreground,TopLeft,"Storyboard\ac.png",320,240 M,0,20522,,107,402 F,0,20522,20719,0,1 F,0,26443,26640,1,0
Sprite,Foreground,TopLeft,"Storyboard\ad.png",320,240 M,0,23680,,387,402 F,0,23680,23877,0,1 F,0,26443,26640,1,0
Sprite,Foreground,TopLeft,"Storyboard\ae.png",320,240 M,0,27035,,107,402 F,0,27035,27232,0,1 F,0,32561,32759,1,0
Sprite,Foreground,TopLeft,"Storyboard\af.png",320,240 M,0,29996,,309,402 F,0,29996,30193,0,1 F,0,32561,32759,1,0
Sprite,Foreground,TopLeft,"Storyboard\ag.png",320,240 M,0,33154,,107,402 F,0,33154,33351,0,1 F,0,39075,39272,1,0
Sprite,Foreground,TopLeft,"Storyboard\ah.png",320,240 M,0,36311,,393,402 F,0,36311,36509,0,1 F,0,39075,39272,1,0
Sprite,Foreground,TopLeft,"Storyboard\ai.png",320,240 M,0,39667,,107,402 F,0,39667,39864,0,1 F,0,45982,46180,1,0
Sprite,Foreground,TopLeft,"Storyboard\aj.png",320,240 M,0,42627,,249,402 F,0,42627,42825,0,1 F,0,45982,46180,1,0
Sprite,Foreground,TopLeft,"Storyboard\ba.png",320,240 M,0,46575,,107,402 F,0,46575,46772,0,1 F,0,49338,49535,1,0
Sprite,Foreground,TopLeft,"Storyboard\bb.png",320,240 M,0,49732,,107,402 F,0,49732,49930,0,1 F,0,52496,52693,1,0
Sprite,Foreground,TopLeft,"Storyboard\bc.png",320,240 M,0,52890,,107,402 F,0,52890,53088,0,1 F,0,59206,59404,1,0
Sprite,Foreground,TopLeft,"Storyboard\bd.png",320,240 M,0,56246,,311,402 F,0,56246,56443,0,1 F,0,59206,59404,1,0
Sprite,Foreground,TopLeft,"Storyboard\ca.png",320,240 M,0,61575,,107,402 F,0,61575,61772,0,1 F,0,67693,67890,1,0
Sprite,Foreground,TopLeft,"Storyboard\cb.png",320,240 M,0,64732,,386,402 F,0,64732,64930,0,1 F,0,67693,67890,1,0
Sprite,Foreground,TopLeft,"Storyboard\cc.png",320,240 M,0,68088,,107,402 F,0,68088,68285,0,1 F,0,73811,74009,1,0
Sprite,Foreground,TopLeft,"Storyboard\cd.png",320,240 M,0,72627,,326,402 F,0,72627,72825,0,1 F,0,73811,74009,1,0
Sprite,Foreground,TopLeft,"Storyboard\ce.png",320,240 M,0,74206,,107,402 F,0,74206,74404,0,1 F,0,80127,80325,1,0
Sprite,Foreground,TopLeft,"Storyboard\cf.png",320,240 M,0,77364,,341,402 F,0,77364,77561,0,1 F,0,80127,80325,1,0
Sprite,Foreground,TopLeft,"Storyboard\cg.png",320,240 M,0,80719,,107,402 F,0,80719,80917,0,1 F,0,92364,92561,1,0
Sprite,Foreground,TopLeft,"Storyboard\ch.png",320,240 M,0,88022,,348,402 F,0,88022,88219,0,1 F,0,92364,92561,1,0
Sprite,Foreground,TopLeft,"Storyboard\da.png",320,240 M,0,105785,,107,402 F,0,105785,105982,0,1 F,0,111706,111904,1,0
Sprite,Foreground,TopLeft,"Storyboard\db.png",320,240 M,0,108943,,392,402 F,0,108943,109140,0,1 F,0,111706,111904,1,0
Sprite,Foreground,TopLeft,"Storyboard\dc.png",320,240 M,0,112298,,107,402 F,0,112298,112496,0,1 F,0,118417,118614,1,0
Sprite,Foreground,TopLeft,"Storyboard\dd.png",320,240 M,0,115259,,267,402 F,0,115259,115456,0,1 F,0,118417,118614,1,0
Sprite,Foreground,TopLeft,"Storyboard\ea.png",320,240 M,0,119206,,107,402 F,0,119206,119404,0,1 F,0,121969,122167,1,0
Sprite,Foreground,TopLeft,"Storyboard\eb.png",320,240 M,0,122364,,107,402 F,0,122364,122561,0,1 F,0,125127,125325,1,0
Sprite,Foreground,TopLeft,"Storyboard\ec.png",320,240 M,0,125522,,107,402 F,0,125522,125719,0,1 F,0,131838,132035,1,0
Sprite,Foreground,TopLeft,"Storyboard\ed.png",320,240 M,0,128877,,263,402 F,0,128877,129075,0,1 F,0,131838,132035,1,0
Sprite,Foreground,TopLeft,"Storyboard\ca.png",320,240 M,0,134206,,107,402 F,0,134206,134404,0,1 F,0,140127,140325,1,0
Sprite,Foreground,TopLeft,"Storyboard\fb.png",320,240 M,0,137364,,383,402 F,0,137364,137561,0,1 F,0,140127,140325,1,0
Sprite,Foreground,TopLeft,"Storyboard\fc.png",320,240 M,0,140719,,107,402 F,0,140719,140917,0,1 F,0,146443,146640,1,0
Sprite,Foreground,TopLeft,"Storyboard\fd.png",320,240 M,0,145259,,348,402 F,0,145259,145456,0,1 F,0,146443,146640,1,0
Sprite,Foreground,TopLeft,"Storyboard\fe.png",320,240 M,0,146838,,107,402 F,0,146838,147035,0,1 F,0,152759,152956,1,0
Sprite,Foreground,TopLeft,"Storyboard\ff.png",320,240 M,0,149996,,357,402 F,0,149996,150193,0,1 F,0,152759,152956,1,0
Sprite,Foreground,TopLeft,"Storyboard\fg.png",320,240 M,0,153351,,107,402 F,0,153351,153548,0,1 F,0,164996,165193,1,0
Sprite,Foreground,TopLeft,"Storyboard\ch.png",320,240 M,0,160654,,367,402 F,0,160654,160851,0,1 F,0,164996,165193,1,0
Sprite,Foreground,TopLeft,"Storyboard\ga.png",320,240 F,0,177825,178022,0,1 M,0,177825,183746,68,371,118,371 F,0,183548,183746,1,0
Sprite,Foreground,TopLeft,"Storyboard\gb.png",320,240 F,0,180982,181180,0,1 M,0,180982,183746,415,402,390,402 F,0,183548,183746,1,0
Sprite,Foreground,TopLeft,"Storyboard\gc.png",320,240 M,0,184140,,107,402 F,0,184140,184338,0,1 F,0,186706,186904,1,0
Sprite,Foreground,TopLeft,"Storyboard\gd.png",320,240 M,0,187298,,107,402 F,0,187298,187496,0,1 F,0,192232,192430,1,0
Sprite,Foreground,TopLeft,"Storyboard\ge.png",320,240 M,0,190456,,269,402 F,0,190456,190654,0,1 F,0,192232,192430,1,0
Sprite,Foreground,TopLeft,"Storyboard\ca.png",320,240 M,0,192627,,107,402 F,0,192627,192825,0,1 F,0,198746,198943,1,0
Sprite,Foreground,TopLeft,"Storyboard\cb.png",320,240 M,0,195785,,389,402 F,0,195785,195982,0,1 F,0,198746,198943,1,0
Sprite,Foreground,TopLeft,"Storyboard\cc.png",320,240 M,0,199140,,107,402 F,0,199140,199338,0,1 F,0,204864,205061,1,0
Sprite,Foreground,TopLeft,"Storyboard\cd.png",320,240 M,0,203680,,325,402 F,0,203680,203877,0,1 F,0,204864,205061,1,0
Sprite,Foreground,TopLeft,"Storyboard\ce.png",320,240 M,0,205259,,107,402 F,0,205259,205456,0,1 F,0,211180,211377,1,0
Sprite,Foreground,TopLeft,"Storyboard\cf.png",320,240 M,0,208417,,341,402 F,0,208417,208614,0,1 F,0,211180,211377,1,0
Sprite,Foreground,TopLeft,"Storyboard\cg.png",320,240 M,0,211772,,107,402 F,0,211772,211969,0,1 F,0,223417,223614,1,0
Sprite,Foreground,TopLeft,"Storyboard\ch.png",320,240 M,0,219075,,348,402 F,0,219075,219272,0,1 F,0,223417,223614,1,0
//Storyboard Sound Samples
//Background Colour Transformations
3,100,163,162,255

[TimingPoints]
983,394.736842105263,4,2,1,100,1,0
5719,-200,4,2,1,100,0,0
6805,-200,4,2,1,5,0,0
7002,-100,4,2,1,100,0,0
18645,-200,4,2,1,100,0,0
19436,-200,4,2,1,5,0,0
19634,-200,4,2,1,100,0,0
19930,-100,4,1,1,50,0,0
20224,-100,4,2,1,60,0,0
20422,-100,4,2,1,80,0,0
32757,-100,4,2,1,100,0,0
45784,-100,4,2,1,90,0,0
46376,-100,4,2,1,95,0,0
58415,-100,4,2,1,80,0,0
59205,-100,4,2,1,96,0,0
60390,-200,4,2,1,100,0,0
61474,-100,4,2,1,100,0,0
62561,-100,4,2,1,100,0,1
62660,-100,4,2,1,100,0,0
75242,-100,4,2,1,80,0,0
75685,-100,4,2,1,100,0,0
76821,-100,4,2,1,80,0,0
77264,-100,4,2,1,100,0,0
87922,-200,4,2,1,100,0,0
92560,-100,4,2,1,5,0,0
105193,-111.111111111111,4,2,1,70,0,0
107167,-111.111111111111,4,2,1,80,0,0
118614,-111.111111111111,4,2,1,70,0,0
119107,-111.111111111111,4,2,1,95,0,0
128877,-111.111111111111,4,2,1,85,0,0
131048,-111.111111111111,4,2,1,75,0,0
131838,-200,4,2,1,95,0,0
134009,-200,4,2,1,70,0,0
134107,-111.111111111111,4,2,1,90,0,0
135094,-100,4,2,1,90,0,0
135193,-100,4,2,1,90,0,1
135292,-100,4,2,1,95,0,0
147726,-100,4,2,1,80,0,0
148417,-100,4,2,1,95,0,0
149305,-100,4,2,1,80,0,0
149996,-100,4,2,1,95,0,0
157101,-111.111111111111,4,2,1,90,0,0
160456,-200,4,2,1,85,0,0
165588,-200,4,2,1,0,0,0
174272,-200,4,2,1,90,0,0
177627,-200,4,2,0,80,0,0
180588,-200,4,2,0,70,0,0
180982,-200,4,2,0,80,0,0
183450,-111.111111111111,4,2,1,40,0,0
184091,-111.111111111111,4,2,1,60,0,0
187101,-100,4,2,1,70,0,0
188680,-100,4,2,1,60,0,0
190259,-100,4,1,0,50,0,0
190357,-100,4,2,1,70,0,0
191542,-200,4,2,1,60,0,0
192529,-100,4,2,1,100,0,0
193614,-100,4,2,1,100,0,1
193713,-100,4,2,1,100,0,0
204963,-100,4,2,1,95,0,0
206147,-100,4,2,1,80,0,0
206838,-100,4,2,1,95,0,0
207726,-100,4,2,1,80,0,0
208417,-100,4,2,1,95,0,0
211871,-100,4,2,1,70,0,0
212561,-100,4,2,1,95,0,0
215522,-111.111111111111,4,2,1,90,0,0
218877,-200,4,2,1,85,0,0

[Colours]
Combo1 : 137,99,62
Combo2 : 89,82,77
Combo3 : 63,106,150
Combo4 : 182,82,84

[HitObjects]
496,192,6114,2,0,B|432:120|384:192|344:256|264:184,1,255,0|4
269,189,7693,5,8
200,104,8088,1,0
200,104,8285,2,0,B|144:96|128:136,1,85,0|8
156,210,8680,2,0,B|172:162|108:122,1,85
56,164,9075,2,0,B|104:180|144:116,1,85,0|8
73,58,9469,1,0
152,160,9667,2,0,B|208:158,2,42.5
72,256,10061,2,0,B|24:256,2,42.5,8|0|0
240,336,10456,6,0,B|64:344,1,170,0|8
96,232,11048,1,0
96,232,11246,1,0
200,264,11443,2,0,B|312:280,1,85,0|8
392,192,11838,2,0,B|280:192,1,85
200,120,12232,2,0,B|312:104,1,85,0|8
352,176,12627,1,0
432,128,12825,1,0
432,128,12923,1,0
432,128,13022,1,0
384,48,13219,1,8
384,48,13318,1,0
384,48,13417,1,0
288,112,13614,6,0,B|96:72,1,170,4|8
96,168,14206,1,0
121,78,14404,1,0
232,120,14601,2,0,B|328:120,1,85,0|8
192,192,14996,2,0,B|104:192,1,85
232,272,15390,2,8,B|336:272,1,85,0|8
192,336,15785,1,0
112,288,15982,2,0,B|40:264,2,42.5
184,224,16377,2,0,B|112:200,2,42.5,8|0|0
112,288,16772,6,0,B|48:216|112:128,1,170,0|8
160,208,17364,1,0
224,136,17561,2,0,B|272:160|336:120,1,85
392,48,17956,2,0,B|344:24|280:64,1,85,8|8
488,136,18351,2,0,B|440:160|376:120,1,85,8|8
296,144,18746,6,0,B|184:160|192:8|72:48,1,255,8|4
78,46,20325,1,4
64,136,20522,5,0
64,136,20621,1,0
64,136,20719,2,0,B|32:184|80:240,1,85,0|0
152,184,21114,1,8
152,184,21311,1,0
224,264,21509,2,0,B|280:184|208:80,1,170,4|8
152,184,22101,5,0
152,184,22200,1,0
152,184,22298,2,0,B|184:232|136:288,1,85,0|0
104,344,22693,1,8
104,344,22890,1,0
200,336,23088,2,0,B|280:280|384:352,1,170,0|8
392,248,23680,6,0,B|368:200|408:160,1,85
472,112,24075,2,0,B|440:80|368:80,1,85,0|8
320,136,24469,1,0
320,136,24667,2,0,B|248:48|144:64,1,170,0|8
173,61,25259,1,0
64,152,25654,6,0,B|40:192|40:192|64:232,1,85,0|8
160,272,26048,2,0,B|200:192|200:192|160:112,1,170,0|0
120,192,26640,1,8
208,336,27035,6,0,B|256:352|328:320,1,85
272,248,27430,2,0,B|312:216|376:240,1,85,8|0
384,312,27825,2,0,B|488:256|416:136,1,170,0|8
352,192,28417,1,0
272,216,28614,2,0,B|224:128|360:80,1,170,0|8
400,144,29206,1,0
440,216,29404,2,0,B|496:208|496:296,2,85,0|0|8
368,264,29996,6,0,B|256:248,1,85
224,192,30390,2,0,B|224:144|272:128,1,85,0|8
352,96,30785,1,0
280,56,30983,2,0,B|192:8|88:56,1,170,0|8
104,128,31575,1,0
184,144,31772,1,0
192,232,31969,1,0
264,192,32167,2,0,B|312:152|368:160,1,85,8|0
416,208,32561,1,0
96,208,32956,1,8
96,208,33154,6,0,B|72:264,5,42.5
96,208,33746,2,0,B|144:240|192:200|192:136|120:96,1,170,8|4
146,114,34338,1,0
80,56,34535,1,8
80,144,34733,6,0,B|32:112,5,42.5
80,144,35325,2,0,B|40:192|64:240|136:256|184:176,1,170,8|0
157,207,35917,1,0
224,160,36114,1,8
280,120,36311,6,0,B|392:96,1,85
440,64,36706,2,0,B|480:112|424:168,1,85,0|8
432,224,37101,1,0
432,224,37298,2,0,B|336:168|256:248,1,170,0|8
296,312,37890,2,0,B|264:360|192:352,2,85
320,224,38482,1,8
344,144,38680,2,0,B|248:120,1,85
176,120,39075,2,0,B|80:120,2,85,2|10|2
224,192,39667,5,0
224,192,39864,2,0,B|280:264,2,85,0|8|0
272,120,40456,2,0,B|64:96,1,170,0|8
48,168,41048,1,0
48,168,41246,1,0
112,224,41443,1,0
112,224,41640,1,8
72,304,41838,2,0,B|368:336,1,255,0|8
408,320,42627,6,0,B|384:280|408:216,1,85
368,112,43022,2,0,B|312:112|296:168,1,85,0|8
280,280,43417,2,0,B|240:304|192:280,1,85
120,264,43811,1,0
120,264,44009,1,8
144,184,44206,6,0,B|216:176|288:80,1,170
256,192,44798,1,8
368,200,44996,2,0,B|296:208|224:304,1,170,4|0
176,360,45588,1,8
464,192,45982,1,8
464,192,46180,1,8
248,304,46575,5,0
184,312,46772,1,8
200,248,46969,1,8
304,152,47364,1,0
312,88,47561,1,8
248,104,47759,1,8
64,200,48154,5,0
120,240,48351,1,4
144,176,48548,1,0
208,160,48746,2,0,B|312:136,1,85,8|0
304,272,49140,2,0,B|200:296,1,85
221,291,49535,1,8
144,320,49732,5,0
96,224,49930,1,8
48,128,50127,1,8
96,224,50522,5,0
200,184,50719,1,8
304,144,50917,1,8
200,184,51311,5,0
264,216,51509,1,4
328,248,51706,1,0
392,272,51904,2,0,B|496:272,1,85,8|0
344,168,52298,2,0,B|432:168,1,85
429,168,52693,1,8
472,240,52890,5,0
472,240,52989,1,0
472,240,53088,2,0,B|432:264|376:240,1,85,4|0
328,304,53482,2,0,B|264:288|208:296,1,85,8|0
176,208,53877,2,0,B|240:192|296:200,1,85
328,112,54272,2,0,B|264:96|208:104,1,85,8|0
128,96,54667,6,0,B|192:176,1,85
144,296,55061,2,0,B|80:224,1,85,8|0
216,216,55456,2,0,B|280:296,1,85
344,168,55851,2,0,B|280:96,1,85,8|0
248,24,56246,5,4
232,104,56443,1,0
184,168,56640,1,0
104,184,56838,1,4
16,176,57035,1,0
264,360,57430,5,4
280,280,57627,1,0
328,216,57825,1,0
408,200,58022,1,4
496,208,58219,1,0
256,192,58614,5,4
256,192,59009,1,4
384,80,59404,6,0,B|344:48|280:40,1,85,8|8
128,304,59996,2,0,B|168:336|232:344,1,85,8|8
344,192,60588,2,0,B|304:160|200:232|168:176,1,170,8|8
200,104,61575,5,0
120,72,61772,1,0
136,152,61969,1,0
56,120,62167,1,8
64,208,62364,1,0
144,240,62561,2,0,B|208:272,4,42.5,4|0|0|0|8
192,168,63154,5,0
264,128,63351,1,0
352,120,63548,1,0
432,144,63746,1,8
464,224,63943,1,0
480,304,64140,2,0,B|520:344,4,42.5,0|0|2|0|10
400,320,64732,6,0,B|352:352|288:320,1,85,0|0
304,248,65127,2,0,B|272:216|216:240,1,85,0|8
176,312,65522,2,0,B|136:288|144:216,2,85
264,320,66114,1,8
344,344,66311,2,0,B|400:368|448:336,1,85
384,272,66706,2,0,B|328:248|280:280,1,85,0|8
256,344,67101,1,0
184,296,67298,1,0
96,296,67496,1,2
72,208,67693,5,10
80,192,67792,1,0
88,176,67890,1,2
96,160,67989,1,0
104,144,68088,2,0,B|144:56,1,85,0|2
208,112,68482,2,0,B|248:88|312:112,1,85,8|0
384,176,68877,2,0,B|376:288|248:296,1,170,4|8
264,72,69469,2,0,B|344:32|440:64,1,170
488,128,70061,1,8
488,128,70259,1,0
472,240,70456,6,0,B|376:200,1,85
392,304,70851,2,0,B|280:288,1,85,8|0
224,280,71246,1,0
264,208,71443,2,0,B|339:227|355:163,1,85,0|8
384,112,71838,2,0,B|368:64|304:64,1,85
96,144,72430,5,8
168,176,72627,2,0,B|264:200,1,85
336,200,73022,2,0,B|376:144|328:96,1,85,0|8
264,120,73417,2,0,B|232:136|168:104,1,85
104,72,73811,1,0
56,144,74009,5,8
64,160,74107,1,0
72,176,74206,1,2
80,192,74305,1,0
88,208,74404,2,0,B|144:320,1,85,0|2
208,312,74798,1,8
208,312,74996,2,0,B|248:224,1,85
272,208,75292,2,8,B|320:208,3,42.5,8|8|8|4
352,136,75785,5,2
424,184,75982,1,0
448,264,76180,1,2
400,336,76377,1,8
320,320,76575,2,0,B|208:304,1,85,2|0
200,288,76871,2,8,B|200:240,3,42.5
160,168,77364,6,0,B|112:160|72:184,1,85,0|2
64,264,77759,2,0,B|56:320|112:352,1,85,2|8
208,320,78154,2,0,B|260:306|328:304,2,85,2|0|2
144,264,78746,1,8
144,264,78943,2,0,B|104:184|192:104,2,170,2|2|2
144,264,80127,1,2
352,272,80325,6,0,B|368:168,1,85,10|2
424,128,80719,1,0
424,128,80917,1,0
368,64,81114,2,0,B|264:40,1,85,8|0
200,40,81509,6,0,B|160:136|200:208,1,170,4|8
416,288,82101,2,0,B|320:328|224:288,1,170
176,256,82693,1,8
144,176,82890,1,0
104,104,83088,2,0,B|136:56|192:64,1,85
232,128,83483,2,0,B|280:152|344:112,1,85,8|0
392,88,83877,1,0
315,127,84075,2,8,B|299:31,1,85,0|8
208,80,84469,1,0
208,80,84667,2,0,B|248:256,1,170,4|0
256,352,85259,5,4
256,40,85851,1,4
256,40,86048,1,4
256,192,86147,12,0,87430
256,240,88022,6,0,B|256:288,4,42.5,8|8|0|8|8
256,192,89206,12,0,92561
256,100,105785,6,0,B|176:100,1,76.4999963521959,0|8
104,60,106180,2,0,B|104:16,2,38.249998176098,8|8|8
104,144,106575,1,8
104,144,106772,2,0,B|104:300,1,152.999992704392,4|8
176,340,107364,6,0,B|256:284,1,76.4999963521959
196,224,107759,2,0,B|216:140,2,76.4999963521959,0|8|0
280,224,108351,2,0,B|436:224,1,152.999992704392,0|8
488,160,108943,5,0
488,160,109140,1,0
432,96,109338,1,0
432,96,109535,1,8
488,32,109733,1,0
488,32,109930,2,0,B|324:32,1,152.999992704392,0|8
288,104,110522,6,0,B|236:104|236:40,1,76.4999963521959
160,28,110917,2,0,B|112:28|112:88,1,76.4999963521959,0|8
164,144,111311,2,0,B|164:192|112:196,1,76.4999963521959
68,264,111706,1,2
68,264,111904,1,10
120,332,112101,1,2
120,332,112298,6,0,B|244:332,1,114.749994528294
260,332,112693,2,0,B|308:332|308:268,2,76.4999963521959,8|0|0
192,176,113483,1,8
248,112,113680,1,0
300,176,113877,2,0,B|424:176,1,114.749994528294
440,176,114272,2,0,B|488:176|488:240,2,76.4999963521959,8|0|0
384,336,115061,6,0,B|468:336,2,76.4999963521959,8|0|0
260,312,115752,2,0,B|224:280,1,38.249998176098,0|8
180,220,116048,1,0
180,220,116246,2,0,B|180:64,1,152.999992704392,2|8
96,48,116838,6,0,B|45:54|46:116,1,76.4999963521959,2|0
96,271,117233,2,0,B|127:311|180:279,1,76.4999963521959,2|8
290,160,117627,2,0,B|309:112|255:82,2,76.4999963521959,6|0|0
292,244,118219,5,8
292,244,118417,1,0
292,244,118811,2,0,B|292:288,2,38.249998176098,8|8|8
360,192,119206,5,0
360,192,119404,1,8
360,192,119601,1,8
444,48,119996,1,0
444,48,120193,1,8
444,48,120390,1,8
276,48,120785,1,0
276,48,120983,1,4
224,112,121180,1,0
224,112,121377,1,8
168,48,121575,2,0,B|168:4,2,38.249998176098
116,112,121969,2,0,B|76:112,2,38.249998176098,0|0|8
92,192,122364,5,0
172,276,122561,1,8
288,284,122759,1,8
288,48,123154,5,0
404,56,123351,1,8
484,140,123548,1,8
256,192,123943,5,0
216,120,124140,1,4
132,120,124338,1,0
88,192,124535,1,8
172,192,124733,1,0
132,264,124930,2,0,B|84:264,2,38.249998176098
172,336,125325,1,8
216,264,125522,1,0
216,264,125621,1,0
216,264,125719,6,0,B|372:264,1,152.999992704392,6|8
296,120,126509,2,0,B|140:120,1,152.999992704392,0|10
256,356,127298,5,2
480,192,127693,1,10
256,28,128088,1,2
32,192,128483,1,10
96,244,128680,6,0,B|96:288,2,38.249998176098,0|0|12
116,160,129075,1,0
160,88,129272,1,0
228,40,129469,1,12
312,32,129667,1,0
416,140,130061,5,12
396,224,130259,1,0
352,296,130456,1,0
284,344,130654,1,12
200,352,130851,1,0
256,192,131246,5,4
256,192,131640,1,4
80,192,132035,5,8
80,192,132233,1,8
432,192,132627,1,8
432,192,132825,1,8
256,36,133219,2,0,B|200:92|308:144|256:192,1,170,8|8
196,252,134206,5,0
196,252,134404,2,0,B|116:252,2,76.4999963521959,2|0|2
188,336,134996,1,0
188,336,135193,2,0,B|368:336,1,170,4|8
440,320,135785,6,0,B|492:320|492:252,2,85
396,248,136377,2,0,B|344:248|344:180,2,85,8|0|0
428,168,136969,1,2
428,168,137167,1,10
384,96,137364,6,0,B|304:40,1,85
244,96,137759,2,0,B|208:16,2,85,0|8|0
160,96,138351,2,0,B|55:108|51:235,1,170,0|8
100,280,138943,6,0,B|132:364,1,85,0|0
196,308,139338,2,0,B|276:360,1,85,0|8
300,276,139733,2,0,B|396:300,1,85
400,212,140127,2,0,B|484:212,1,85,0|8
256,28,140719,6,0,B|360:40|364:167,2,170,0|8|4
92,80,141904,1,8
92,80,142101,1,0
149,242,142496,1,0
149,242,142693,2,0,B|151:343|256:356,2,170,8|0|8
64,244,143680,2,0,B|240:244,1,170
272,168,144272,2,0,B|96:168,2,170,8|0|8
356,168,145259,5,0
468,40,145654,1,0
468,40,145851,2,0,B|292:40,1,170,8|0
244,108,146443,1,2
192,40,146640,1,10
140,108,146838,2,0,B|92:108,2,42.5
140,192,147233,2,0,B|140:244|88:248,2,85,0|8|0
224,192,147825,6,0,B|276:192,2,42.5,8|8|8
244,276,148219,2,0,B|244:360,2,85,12|0|0
328,276,148811,2,0,B|328:192,2,85,0|8|0
412,276,149404,1,8
412,276,149502,1,8
412,276,149601,2,0,B|464:280|464:344,2,85,8|12|0
468,212,150193,1,0
468,212,150390,1,0
412,148,150588,1,8
412,148,150785,1,0
464,80,150983,2,0,B|296:80,1,170,4|8
220,40,151575,6,0,B|152:88,1,85
272,268,151969,2,0,B|340:220,1,85,0|8
280,132,152364,2,0,B|212:180,1,85
332,360,152759,2,0,B|400:312,1,85,0|8
40,192,153351,5,0
286,49,153746,1,8
40,192,154140,1,4
286,334,154535,1,8
368,312,154733,5,0
368,312,155127,1,0
428,252,155325,1,8
428,252,155719,1,0
428,252,156114,1,8
456,172,156311,1,0
456,172,156706,1,0
456,88,156904,1,8
292,48,157298,6,0,B|120:48,1,152.999992704392,4|0
104,124,157890,2,0,B|272:124,1,152.999992704392,4|0
292,200,158483,1,0
256,276,158680,1,4
256,192,158877,12,0,160259
256,276,160654,6,0,B|256:320,4,42.5,8|8|0|8|8
256,108,161838,1,0
256,192,162035,12,0,165588
256,192,174667,12,2,176048
256,72,176443,5,8
256,72,176640,1,8
256,312,177035,1,8
256,312,177233,1,8
32,192,177825,6,0,B|32:96,2,85,0|0|0
136,316,179009,1,0
240,192,179404,2,0,B|372:192,1,127.5
432,144,180193,2,0,B|482:154|482:210,2,85,0|8|0
280,92,181377,6,0,B|280:42|330:32,2,85
132,156,182561,2,0,B|64:156,2,63.75
192,216,183351,1,0
192,216,183548,2,0,B|192:268,5,38.249998176098,8|8|8|8|8|8
192,216,184140,6,0,B|192:128|96:96,1,152.999992704392,4|8
320,168,184930,2,0,B|320:256|416:288,1,152.999992704392,0|8
128,336,185719,2,0,B|296:360,1,152.999992704392,0|8
384,48,186509,2,0,B|216:24,1,152.999992704392,0|8
136,216,187298,5,4
56,272,187496,1,4
256,88,187890,1,4
376,216,188285,1,4
456,272,188483,1,4
136,272,188877,6,0,B|104:240|136:184,1,76.4999963521959,8|0
376,112,189272,2,0,B|408:144|376:200,1,76.4999963521959,8|0
256,224,189667,2,0,B|256:368,2,127.5,4|2|4
136,168,190456,5,4
56,112,190654,1,4
256,296,191048,1,4
376,168,191443,1,4
456,112,191640,2,0,B|440:40|352:144|328:40,1,170,4|0
176,104,192627,5,0
104,56,192825,1,0
112,144,193022,1,0
40,192,193219,1,8
120,232,193417,1,0
200,192,193614,1,4
216,192,193713,1,0
232,192,193811,1,0
248,192,193910,1,0
264,192,194009,1,12
352,248,194206,5,0
432,280,194404,1,0
408,200,194601,1,0
480,160,194798,1,8
400,128,194996,1,0
344,64,195193,1,0
328,64,195292,1,0
312,64,195390,1,2
296,64,195489,1,0
280,64,195588,1,10
240,136,195785,6,0,B|128:160,1,85,0|2
152,72,196180,2,0,B|64:64,1,85,0|8
72,152,196575,2,0,B|48:240,2,85
144,192,197167,1,8
216,152,197364,2,0,B|320:144,1,85
264,224,197759,2,0,B|160:232,1,85,0|8
96,240,198154,1,0
152,176,198351,1,0
184,256,198548,1,2
248,312,198746,5,10
264,320,198844,1,0
280,328,198943,1,2
296,320,199042,1,0
312,312,199140,2,0,B|416:264,1,85,0|2
464,240,199535,2,0,B|440:144,1,85,8|0
336,48,199930,2,0,B|232:24|176:96,1,170,4|8
320,280,200522,2,0,B|272:112,1,170
248,32,201114,1,8
248,32,201311,1,0
176,80,201509,6,0,B|136:56|80:80,1,85
48,152,201904,2,0,B|88:176|144:152,1,85,8|0
176,80,202298,1,0
232,144,202496,2,0,B|264:184|224:256,1,85,0|8
224,312,202890,2,0,B|272:336|320:296,1,85,0|4
88,256,203483,5,8
88,256,203680,1,0
88,256,203877,2,0,B|272:248,2,170,0|8|0
32,192,204864,1,0
68,72,205061,5,10
120,140,205259,1,0
132,140,205358,1,0
144,140,205456,2,0,B|232:140,2,85,0|0|8
144,224,206048,1,0
224,248,206246,1,8
224,260,206344,1,8
224,272,206443,2,0,B|224:356,2,85,8|12|0
300,312,207035,1,0
300,312,207233,1,0
376,272,207430,1,8
376,272,207627,1,0
408,192,207825,6,0,B|456:192,2,42.5,8|8|8
376,112,208219,2,0,B|348:32,1,85,12|0
288,92,208614,2,0,B|208:44,1,85
168,120,209009,2,0,B|80:116,2,85,8|0|4
256,264,209798,1,8
256,264,209996,2,0,B|256:356,1,85
336,320,210390,2,0,B|336:228,1,85,0|8
416,208,210785,2,0,B|416:300,1,85
496,264,211180,2,0,B|496:172,1,85,0|8
308,72,211772,5,8
224,52,211969,2,0,B|172:52,5,42.5,8|8|8|8|8|8
156,52,212561,2,0,B|55:64|53:165,1,170,4|8
120,220,213154,2,0,B|220:232|222:333,1,170,0|0
308,332,213746,2,0,B|140:332,2,170,8|0|8
376,284,214733,2,0,B|443:207|373:127,1,170,0|0
308,80,215325,1,8
108,132,215719,6,0,B|44:204|120:284,1,152.999992704392,4|0
172,216,216311,2,0,B|236:288|160:368,1,152.999992704392,4|0
88,352,216904,2,0,B|12:352,1,76.4999963521959,0|4
256,192,217298,12,0,218680
184,164,219075,6,0,B|236:164,3,42.5,8|8|0|8
288,216,219864,2,0,B|384:216,1,85,8|0
256,192,220456,12,0,223614
