osu file format v13

[General]
AudioFilename: shinsekai.mp3
AudioLeadIn: 0
PreviewTime: -1
Countdown: 1
SampleSet: Normal
StackLeniency: 0.7
Mode: 3
LetterboxInBreaks: 1
SpecialStyle: 0
WidescreenStoryboard: 0

[Editor]
DistanceSpacing: 0.9
BeatDivisor: 4
GridSize: 8
TimelineZoom: 2.1

[Metadata]
Title:Shinsekai
TitleUnicode:Shinsekai
Artist:Shiraishi
ArtistUnicode:Shiraishi
Creator:Xay
Version:Insane
Source:Nuclear Blast 4
Tags:Xayphon StepMania
BeatmapID:477978
BeatmapSetID:201910

[Difficulty]
HPDrainRate:9
CircleSize:4
OverallDifficulty:9
ApproachRate:5
SliderMultiplier:1.4
SliderTickRate:1

[Events]
//Background and Video events
0,0,"BG.jpg",0,0
//Break Periods
//Storyboard Layer 0 (Background)
//Storyboard Layer 1 (Fail)
//Storyboard Layer 2 (Pass)
//Storyboard Layer 3 (Foreground)
//Storyboard Sound Samples
//Background Colour Transformations
3,100,163,162,255

[TimingPoints]
1257,310.880829015544,4,1,0,15,1,0

[HitObjects]
64,192,1257,5,0,0:0:0:0:
320,192,1257,1,0,0:0:0:0:
448,192,1257,1,0,0:0:0:0:
192,192,1412,1,0,0:0:0:0:
320,192,1567,1,0,0:0:0:0:
448,192,1723,1,0,0:0:0:0:
448,192,2189,1,0,0:0:0:0:
192,192,2500,1,0,0:0:0:0:
448,192,2500,1,0,0:0:0:0:
64,192,2966,1,0,0:0:0:0:
192,192,2966,1,0,0:0:0:0:
64,192,3744,1,0,0:0:0:0:
192,192,3744,1,0,0:0:0:0:
448,192,3744,1,0,0:0:0:0:
64,192,4365,1,0,0:0:0:0:
192,192,4521,1,0,0:0:0:0:
320,192,4676,1,0,0:0:0:0:
448,192,4832,1,0,0:0:0:0:
192,192,4987,1,0,0:0:0:0:
448,192,4987,1,0,0:0:0:0:
192,192,5453,1,0,0:0:0:0:
448,192,5453,1,0,0:0:0:0:
64,192,5920,1,0,0:0:0:0:
192,192,6231,1,0,0:0:0:0:
320,192,6231,1,0,0:0:0:0:
448,192,6231,1,0,0:0:0:0:
192,192,7008,1,0,0:0:0:0:
448,192,7008,1,0,0:0:0:0:
320,192,7163,1,0,0:0:0:0:
192,192,7319,1,0,0:0:0:0:
64,192,7474,1,0,0:0:0:0:
192,192,7474,1,0,0:0:0:0:
320,192,7474,1,0,0:0:0:0:
192,192,9029,1,0,0:0:0:0:
320,192,9029,1,0,0:0:0:0:
192,192,9495,1,0,0:0:0:0:
448,192,9495,1,0,0:0:0:0:
64,192,9961,1,0,0:0:0:0:
192,192,9961,1,0,0:0:0:0:
448,192,9961,1,0,0:0:0:0:
320,192,10039,1,0,0:0:0:0:
192,192,10117,1,0,0:0:0:0:
320,192,10194,1,0,0:0:0:0:
64,192,10272,1,0,0:0:0:0:
448,192,10272,1,0,0:0:0:0:
320,192,10350,1,0,0:0:0:0:
64,192,10427,1,0,0:0:0:0:
320,192,10505,1,0,0:0:0:0:
64,192,10583,1,0,0:0:0:0:
192,192,10583,1,0,0:0:0:0:
320,192,10661,1,0,0:0:0:0:
448,192,10738,1,0,0:0:0:0:
320,192,10816,1,0,0:0:0:0:
64,192,10894,1,0,0:0:0:0:
448,192,10894,1,0,0:0:0:0:
192,192,10972,1,0,0:0:0:0:
448,192,11049,1,0,0:0:0:0:
192,192,11127,1,0,0:0:0:0:
64,192,11205,1,0,0:0:0:0:
448,192,11205,1,0,0:0:0:0:
320,192,11282,1,0,0:0:0:0:
192,192,11360,1,0,0:0:0:0:
448,192,11438,1,0,0:0:0:0:
192,192,11516,1,0,0:0:0:0:
320,192,11516,1,0,0:0:0:0:
64,192,11593,1,0,0:0:0:0:
192,192,11671,1,0,0:0:0:0:
320,192,11749,1,0,0:0:0:0:
64,192,11826,1,0,0:0:0:0:
192,192,11826,1,0,0:0:0:0:
320,192,11904,1,0,0:0:0:0:
448,192,11904,1,0,0:0:0:0:
192,192,11982,1,0,0:0:0:0:
320,192,12060,1,0,0:0:0:0:
192,192,12137,1,0,0:0:0:0:
448,192,12137,1,0,0:0:0:0:
320,192,12215,1,0,0:0:0:0:
192,192,12293,1,0,0:0:0:0:
64,192,12370,1,0,0:0:0:0:
320,192,12448,1,0,0:0:0:0:
448,192,12448,1,0,0:0:0:0:
64,192,12526,1,0,0:0:0:0:
320,192,12604,1,0,0:0:0:0:
192,192,12681,1,0,0:0:0:0:
320,192,12759,1,0,0:0:0:0:
448,192,12759,1,0,0:0:0:0:
64,192,12837,1,0,0:0:0:0:
320,192,12915,1,0,0:0:0:0:
192,192,12992,1,0,0:0:0:0:
320,192,13070,1,0,0:0:0:0:
448,192,13070,1,0,0:0:0:0:
64,192,13148,1,0,0:0:0:0:
320,192,13225,1,0,0:0:0:0:
192,192,13303,1,0,0:0:0:0:
64,192,13381,1,0,0:0:0:0:
448,192,13381,1,0,0:0:0:0:
320,192,13459,1,0,0:0:0:0:
192,192,13536,1,0,0:0:0:0:
64,192,13614,1,0,0:0:0:0:
448,192,13614,1,0,0:0:0:0:
192,192,13692,1,0,0:0:0:0:
320,192,13692,1,0,0:0:0:0:
448,192,13769,1,0,0:0:0:0:
320,192,13847,1,0,0:0:0:0:
192,192,13925,1,0,0:0:0:0:
320,192,14003,1,0,0:0:0:0:
448,192,14003,1,0,0:0:0:0:
64,192,14080,1,0,0:0:0:0:
320,192,14158,1,0,0:0:0:0:
64,192,14236,1,0,0:0:0:0:
320,192,14313,1,0,0:0:0:0:
448,192,14313,1,0,0:0:0:0:
64,192,14391,1,0,0:0:0:0:
192,192,14391,1,0,0:0:0:0:
320,192,14469,1,0,0:0:0:0:
64,192,14547,1,0,0:0:0:0:
192,192,14547,1,0,0:0:0:0:
320,192,14624,1,0,0:0:0:0:
448,192,14624,1,0,0:0:0:0:
192,192,14702,1,0,0:0:0:0:
64,192,14780,1,0,0:0:0:0:
448,192,14780,1,0,0:0:0:0:
320,192,14858,1,0,0:0:0:0:
64,192,14935,1,0,0:0:0:0:
448,192,14935,1,0,0:0:0:0:
192,192,15013,1,0,0:0:0:0:
448,192,15091,1,0,0:0:0:0:
192,192,15168,1,0,0:0:0:0:
320,192,15246,1,0,0:0:0:0:
448,192,15246,1,0,0:0:0:0:
192,192,15324,1,0,0:0:0:0:
320,192,15402,1,0,0:0:0:0:
192,192,15479,1,0,0:0:0:0:
64,192,15557,1,0,0:0:0:0:
448,192,15557,1,0,0:0:0:0:
320,192,15635,1,0,0:0:0:0:
448,192,15712,1,0,0:0:0:0:
192,192,15790,1,0,0:0:0:0:
320,192,15868,1,0,0:0:0:0:
448,192,15868,1,0,0:0:0:0:
64,192,15946,1,0,0:0:0:0:
448,192,16023,1,0,0:0:0:0:
320,192,16101,1,0,0:0:0:0:
192,192,16179,1,0,0:0:0:0:
448,192,16179,1,0,0:0:0:0:
64,192,16257,1,0,0:0:0:0:
192,192,16334,1,0,0:0:0:0:
320,192,16412,1,0,0:0:0:0:
64,192,16490,1,0,0:0:0:0:
192,192,16490,1,0,0:0:0:0:
448,192,16567,1,0,0:0:0:0:
64,192,16645,1,0,0:0:0:0:
192,192,16723,1,0,0:0:0:0:
64,192,16801,1,0,0:0:0:0:
448,192,16801,1,0,0:0:0:0:
192,192,16878,1,0,0:0:0:0:
320,192,16878,1,0,0:0:0:0:
448,192,16956,1,0,0:0:0:0:
320,192,17034,1,0,0:0:0:0:
64,192,17111,1,0,0:0:0:0:
448,192,17111,1,0,0:0:0:0:
192,192,17189,1,0,0:0:0:0:
320,192,17267,1,0,0:0:0:0:
448,192,17345,1,0,0:0:0:0:
64,192,17422,1,0,0:0:0:0:
192,192,17422,1,0,0:0:0:0:
320,192,17500,1,0,0:0:0:0:
192,192,17578,1,0,0:0:0:0:
448,192,17655,1,0,0:0:0:0:
64,192,17733,1,0,0:0:0:0:
320,192,17733,1,0,0:0:0:0:
192,192,17811,1,0,0:0:0:0:
320,192,17889,1,0,0:0:0:0:
64,192,17966,1,0,0:0:0:0:
192,192,18044,1,0,0:0:0:0:
448,192,18044,1,0,0:0:0:0:
320,192,18122,1,0,0:0:0:0:
448,192,18200,1,0,0:0:0:0:
320,192,18277,1,0,0:0:0:0:
192,192,18355,1,0,0:0:0:0:
448,192,18355,1,0,0:0:0:0:
64,192,18433,1,0,0:0:0:0:
192,192,18510,1,0,0:0:0:0:
320,192,18588,1,0,0:0:0:0:
448,192,18588,1,0,0:0:0:0:
64,192,18666,1,0,0:0:0:0:
192,192,18666,1,0,0:0:0:0:
320,192,18744,1,0,0:0:0:0:
192,192,18821,1,0,0:0:0:0:
64,192,18899,1,0,0:0:0:0:
192,192,18977,1,0,0:0:0:0:
448,192,18977,1,0,0:0:0:0:
320,192,19054,1,0,0:0:0:0:
192,192,19132,1,0,0:0:0:0:
64,192,19210,1,0,0:0:0:0:
192,192,19288,1,0,0:0:0:0:
320,192,19288,1,0,0:0:0:0:
64,192,19365,1,0,0:0:0:0:
448,192,19365,1,0,0:0:0:0:
320,192,19443,1,0,0:0:0:0:
192,192,19521,1,0,0:0:0:0:
448,192,19521,1,0,0:0:0:0:
64,192,19598,1,0,0:0:0:0:
320,192,19598,1,0,0:0:0:0:
192,192,19676,1,0,0:0:0:0:
64,192,19754,1,0,0:0:0:0:
448,192,19754,1,0,0:0:0:0:
320,192,19832,1,0,0:0:0:0:
64,192,19909,1,0,0:0:0:0:
192,192,19909,1,0,0:0:0:0:
448,192,19909,1,0,0:0:0:0:
320,192,19987,1,0,0:0:0:0:
448,192,20065,1,0,0:0:0:0:
64,192,20143,1,0,0:0:0:0:
320,192,20220,1,0,0:0:0:0:
448,192,20220,1,0,0:0:0:0:
192,192,20298,1,0,0:0:0:0:
320,192,20376,1,0,0:0:0:0:
64,192,20453,1,0,0:0:0:0:
192,192,20531,1,0,0:0:0:0:
448,192,20531,1,0,0:0:0:0:
320,192,20609,1,0,0:0:0:0:
448,192,20687,1,0,0:0:0:0:
320,192,20764,1,0,0:0:0:0:
192,192,20842,1,0,0:0:0:0:
448,192,20842,1,0,0:0:0:0:
64,192,20920,1,0,0:0:0:0:
192,192,20997,1,0,0:0:0:0:
320,192,21075,1,0,0:0:0:0:
192,192,21153,1,0,0:0:0:0:
448,192,21153,1,0,0:0:0:0:
64,192,21231,1,0,0:0:0:0:
192,192,21308,1,0,0:0:0:0:
448,192,21386,1,0,0:0:0:0:
192,192,21464,1,0,0:0:0:0:
320,192,21464,1,0,0:0:0:0:
64,192,21541,1,0,0:0:0:0:
448,192,21619,1,0,0:0:0:0:
64,192,21697,1,0,0:0:0:0:
320,192,21775,1,0,0:0:0:0:
448,192,21775,1,0,0:0:0:0:
64,192,21852,1,0,0:0:0:0:
192,192,21852,1,0,0:0:0:0:
320,192,21930,1,0,0:0:0:0:
64,192,22008,1,0,0:0:0:0:
320,192,22086,1,0,0:0:0:0:
448,192,22086,1,0,0:0:0:0:
192,192,22163,1,0,0:0:0:0:
320,192,22241,1,0,0:0:0:0:
192,192,22319,1,0,0:0:0:0:
64,192,22396,1,0,0:0:0:0:
448,192,22396,1,0,0:0:0:0:
320,192,22474,1,0,0:0:0:0:
64,192,22552,1,0,0:0:0:0:
448,192,22630,1,0,0:0:0:0:
192,192,22707,1,0,0:0:0:0:
320,192,22707,1,0,0:0:0:0:
448,192,22785,1,0,0:0:0:0:
320,192,22863,1,0,0:0:0:0:
192,192,22940,1,0,0:0:0:0:
64,192,23018,1,0,0:0:0:0:
448,192,23018,1,0,0:0:0:0:
320,192,23096,1,0,0:0:0:0:
448,192,23174,1,0,0:0:0:0:
192,192,23251,1,0,0:0:0:0:
320,192,23329,1,0,0:0:0:0:
448,192,23329,1,0,0:0:0:0:
64,192,23407,1,0,0:0:0:0:
320,192,23484,1,0,0:0:0:0:
64,192,23562,1,0,0:0:0:0:
448,192,23562,1,0,0:0:0:0:
192,192,23640,1,0,0:0:0:0:
320,192,23640,1,0,0:0:0:0:
448,192,23718,1,0,0:0:0:0:
320,192,23795,1,0,0:0:0:0:
64,192,23873,1,0,0:0:0:0:
320,192,23951,1,0,0:0:0:0:
448,192,23951,1,0,0:0:0:0:
64,192,24029,1,0,0:0:0:0:
320,192,24106,1,0,0:0:0:0:
448,192,24184,1,0,0:0:0:0:
192,192,24262,1,0,0:0:0:0:
320,192,24262,1,0,0:0:0:0:
64,192,24339,1,0,0:0:0:0:
448,192,24339,1,0,0:0:0:0:
192,192,24417,1,0,0:0:0:0:
320,192,24495,1,0,0:0:0:0:
448,192,24495,1,0,0:0:0:0:
64,192,24573,1,0,0:0:0:0:
192,192,24573,1,0,0:0:0:0:
448,192,24650,1,0,0:0:0:0:
192,192,24728,1,0,0:0:0:0:
320,192,24728,1,0,0:0:0:0:
64,192,24806,1,0,0:0:0:0:
192,192,24883,1,0,0:0:0:0:
320,192,24883,1,0,0:0:0:0:
448,192,24883,1,0,0:0:0:0:
64,192,24961,1,0,0:0:0:0:
192,192,25039,1,0,0:0:0:0:
320,192,25117,1,0,0:0:0:0:
192,192,25194,1,0,0:0:0:0:
448,192,25272,1,0,0:0:0:0:
64,192,25350,1,0,0:0:0:0:
320,192,25350,1,0,0:0:0:0:
192,192,25427,1,0,0:0:0:0:
64,192,25505,1,0,0:0:0:0:
320,192,25505,1,0,0:0:0:0:
448,192,25505,1,0,0:0:0:0:
192,192,25583,1,0,0:0:0:0:
448,192,25661,1,0,0:0:0:0:
64,192,25738,1,0,0:0:0:0:
320,192,25816,1,0,0:0:0:0:
192,192,25894,1,0,0:0:0:0:
320,192,25972,1,0,0:0:0:0:
448,192,25972,1,0,0:0:0:0:
64,192,26049,1,0,0:0:0:0:
192,192,26127,1,0,0:0:0:0:
320,192,26127,1,0,0:0:0:0:
448,192,26127,1,0,0:0:0:0:
64,192,26205,1,0,0:0:0:0:
448,192,26282,1,0,0:0:0:0:
192,192,26360,1,0,0:0:0:0:
320,192,26438,1,0,0:0:0:0:
64,192,26516,1,0,0:0:0:0:
192,192,26593,1,0,0:0:0:0:
320,192,26671,1,0,0:0:0:0:
192,192,26749,1,0,0:0:0:0:
320,192,26826,1,0,0:0:0:0:
448,192,26904,1,0,0:0:0:0:
192,192,26982,1,0,0:0:0:0:
448,192,27060,1,0,0:0:0:0:
320,192,27137,1,0,0:0:0:0:
192,192,27215,1,0,0:0:0:0:
448,192,27215,1,0,0:0:0:0:
320,192,27293,1,0,0:0:0:0:
64,192,27370,1,0,0:0:0:0:
192,192,27370,1,0,0:0:0:0:
448,192,27370,1,0,0:0:0:0:
320,192,27448,1,0,0:0:0:0:
448,192,27526,1,0,0:0:0:0:
320,192,27604,1,0,0:0:0:0:
64,192,27681,1,0,0:0:0:0:
192,192,27681,1,0,0:0:0:0:
320,192,27759,1,0,0:0:0:0:
192,192,27837,1,0,0:0:0:0:
64,192,27915,1,0,0:0:0:0:
320,192,27992,1,0,0:0:0:0:
448,192,27992,1,0,0:0:0:0:
64,192,28070,1,0,0:0:0:0:
448,192,28148,1,0,0:0:0:0:
320,192,28225,1,0,0:0:0:0:
192,192,28303,1,0,0:0:0:0:
448,192,28303,1,0,0:0:0:0:
64,192,28381,1,0,0:0:0:0:
448,192,28459,1,0,0:0:0:0:
192,192,28536,1,0,0:0:0:0:
320,192,28614,1,0,0:0:0:0:
448,192,28614,1,0,0:0:0:0:
192,192,28692,1,0,0:0:0:0:
320,192,28769,1,0,0:0:0:0:
64,192,28847,1,0,0:0:0:0:
320,192,28925,1,0,0:0:0:0:
448,192,28925,1,0,0:0:0:0:
192,192,29003,1,0,0:0:0:0:
320,192,29080,1,0,0:0:0:0:
64,192,29158,1,0,0:0:0:0:
320,192,29236,1,0,0:0:0:0:
448,192,29236,1,0,0:0:0:0:
64,192,29313,1,0,0:0:0:0:
192,192,29313,1,0,0:0:0:0:
320,192,29391,1,0,0:0:0:0:
64,192,29469,1,0,0:0:0:0:
192,192,29469,1,0,0:0:0:0:
320,192,29547,1,0,0:0:0:0:
448,192,29547,1,0,0:0:0:0:
64,192,29624,1,0,0:0:0:0:
320,192,29702,1,0,0:0:0:0:
448,192,29702,1,0,0:0:0:0:
192,192,29780,1,0,0:0:0:0:
64,192,29858,1,0,0:0:0:0:
320,192,29858,1,0,0:0:0:0:
448,192,29858,1,0,0:0:0:0:
192,192,29935,1,0,0:0:0:0:
64,192,30013,1,0,0:0:0:0:
192,192,30091,1,0,0:0:0:0:
320,192,30168,1,0,0:0:0:0:
448,192,30168,1,0,0:0:0:0:
192,192,30246,1,0,0:0:0:0:
448,192,30324,1,0,0:0:0:0:
192,192,30402,1,0,0:0:0:0:
320,192,30479,1,0,0:0:0:0:
448,192,30557,1,0,0:0:0:0:
64,192,30635,1,0,0:0:0:0:
320,192,30635,1,0,0:0:0:0:
192,192,30712,1,0,0:0:0:0:
320,192,30790,1,0,0:0:0:0:
448,192,30790,1,0,0:0:0:0:
192,192,30868,1,0,0:0:0:0:
320,192,30946,1,0,0:0:0:0:
448,192,31023,1,0,0:0:0:0:
64,192,31101,1,0,0:0:0:0:
192,192,31101,1,0,0:0:0:0:
448,192,31179,1,0,0:0:0:0:
320,192,31257,1,0,0:0:0:0:
192,192,31334,1,0,0:0:0:0:
64,192,31412,1,0,0:0:0:0:
448,192,31412,1,0,0:0:0:0:
192,192,31490,1,0,0:0:0:0:
320,192,31567,1,0,0:0:0:0:
64,192,31645,1,0,0:0:0:0:
192,192,31723,1,0,0:0:0:0:
320,192,31801,1,0,0:0:0:0:
448,192,31878,1,0,0:0:0:0:
64,192,31956,1,0,0:0:0:0:
320,192,31956,1,0,0:0:0:0:
192,192,32034,1,0,0:0:0:0:
448,192,32034,1,0,0:0:0:0:
320,192,32111,1,0,0:0:0:0:
192,192,32189,1,0,0:0:0:0:
64,192,32267,1,0,0:0:0:0:
320,192,32345,1,0,0:0:0:0:
448,192,32345,1,0,0:0:0:0:
192,192,32422,1,0,0:0:0:0:
320,192,32500,1,0,0:0:0:0:
64,192,32578,1,0,0:0:0:0:
320,192,32655,1,0,0:0:0:0:
448,192,32655,1,0,0:0:0:0:
192,192,32733,1,0,0:0:0:0:
448,192,32811,1,0,0:0:0:0:
192,192,32889,1,0,0:0:0:0:
320,192,32966,1,0,0:0:0:0:
192,192,33044,1,0,0:0:0:0:
64,192,33122,1,0,0:0:0:0:
320,192,33122,1,0,0:0:0:0:
448,192,33200,1,0,0:0:0:0:
64,192,33277,1,0,0:0:0:0:
320,192,33277,1,0,0:0:0:0:
192,192,33355,1,0,0:0:0:0:
64,192,33433,1,0,0:0:0:0:
192,192,33510,1,0,0:0:0:0:
64,192,33588,1,0,0:0:0:0:
448,192,33588,1,0,0:0:0:0:
320,192,33666,1,0,0:0:0:0:
448,192,33744,1,0,0:0:0:0:
192,192,33821,1,0,0:0:0:0:
320,192,33899,1,0,0:0:0:0:
448,192,33899,1,0,0:0:0:0:
64,192,33977,1,0,0:0:0:0:
448,192,34054,1,0,0:0:0:0:
192,192,34132,1,0,0:0:0:0:
320,192,34210,1,0,0:0:0:0:
448,192,34288,1,0,0:0:0:0:
192,192,34365,1,0,0:0:0:0:
64,192,34443,1,0,0:0:0:0:
448,192,34443,1,0,0:0:0:0:
192,192,34521,1,0,0:0:0:0:
320,192,34521,1,0,0:0:0:0:
64,192,34598,1,0,0:0:0:0:
320,192,34676,1,0,0:0:0:0:
192,192,34754,1,0,0:0:0:0:
64,192,34832,1,0,0:0:0:0:
320,192,34832,1,0,0:0:0:0:
448,192,34832,1,0,0:0:0:0:
192,192,34909,1,0,0:0:0:0:
64,192,34987,1,0,0:0:0:0:
192,192,35065,1,0,0:0:0:0:
320,192,35143,1,0,0:0:0:0:
448,192,35143,1,0,0:0:0:0:
192,192,35220,1,0,0:0:0:0:
320,192,35298,1,0,0:0:0:0:
64,192,35376,1,0,0:0:0:0:
192,192,35453,1,0,0:0:0:0:
320,192,35531,1,0,0:0:0:0:
64,192,35609,1,0,0:0:0:0:
448,192,35609,1,0,0:0:0:0:
320,192,35687,1,0,0:0:0:0:
192,192,35764,1,0,0:0:0:0:
448,192,35764,1,0,0:0:0:0:
64,192,35842,1,0,0:0:0:0:
320,192,35920,1,0,0:0:0:0:
192,192,35997,1,0,0:0:0:0:
320,192,36075,1,0,0:0:0:0:
448,192,36075,1,0,0:0:0:0:
64,192,36153,1,0,0:0:0:0:
448,192,36231,1,0,0:0:0:0:
192,192,36308,1,0,0:0:0:0:
64,192,36386,1,0,0:0:0:0:
320,192,36386,1,0,0:0:0:0:
192,192,36464,1,0,0:0:0:0:
320,192,36541,1,0,0:0:0:0:
64,192,36619,1,0,0:0:0:0:
320,192,36697,1,0,0:0:0:0:
448,192,36775,1,0,0:0:0:0:
320,192,36852,1,0,0:0:0:0:
192,192,36930,1,0,0:0:0:0:
448,192,36930,1,0,0:0:0:0:
64,192,37008,1,0,0:0:0:0:
320,192,37008,1,0,0:0:0:0:
192,192,37086,1,0,0:0:0:0:
320,192,37163,1,0,0:0:0:0:
192,192,37241,1,0,0:0:0:0:
64,192,37319,1,0,0:0:0:0:
320,192,37319,1,0,0:0:0:0:
448,192,37396,1,0,0:0:0:0:
192,192,37474,1,0,0:0:0:0:
448,192,37552,1,0,0:0:0:0:
64,192,37630,1,0,0:0:0:0:
320,192,37630,1,0,0:0:0:0:
192,192,37707,1,0,0:0:0:0:
448,192,37785,1,0,0:0:0:0:
192,192,37863,1,0,0:0:0:0:
64,192,37940,1,0,0:0:0:0:
320,192,38018,1,0,0:0:0:0:
192,192,38096,1,0,0:0:0:0:
448,192,38096,1,0,0:0:0:0:
64,192,38174,1,0,0:0:0:0:
192,192,38251,1,0,0:0:0:0:
448,192,38251,1,0,0:0:0:0:
320,192,38329,1,0,0:0:0:0:
192,192,38407,1,0,0:0:0:0:
64,192,38484,1,0,0:0:0:0:
192,192,38562,1,0,0:0:0:0:
320,192,38562,1,0,0:0:0:0:
448,192,38640,1,0,0:0:0:0:
320,192,38718,1,0,0:0:0:0:
192,192,38795,1,0,0:0:0:0:
320,192,38873,1,0,0:0:0:0:
448,192,38873,1,0,0:0:0:0:
64,192,38951,1,0,0:0:0:0:
320,192,39029,1,0,0:0:0:0:
192,192,39106,1,0,0:0:0:0:
64,192,39184,1,0,0:0:0:0:
320,192,39262,1,0,0:0:0:0:
64,192,39339,1,0,0:0:0:0:
320,192,39417,1,0,0:0:0:0:
448,192,39417,1,0,0:0:0:0:
64,192,39495,1,0,0:0:0:0:
192,192,39495,1,0,0:0:0:0:
320,192,39573,1,0,0:0:0:0:
448,192,39650,1,0,0:0:0:0:
192,192,39728,1,0,0:0:0:0:
64,192,39806,1,0,0:0:0:0:
320,192,39806,1,0,0:0:0:0:
448,192,39806,1,0,0:0:0:0:
192,192,39883,1,0,0:0:0:0:
64,192,39961,1,0,0:0:0:0:
192,192,40039,1,0,0:0:0:0:
64,192,40117,1,0,0:0:0:0:
448,192,40117,1,0,0:0:0:0:
192,192,40194,1,0,0:0:0:0:
320,192,40272,1,0,0:0:0:0:
192,192,40350,1,0,0:0:0:0:
320,192,40427,1,0,0:0:0:0:
448,192,40505,1,0,0:0:0:0:
320,192,40583,1,0,0:0:0:0:
448,192,40661,1,0,0:0:0:0:
320,192,40738,1,0,0:0:0:0:
192,192,40816,1,0,0:0:0:0:
320,192,40894,1,0,0:0:0:0:
192,192,40972,1,0,0:0:0:0:
64,192,41049,1,0,0:0:0:0:
320,192,41049,1,0,0:0:0:0:
448,192,41049,1,0,0:0:0:0:
192,192,41127,1,0,0:0:0:0:
64,192,41205,1,0,0:0:0:0:
192,192,41282,1,0,0:0:0:0:
64,192,41360,1,0,0:0:0:0:
448,192,41360,1,0,0:0:0:0:
192,192,41438,1,0,0:0:0:0:
320,192,41516,1,0,0:0:0:0:
192,192,41593,1,0,0:0:0:0:
320,192,41671,1,0,0:0:0:0:
448,192,41749,1,0,0:0:0:0:
320,192,41826,1,0,0:0:0:0:
448,192,41904,1,0,0:0:0:0:
320,192,41982,1,0,0:0:0:0:
192,192,42060,1,0,0:0:0:0:
320,192,42137,1,0,0:0:0:0:
192,192,42215,1,0,0:0:0:0:
64,192,42293,1,0,0:0:0:0:
320,192,42293,1,0,0:0:0:0:
448,192,42293,1,0,0:0:0:0:
192,192,42370,1,0,0:0:0:0:
64,192,42448,1,0,0:0:0:0:
192,192,42526,1,0,0:0:0:0:
320,192,42604,1,0,0:0:0:0:
192,192,42681,1,0,0:0:0:0:
448,192,42759,1,0,0:0:0:0:
192,192,42837,1,0,0:0:0:0:
64,192,42915,1,0,0:0:0:0:
320,192,42915,1,0,0:0:0:0:
448,192,42915,1,0,0:0:0:0:
192,192,42992,1,0,0:0:0:0:
64,192,43070,1,0,0:0:0:0:
192,192,43148,1,0,0:0:0:0:
320,192,43225,1,0,0:0:0:0:
192,192,43303,1,0,0:0:0:0:
448,192,43381,1,0,0:0:0:0:
192,192,43459,1,0,0:0:0:0:
64,192,43536,1,0,0:0:0:0:
320,192,43536,1,0,0:0:0:0:
448,192,43536,1,0,0:0:0:0:
192,192,43614,1,0,0:0:0:0:
64,192,43692,1,0,0:0:0:0:
192,192,43769,1,0,0:0:0:0:
320,192,43847,1,0,0:0:0:0:
192,192,43925,1,0,0:0:0:0:
448,192,44003,1,0,0:0:0:0:
192,192,44080,1,0,0:0:0:0:
64,192,44158,1,0,0:0:0:0:
320,192,44158,1,0,0:0:0:0:
448,192,44158,1,0,0:0:0:0:
192,192,44236,1,0,0:0:0:0:
64,192,44313,1,0,0:0:0:0:
192,192,44391,1,0,0:0:0:0:
320,192,44469,1,0,0:0:0:0:
192,192,44547,1,0,0:0:0:0:
448,192,44624,1,0,0:0:0:0:
192,192,44702,1,0,0:0:0:0:
64,192,44780,1,0,0:0:0:0:
320,192,44780,1,0,0:0:0:0:
448,192,44780,1,0,0:0:0:0:
192,192,45013,1,0,0:0:0:0:
64,192,45091,1,0,0:0:0:0:
320,192,45091,1,0,0:0:0:0:
448,192,45091,1,0,0:0:0:0:
192,192,45324,1,0,0:0:0:0:
64,192,45402,1,0,0:0:0:0:
320,192,45402,1,0,0:0:0:0:
448,192,45402,1,0,0:0:0:0:
192,192,45635,1,0,0:0:0:0:
64,192,45712,1,0,0:0:0:0:
320,192,45712,1,0,0:0:0:0:
448,192,45712,1,0,0:0:0:0:
192,192,45946,1,0,0:0:0:0:
64,192,46023,1,0,0:0:0:0:
320,192,46023,1,0,0:0:0:0:
448,192,46023,1,0,0:0:0:0:
64,192,46179,1,0,0:0:0:0:
192,192,46179,1,0,0:0:0:0:
64,192,46334,1,0,0:0:0:0:
320,192,46334,1,0,0:0:0:0:
64,192,46490,1,0,0:0:0:0:
448,192,46490,1,0,0:0:0:0:
192,192,46645,1,0,0:0:0:0:
448,192,46645,1,0,0:0:0:0:
320,192,46801,1,0,0:0:0:0:
448,192,46801,1,0,0:0:0:0:
192,192,46878,1,0,0:0:0:0:
64,192,46878,1,0,0:0:0:0:
448,192,46956,1,0,0:0:0:0:
320,192,46956,1,0,0:0:0:0:
192,192,47111,1,0,0:0:0:0:
320,192,47189,1,0,0:0:0:0:
448,192,47189,1,0,0:0:0:0:
64,192,47267,1,0,0:0:0:0:
192,192,47267,1,0,0:0:0:0:
320,192,47267,1,0,0:0:0:0:
448,192,47345,1,0,0:0:0:0:
192,192,47422,1,0,0:0:0:0:
320,192,47500,1,0,0:0:0:0:
192,192,47578,1,0,0:0:0:0:
448,192,47578,1,0,0:0:0:0:
64,192,47655,1,0,0:0:0:0:
192,192,47733,1,0,0:0:0:0:
320,192,47811,1,0,0:0:0:0:
192,192,47889,1,0,0:0:0:0:
448,192,47889,1,0,0:0:0:0:
64,192,47966,1,0,0:0:0:0:
448,192,48044,1,0,0:0:0:0:
64,192,48122,1,0,0:0:0:0:
320,192,48200,1,0,0:0:0:0:
448,192,48200,1,0,0:0:0:0:
192,192,48277,1,0,0:0:0:0:
320,192,48355,1,0,0:0:0:0:
64,192,48433,1,0,0:0:0:0:
192,192,48510,1,0,0:0:0:0:
448,192,48510,1,0,0:0:0:0:
320,192,48588,1,0,0:0:0:0:
192,192,48666,1,0,0:0:0:0:
448,192,48744,1,0,0:0:0:0:
192,192,48821,1,0,0:0:0:0:
320,192,48821,1,0,0:0:0:0:
64,192,48899,1,0,0:0:0:0:
192,192,48977,1,0,0:0:0:0:
320,192,49054,1,0,0:0:0:0:
64,192,49132,1,0,0:0:0:0:
192,192,49132,1,0,0:0:0:0:
320,192,49210,1,0,0:0:0:0:
448,192,49210,1,0,0:0:0:0:
64,192,49288,1,0,0:0:0:0:
192,192,49365,1,0,0:0:0:0:
64,192,49443,1,0,0:0:0:0:
320,192,49443,1,0,0:0:0:0:
448,192,49521,1,0,0:0:0:0:
320,192,49598,1,0,0:0:0:0:
192,192,49676,1,0,0:0:0:0:
320,192,49754,1,0,0:0:0:0:
448,192,49754,1,0,0:0:0:0:
64,192,49832,1,0,0:0:0:0:
448,192,49909,1,0,0:0:0:0:
192,192,49987,1,0,0:0:0:0:
64,192,50065,1,0,0:0:0:0:
320,192,50065,1,0,0:0:0:0:
192,192,50143,1,0,0:0:0:0:
64,192,50220,1,0,0:0:0:0:
192,192,50298,1,0,0:0:0:0:
320,192,50376,1,0,0:0:0:0:
448,192,50376,1,0,0:0:0:0:
192,192,50453,1,0,0:0:0:0:
320,192,50531,1,0,0:0:0:0:
448,192,50609,1,0,0:0:0:0:
64,192,50687,1,0,0:0:0:0:
320,192,50687,1,0,0:0:0:0:
192,192,50764,1,0,0:0:0:0:
64,192,50842,1,0,0:0:0:0:
320,192,50920,1,0,0:0:0:0:
448,192,50920,1,0,0:0:0:0:
64,192,50997,1,0,0:0:0:0:
192,192,50997,1,0,0:0:0:0:
448,192,51075,1,0,0:0:0:0:
320,192,51153,1,0,0:0:0:0:
192,192,51231,1,0,0:0:0:0:
320,192,51308,1,0,0:0:0:0:
448,192,51308,1,0,0:0:0:0:
192,192,51386,1,0,0:0:0:0:
320,192,51464,1,0,0:0:0:0:
192,192,51541,1,0,0:0:0:0:
64,192,51619,1,0,0:0:0:0:
448,192,51619,1,0,0:0:0:0:
192,192,51697,1,0,0:0:0:0:
320,192,51697,1,0,0:0:0:0:
448,192,51775,1,0,0:0:0:0:
64,192,51852,1,0,0:0:0:0:
320,192,51852,1,0,0:0:0:0:
192,192,51930,1,0,0:0:0:0:
448,192,51930,1,0,0:0:0:0:
64,192,52008,1,0,0:0:0:0:
192,192,52086,1,0,0:0:0:0:
448,192,52086,1,0,0:0:0:0:
320,192,52163,1,0,0:0:0:0:
64,192,52241,1,0,0:0:0:0:
192,192,52241,1,0,0:0:0:0:
448,192,52241,1,0,0:0:0:0:
320,192,52319,1,0,0:0:0:0:
448,192,52396,1,0,0:0:0:0:
64,192,52474,1,0,0:0:0:0:
320,192,52552,1,0,0:0:0:0:
448,192,52552,1,0,0:0:0:0:
192,192,52630,1,0,0:0:0:0:
320,192,52707,1,0,0:0:0:0:
64,192,52785,1,0,0:0:0:0:
320,192,52863,1,0,0:0:0:0:
448,192,52863,1,0,0:0:0:0:
192,192,52940,1,0,0:0:0:0:
448,192,53018,1,0,0:0:0:0:
320,192,53096,1,0,0:0:0:0:
64,192,53174,1,0,0:0:0:0:
448,192,53174,1,0,0:0:0:0:
192,192,53251,1,0,0:0:0:0:
64,192,53329,1,0,0:0:0:0:
320,192,53407,1,0,0:0:0:0:
64,192,53484,1,0,0:0:0:0:
192,192,53484,1,0,0:0:0:0:
448,192,53562,1,0,0:0:0:0:
192,192,53640,1,0,0:0:0:0:
64,192,53718,1,0,0:0:0:0:
192,192,53795,1,0,0:0:0:0:
320,192,53795,1,0,0:0:0:0:
448,192,53873,1,0,0:0:0:0:
320,192,53951,1,0,0:0:0:0:
192,192,54029,1,0,0:0:0:0:
320,192,54106,1,0,0:0:0:0:
448,192,54106,1,0,0:0:0:0:
64,192,54184,1,0,0:0:0:0:
192,192,54184,1,0,0:0:0:0:
448,192,54262,1,0,0:0:0:0:
192,192,54339,1,0,0:0:0:0:
64,192,54417,1,0,0:0:0:0:
320,192,54417,1,0,0:0:0:0:
448,192,54495,1,0,0:0:0:0:
320,192,54573,1,0,0:0:0:0:
192,192,54650,1,0,0:0:0:0:
64,192,54728,1,0,0:0:0:0:
448,192,54728,1,0,0:0:0:0:
320,192,54806,1,0,0:0:0:0:
192,192,54883,1,0,0:0:0:0:
448,192,54961,1,0,0:0:0:0:
64,192,55039,1,0,0:0:0:0:
320,192,55039,1,0,0:0:0:0:
192,192,55117,1,0,0:0:0:0:
64,192,55194,1,0,0:0:0:0:
192,192,55272,1,0,0:0:0:0:
64,192,55350,1,0,0:0:0:0:
448,192,55350,1,0,0:0:0:0:
320,192,55427,1,0,0:0:0:0:
192,192,55505,1,0,0:0:0:0:
320,192,55583,1,0,0:0:0:0:
64,192,55661,1,0,0:0:0:0:
448,192,55661,1,0,0:0:0:0:
192,192,55738,1,0,0:0:0:0:
64,192,55816,1,0,0:0:0:0:
192,192,55894,1,0,0:0:0:0:
320,192,55894,1,0,0:0:0:0:
64,192,55972,1,0,0:0:0:0:
448,192,55972,1,0,0:0:0:0:
320,192,56049,1,0,0:0:0:0:
192,192,56127,1,0,0:0:0:0:
448,192,56205,1,0,0:0:0:0:
192,192,56282,1,0,0:0:0:0:
320,192,56282,1,0,0:0:0:0:
64,192,56360,1,0,0:0:0:0:
448,192,56438,1,0,0:0:0:0:
320,192,56516,1,0,0:0:0:0:
64,192,56593,1,0,0:0:0:0:
192,192,56593,1,0,0:0:0:0:
320,192,56671,1,0,0:0:0:0:
448,192,56671,1,0,0:0:0:0:
192,192,56749,1,0,0:0:0:0:
64,192,56826,1,0,0:0:0:0:
320,192,56826,1,0,0:0:0:0:
192,192,56904,1,0,0:0:0:0:
448,192,56904,1,0,0:0:0:0:
64,192,56982,1,0,0:0:0:0:
320,192,57060,1,0,0:0:0:0:
448,192,57060,1,0,0:0:0:0:
192,192,57137,1,0,0:0:0:0:
64,192,57215,1,0,0:0:0:0:
320,192,57215,1,0,0:0:0:0:
448,192,57215,1,0,0:0:0:0:
192,192,57293,1,0,0:0:0:0:
64,192,57370,1,0,0:0:0:0:
192,192,57448,1,0,0:0:0:0:
320,192,57526,1,0,0:0:0:0:
448,192,57526,1,0,0:0:0:0:
64,192,57604,1,0,0:0:0:0:
192,192,57681,1,0,0:0:0:0:
320,192,57759,1,0,0:0:0:0:
64,192,57837,1,0,0:0:0:0:
448,192,57837,1,0,0:0:0:0:
320,192,57915,1,0,0:0:0:0:
192,192,57992,1,0,0:0:0:0:
320,192,58070,1,0,0:0:0:0:
192,192,58148,1,0,0:0:0:0:
448,192,58148,1,0,0:0:0:0:
64,192,58225,1,0,0:0:0:0:
192,192,58303,1,0,0:0:0:0:
320,192,58381,1,0,0:0:0:0:
64,192,58459,1,0,0:0:0:0:
192,192,58459,1,0,0:0:0:0:
448,192,58459,1,0,0:0:0:0:
320,192,58536,1,0,0:0:0:0:
64,192,58614,1,0,0:0:0:0:
320,192,58692,1,0,0:0:0:0:
192,192,58769,1,0,0:0:0:0:
448,192,58769,1,0,0:0:0:0:
320,192,58847,1,0,0:0:0:0:
192,192,58925,1,0,0:0:0:0:
64,192,59003,1,0,0:0:0:0:
320,192,59080,1,0,0:0:0:0:
448,192,59080,1,0,0:0:0:0:
192,192,59158,1,0,0:0:0:0:
320,192,59236,1,0,0:0:0:0:
192,192,59313,1,0,0:0:0:0:
64,192,59391,1,0,0:0:0:0:
448,192,59391,1,0,0:0:0:0:
192,192,59469,1,0,0:0:0:0:
448,192,59547,1,0,0:0:0:0:
320,192,59624,1,0,0:0:0:0:
64,192,59702,1,0,0:0:0:0:
192,192,59702,1,0,0:0:0:0:
448,192,59702,1,0,0:0:0:0:
320,192,59780,1,0,0:0:0:0:
192,192,59858,1,0,0:0:0:0:
320,192,59935,1,0,0:0:0:0:
64,192,60013,1,0,0:0:0:0:
192,192,60013,1,0,0:0:0:0:
320,192,60091,1,0,0:0:0:0:
448,192,60168,1,0,0:0:0:0:
320,192,60246,1,0,0:0:0:0:
64,192,60324,1,0,0:0:0:0:
448,192,60324,1,0,0:0:0:0:
192,192,60402,1,0,0:0:0:0:
448,192,60479,1,0,0:0:0:0:
192,192,60557,1,0,0:0:0:0:
64,192,60635,1,0,0:0:0:0:
320,192,60635,1,0,0:0:0:0:
192,192,60712,1,0,0:0:0:0:
448,192,60790,1,0,0:0:0:0:
192,192,60868,1,0,0:0:0:0:
64,192,60946,1,0,0:0:0:0:
320,192,60946,1,0,0:0:0:0:
448,192,60946,1,0,0:0:0:0:
192,192,61023,1,0,0:0:0:0:
320,192,61101,1,0,0:0:0:0:
192,192,61179,1,0,0:0:0:0:
320,192,61257,1,0,0:0:0:0:
448,192,61257,1,0,0:0:0:0:
64,192,61334,1,0,0:0:0:0:
320,192,61412,1,0,0:0:0:0:
192,192,61490,1,0,0:0:0:0:
64,192,61567,1,0,0:0:0:0:
320,192,61567,1,0,0:0:0:0:
192,192,61645,1,0,0:0:0:0:
448,192,61645,1,0,0:0:0:0:
64,192,61723,1,0,0:0:0:0:
192,192,61801,1,0,0:0:0:0:
320,192,61801,1,0,0:0:0:0:
64,192,61878,1,0,0:0:0:0:
448,192,61878,1,0,0:0:0:0:
320,192,61956,1,0,0:0:0:0:
192,192,62034,1,0,0:0:0:0:
448,192,62034,1,0,0:0:0:0:
64,192,62111,1,0,0:0:0:0:
192,192,62189,1,0,0:0:0:0:
320,192,62189,1,0,0:0:0:0:
448,192,62189,1,0,0:0:0:0:
64,192,62267,1,0,0:0:0:0:
192,192,62345,1,0,0:0:0:0:
320,192,62422,1,0,0:0:0:0:
192,192,62500,1,0,0:0:0:0:
448,192,62500,1,0,0:0:0:0:
64,192,62578,1,0,0:0:0:0:
192,192,62655,1,0,0:0:0:0:
320,192,62733,1,0,0:0:0:0:
64,192,62811,1,0,0:0:0:0:
192,192,62811,1,0,0:0:0:0:
320,192,62889,1,0,0:0:0:0:
448,192,62966,1,0,0:0:0:0:
64,192,63044,1,0,0:0:0:0:
192,192,63122,1,0,0:0:0:0:
448,192,63122,1,0,0:0:0:0:
320,192,63200,1,0,0:0:0:0:
192,192,63277,1,0,0:0:0:0:
64,192,63355,1,0,0:0:0:0:
192,192,63433,1,0,0:0:0:0:
320,192,63433,1,0,0:0:0:0:
448,192,63433,1,0,0:0:0:0:
64,192,63510,1,0,0:0:0:0:
192,192,63588,1,0,0:0:0:0:
320,192,63666,1,0,0:0:0:0:
64,192,63744,1,0,0:0:0:0:
192,192,63744,1,0,0:0:0:0:
320,192,63821,1,0,0:0:0:0:
448,192,63899,1,0,0:0:0:0:
64,192,63977,1,0,0:0:0:0:
192,192,64054,1,0,0:0:0:0:
448,192,64054,1,0,0:0:0:0:
320,192,64132,1,0,0:0:0:0:
192,192,64210,1,0,0:0:0:0:
320,192,64288,1,0,0:0:0:0:
192,192,64365,1,0,0:0:0:0:
448,192,64365,1,0,0:0:0:0:
64,192,64443,1,0,0:0:0:0:
192,192,64521,1,0,0:0:0:0:
320,192,64598,1,0,0:0:0:0:
64,192,64676,1,0,0:0:0:0:
192,192,64676,1,0,0:0:0:0:
448,192,64676,1,0,0:0:0:0:
320,192,64754,1,0,0:0:0:0:
64,192,64832,1,0,0:0:0:0:
320,192,64909,1,0,0:0:0:0:
64,192,64987,1,0,0:0:0:0:
192,192,64987,1,0,0:0:0:0:
448,192,65065,1,0,0:0:0:0:
320,192,65143,1,0,0:0:0:0:
192,192,65220,1,0,0:0:0:0:
320,192,65298,1,0,0:0:0:0:
448,192,65298,1,0,0:0:0:0:
192,192,65376,1,0,0:0:0:0:
64,192,65453,1,0,0:0:0:0:
448,192,65531,1,0,0:0:0:0:
192,192,65609,1,0,0:0:0:0:
320,192,65609,1,0,0:0:0:0:
64,192,65687,1,0,0:0:0:0:
320,192,65764,1,0,0:0:0:0:
192,192,65842,1,0,0:0:0:0:
64,192,65920,1,0,0:0:0:0:
320,192,65920,1,0,0:0:0:0:
448,192,65920,1,0,0:0:0:0:
192,192,65997,1,0,0:0:0:0:
320,192,66075,1,0,0:0:0:0:
64,192,66153,1,0,0:0:0:0:
192,192,66231,1,0,0:0:0:0:
448,192,66231,1,0,0:0:0:0:
320,192,66308,1,0,0:0:0:0:
64,192,66386,1,0,0:0:0:0:
320,192,66464,1,0,0:0:0:0:
192,192,66541,1,0,0:0:0:0:
448,192,66541,1,0,0:0:0:0:
64,192,66619,1,0,0:0:0:0:
320,192,66619,1,0,0:0:0:0:
448,192,66697,1,0,0:0:0:0:
64,192,66775,1,0,0:0:0:0:
320,192,66775,1,0,0:0:0:0:
192,192,66852,1,0,0:0:0:0:
448,192,66852,1,0,0:0:0:0:
320,192,66930,1,0,0:0:0:0:
192,192,67008,1,0,0:0:0:0:
448,192,67008,1,0,0:0:0:0:
64,192,67086,1,0,0:0:0:0:
192,192,67163,1,0,0:0:0:0:
320,192,67163,1,0,0:0:0:0:
448,192,67241,1,0,0:0:0:0:
64,192,67319,1,0,0:0:0:0:
192,192,67319,1,0,0:0:0:0:
448,192,67396,1,0,0:0:0:0:
64,192,67474,1,0,0:0:0:0:
320,192,67474,1,0,0:0:0:0:
448,192,67552,1,0,0:0:0:0:
64,192,67630,1,0,0:0:0:0:
192,192,67630,1,0,0:0:0:0:
320,192,67707,1,0,0:0:0:0:
192,192,67785,1,0,0:0:0:0:
448,192,67785,1,0,0:0:0:0:
64,192,67863,1,0,0:0:0:0:
192,192,67940,1,0,0:0:0:0:
320,192,67940,1,0,0:0:0:0:
64,192,68018,1,0,0:0:0:0:
192,192,68096,1,0,0:0:0:0:
448,192,68096,1,0,0:0:0:0:
64,192,68174,1,0,0:0:0:0:
320,192,68251,1,0,0:0:0:0:
448,192,68251,1,0,0:0:0:0:
64,192,68329,1,0,0:0:0:0:
192,192,68329,1,0,0:0:0:0:
320,192,68407,1,0,0:0:0:0:
448,192,68407,1,0,0:0:0:0:
192,192,68484,1,0,0:0:0:0:
64,192,68562,1,0,0:0:0:0:
320,192,68562,1,0,0:0:0:0:
448,192,68640,1,0,0:0:0:0:
64,192,68718,1,0,0:0:0:0:
192,192,68718,1,0,0:0:0:0:
448,192,68795,1,0,0:0:0:0:
64,192,68873,1,0,0:0:0:0:
320,192,68873,1,0,0:0:0:0:
448,192,68951,1,0,0:0:0:0:
192,192,69029,1,0,0:0:0:0:
320,192,69029,1,0,0:0:0:0:
64,192,69106,1,0,0:0:0:0:
192,192,69184,1,0,0:0:0:0:
448,192,69184,1,0,0:0:0:0:
320,192,69262,1,0,0:0:0:0:
64,192,69339,1,0,0:0:0:0:
448,192,69339,1,0,0:0:0:0:
320,192,69417,1,0,0:0:0:0:
192,192,69495,1,0,0:0:0:0:
448,192,69495,1,0,0:0:0:0:
64,192,69573,1,0,0:0:0:0:
320,192,69573,1,0,0:0:0:0:
192,192,69650,1,0,0:0:0:0:
448,192,69650,1,0,0:0:0:0:
64,192,69728,1,0,0:0:0:0:
192,192,69806,1,0,0:0:0:0:
320,192,69806,1,0,0:0:0:0:
448,192,69883,1,0,0:0:0:0:
64,192,69961,1,0,0:0:0:0:
320,192,69961,1,0,0:0:0:0:
448,192,70039,1,0,0:0:0:0:
64,192,70117,1,0,0:0:0:0:
320,192,70117,1,0,0:0:0:0:
192,192,70194,1,0,0:0:0:0:
320,192,70272,1,0,0:0:0:0:
448,192,70272,1,0,0:0:0:0:
64,192,70350,1,0,0:0:0:0:
192,192,70427,1,0,0:0:0:0:
448,192,70427,1,0,0:0:0:0:
64,192,70505,1,0,0:0:0:0:
192,192,70583,1,0,0:0:0:0:
320,192,70583,1,0,0:0:0:0:
64,192,70661,1,0,0:0:0:0:
320,192,70738,1,0,0:0:0:0:
448,192,70738,1,0,0:0:0:0:
64,192,70816,1,0,0:0:0:0:
192,192,70816,1,0,0:0:0:0:
320,192,70894,1,0,0:0:0:0:
448,192,70894,1,0,0:0:0:0:
192,192,70972,1,0,0:0:0:0:
64,192,71049,1,0,0:0:0:0:
320,192,71049,1,0,0:0:0:0:
448,192,71127,1,0,0:0:0:0:
64,192,71205,1,0,0:0:0:0:
192,192,71205,1,0,0:0:0:0:
448,192,71282,1,0,0:0:0:0:
192,192,71360,1,0,0:0:0:0:
320,192,71360,1,0,0:0:0:0:
448,192,71438,1,0,0:0:0:0:
320,192,71516,1,0,0:0:0:0:
192,192,71593,1,0,0:0:0:0:
64,192,71593,1,0,0:0:0:0:
448,192,71671,1,0,0:0:0:0:
320,192,71671,1,0,0:0:0:0:
192,192,71749,1,0,0:0:0:0:
64,192,71749,1,0,0:0:0:0:
448,192,71826,1,0,0:0:0:0:
320,192,71826,1,0,0:0:0:0:
192,192,71904,1,0,0:0:0:0:
64,192,71904,1,0,0:0:0:0:
448,192,71982,1,0,0:0:0:0:
320,192,71982,1,0,0:0:0:0:
192,192,72060,1,0,0:0:0:0:
64,192,72060,1,0,0:0:0:0:
448,192,72137,1,0,0:0:0:0:
192,192,72137,1,0,0:0:0:0:
320,192,72137,1,0,0:0:0:0:
64,192,72759,1,0,0:0:0:0:
448,192,72759,1,0,0:0:0:0:
192,192,73381,1,0,0:0:0:0:
448,192,73381,1,0,0:0:0:0:
320,192,74003,1,0,0:0:0:0:
448,192,74003,1,0,0:0:0:0:
64,192,74624,1,0,0:0:0:0:
192,192,74624,1,0,0:0:0:0:
64,192,74935,1,0,0:0:0:0:
320,192,74935,1,0,0:0:0:0:
192,192,75246,1,0,0:0:0:0:
320,192,75246,1,0,0:0:0:0:
192,192,75557,1,0,0:0:0:0:
448,192,75557,1,0,0:0:0:0:
320,192,75868,1,0,0:0:0:0:
448,192,75868,1,0,0:0:0:0:
192,192,76023,1,0,0:0:0:0:
320,192,76023,1,0,0:0:0:0:
192,192,76179,1,0,0:0:0:0:
320,192,76179,1,0,0:0:0:0:
192,192,76334,1,0,0:0:0:0:
320,192,76334,1,0,0:0:0:0:
192,192,76490,1,0,0:0:0:0:
320,192,76490,1,0,0:0:0:0:
192,192,76645,1,0,0:0:0:0:
320,192,76645,1,0,0:0:0:0:
192,192,76801,1,0,0:0:0:0:
320,192,76801,1,0,0:0:0:0:
192,192,76956,1,0,0:0:0:0:
320,192,76956,1,0,0:0:0:0:
64,192,77034,1,0,0:0:0:0:
448,192,77034,1,0,0:0:0:0:
192,192,77111,1,0,0:0:0:0:
320,192,77111,1,0,0:0:0:0:
448,192,77189,1,0,0:0:0:0:
320,192,77267,1,0,0:0:0:0:
448,192,77345,1,0,0:0:0:0:
320,192,77422,1,0,0:0:0:0:
192,192,77500,1,0,0:0:0:0:
320,192,77578,1,0,0:0:0:0:
192,192,77655,1,0,0:0:0:0:
320,192,77733,1,0,0:0:0:0:
64,192,77811,1,0,0:0:0:0:
320,192,77889,1,0,0:0:0:0:
64,192,77966,1,0,0:0:0:0:
448,192,78044,1,0,0:0:0:0:
192,192,78122,1,0,0:0:0:0:
448,192,78200,1,0,0:0:0:0:
192,192,78277,1,0,0:0:0:0:
320,192,78355,1,0,0:0:0:0:
192,192,78433,1,0,0:0:0:0:
320,192,78510,1,0,0:0:0:0:
192,192,78588,1,0,0:0:0:0:
320,192,78666,1,0,0:0:0:0:
64,192,78744,1,0,0:0:0:0:
320,192,78821,1,0,0:0:0:0:
64,192,78899,1,0,0:0:0:0:
448,192,78977,1,0,0:0:0:0:
320,192,79054,1,0,0:0:0:0:
192,192,79054,1,0,0:0:0:0:
64,192,79132,1,0,0:0:0:0:
448,192,79132,1,0,0:0:0:0:
320,192,79210,1,0,0:0:0:0:
192,192,79210,1,0,0:0:0:0:
64,192,79288,1,0,0:0:0:0:
448,192,79288,1,0,0:0:0:0:
320,192,79365,1,0,0:0:0:0:
192,192,79365,1,0,0:0:0:0:
64,192,79443,1,0,0:0:0:0:
448,192,79443,1,0,0:0:0:0:
320,192,79521,1,0,0:0:0:0:
192,192,79521,1,0,0:0:0:0:
64,192,79598,1,0,0:0:0:0:
320,192,79598,1,0,0:0:0:0:
448,192,79598,1,0,0:0:0:0:
192,192,79676,1,0,0:0:0:0:
64,192,79754,1,0,0:0:0:0:
192,192,79832,1,0,0:0:0:0:
64,192,79909,1,0,0:0:0:0:
448,192,79909,1,0,0:0:0:0:
192,192,79987,1,0,0:0:0:0:
448,192,80065,1,0,0:0:0:0:
320,192,80143,1,0,0:0:0:0:
64,192,80220,1,0,0:0:0:0:
448,192,80220,1,0,0:0:0:0:
192,192,80298,1,0,0:0:0:0:
320,192,80376,1,0,0:0:0:0:
448,192,80453,1,0,0:0:0:0:
64,192,80531,1,0,0:0:0:0:
320,192,80531,1,0,0:0:0:0:
192,192,80609,1,0,0:0:0:0:
64,192,80687,1,0,0:0:0:0:
448,192,80764,1,0,0:0:0:0:
64,192,80842,1,0,0:0:0:0:
192,192,80842,1,0,0:0:0:0:
320,192,80920,1,0,0:0:0:0:
64,192,80997,1,0,0:0:0:0:
320,192,81075,1,0,0:0:0:0:
192,192,81153,1,0,0:0:0:0:
448,192,81153,1,0,0:0:0:0:
320,192,81231,1,0,0:0:0:0:
64,192,81308,1,0,0:0:0:0:
448,192,81386,1,0,0:0:0:0:
192,192,81464,1,0,0:0:0:0:
320,192,81464,1,0,0:0:0:0:
64,192,81541,1,0,0:0:0:0:
448,192,81541,1,0,0:0:0:0:
192,192,81619,1,0,0:0:0:0:
320,192,81697,1,0,0:0:0:0:
64,192,81775,1,0,0:0:0:0:
448,192,81775,1,0,0:0:0:0:
320,192,81852,1,0,0:0:0:0:
192,192,81930,1,0,0:0:0:0:
64,192,82008,1,0,0:0:0:0:
320,192,82086,1,0,0:0:0:0:
448,192,82086,1,0,0:0:0:0:
192,192,82163,1,0,0:0:0:0:
320,192,82241,1,0,0:0:0:0:
64,192,82319,1,0,0:0:0:0:
320,192,82396,1,0,0:0:0:0:
448,192,82396,1,0,0:0:0:0:
192,192,82474,1,0,0:0:0:0:
320,192,82552,1,0,0:0:0:0:
64,192,82630,1,0,0:0:0:0:
320,192,82707,1,0,0:0:0:0:
448,192,82707,1,0,0:0:0:0:
192,192,82785,1,0,0:0:0:0:
320,192,82863,1,0,0:0:0:0:
64,192,82940,1,0,0:0:0:0:
192,192,83018,1,0,0:0:0:0:
448,192,83018,1,0,0:0:0:0:
320,192,83096,1,0,0:0:0:0:
448,192,83174,1,0,0:0:0:0:
64,192,83251,1,0,0:0:0:0:
320,192,83251,1,0,0:0:0:0:
192,192,83329,1,0,0:0:0:0:
448,192,83329,1,0,0:0:0:0:
320,192,83407,1,0,0:0:0:0:
64,192,83484,1,0,0:0:0:0:
320,192,83562,1,0,0:0:0:0:
64,192,83640,1,0,0:0:0:0:
192,192,83640,1,0,0:0:0:0:
448,192,83718,1,0,0:0:0:0:
192,192,83795,1,0,0:0:0:0:
320,192,83873,1,0,0:0:0:0:
64,192,83951,1,0,0:0:0:0:
448,192,83951,1,0,0:0:0:0:
192,192,84029,1,0,0:0:0:0:
320,192,84029,1,0,0:0:0:0:
448,192,84106,1,0,0:0:0:0:
192,192,84184,1,0,0:0:0:0:
320,192,84184,1,0,0:0:0:0:
64,192,84262,1,0,0:0:0:0:
448,192,84262,1,0,0:0:0:0:
320,192,84339,1,0,0:0:0:0:
64,192,84417,1,0,0:0:0:0:
192,192,84417,1,0,0:0:0:0:
448,192,84495,1,0,0:0:0:0:
64,192,84573,1,0,0:0:0:0:
192,192,84573,1,0,0:0:0:0:
320,192,84573,1,0,0:0:0:0:
448,192,84650,1,0,0:0:0:0:
192,192,84728,1,0,0:0:0:0:
320,192,84806,1,0,0:0:0:0:
64,192,84883,1,0,0:0:0:0:
448,192,84883,1,0,0:0:0:0:
192,192,84961,1,0,0:0:0:0:
64,192,85039,1,0,0:0:0:0:
320,192,85117,1,0,0:0:0:0:
64,192,85194,1,0,0:0:0:0:
192,192,85194,1,0,0:0:0:0:
448,192,85272,1,0,0:0:0:0:
192,192,85350,1,0,0:0:0:0:
320,192,85427,1,0,0:0:0:0:
192,192,85505,1,0,0:0:0:0:
448,192,85505,1,0,0:0:0:0:
64,192,85583,1,0,0:0:0:0:
320,192,85661,1,0,0:0:0:0:
192,192,85738,1,0,0:0:0:0:
64,192,85816,1,0,0:0:0:0:
448,192,85816,1,0,0:0:0:0:
320,192,85894,1,0,0:0:0:0:
192,192,85972,1,0,0:0:0:0:
64,192,86049,1,0,0:0:0:0:
192,192,86127,1,0,0:0:0:0:
448,192,86127,1,0,0:0:0:0:
320,192,86205,1,0,0:0:0:0:
64,192,86282,1,0,0:0:0:0:
192,192,86360,1,0,0:0:0:0:
64,192,86438,1,0,0:0:0:0:
320,192,86438,1,0,0:0:0:0:
192,192,86516,1,0,0:0:0:0:
448,192,86516,1,0,0:0:0:0:
320,192,86593,1,0,0:0:0:0:
448,192,86671,1,0,0:0:0:0:
64,192,86749,1,0,0:0:0:0:
320,192,86749,1,0,0:0:0:0:
192,192,86826,1,0,0:0:0:0:
320,192,86904,1,0,0:0:0:0:
448,192,86982,1,0,0:0:0:0:
64,192,87060,1,0,0:0:0:0:
192,192,87060,1,0,0:0:0:0:
320,192,87137,1,0,0:0:0:0:
64,192,87215,1,0,0:0:0:0:
320,192,87293,1,0,0:0:0:0:
64,192,87370,1,0,0:0:0:0:
192,192,87370,1,0,0:0:0:0:
448,192,87448,1,0,0:0:0:0:
320,192,87526,1,0,0:0:0:0:
64,192,87604,1,0,0:0:0:0:
192,192,87681,1,0,0:0:0:0:
448,192,87681,1,0,0:0:0:0:
320,192,87759,1,0,0:0:0:0:
448,192,87837,1,0,0:0:0:0:
320,192,87915,1,0,0:0:0:0:
192,192,87992,1,0,0:0:0:0:
448,192,87992,1,0,0:0:0:0:
64,192,88070,1,0,0:0:0:0:
448,192,88148,1,0,0:0:0:0:
64,192,88225,1,0,0:0:0:0:
320,192,88303,1,0,0:0:0:0:
448,192,88303,1,0,0:0:0:0:
192,192,88381,1,0,0:0:0:0:
320,192,88459,1,0,0:0:0:0:
192,192,88536,1,0,0:0:0:0:
320,192,88614,1,0,0:0:0:0:
448,192,88614,1,0,0:0:0:0:
192,192,88692,1,0,0:0:0:0:
320,192,88769,1,0,0:0:0:0:
192,192,88847,1,0,0:0:0:0:
320,192,88925,1,0,0:0:0:0:
448,192,88925,1,0,0:0:0:0:
64,192,89003,1,0,0:0:0:0:
192,192,89003,1,0,0:0:0:0:
320,192,89080,1,0,0:0:0:0:
64,192,89158,1,0,0:0:0:0:
192,192,89158,1,0,0:0:0:0:
320,192,89236,1,0,0:0:0:0:
448,192,89236,1,0,0:0:0:0:
64,192,89313,1,0,0:0:0:0:
320,192,89391,1,0,0:0:0:0:
448,192,89391,1,0,0:0:0:0:
192,192,89469,1,0,0:0:0:0:
64,0,89547,128,0,93277:1:0:0:0:
320,0,89547,128,0,93277:1:0:0:0:
448,0,89547,128,0,93277:1:0:0:0:
