osu file format v9

[General]
AudioFilename: shinsekai250.mp3
AudioLeadIn: 0
PreviewTime: -1
Countdown: 0
SampleSet: Soft
StackLeniency: 0.7
Mode: 0
LetterboxInBreaks: 0

[Editor]
DistanceSpacing: 0.6
BeatDivisor: 4
GridSize: 8

[Metadata]
Title:Shinsekai (Speedup ver.)
Artist:Shiraishi
Creator:0x57CB36
Version:250
Source:BMS
Tags:233

[Difficulty]
HPDrainRate:3
CircleSize:4
OverallDifficulty:7
ApproachRate:9
SliderMultiplier:1
SliderTickRate:2

[Events]
//Background and Video events
0,0,"BG.jpg"
//Break Periods
//Storyboard Layer 0 (Background)
//Storyboard Layer 1 (Fail)
//Storyboard Layer 2 (Pass)
//Storyboard Layer 3 (Foreground)
//Storyboard Sound Samples
//Background Colour Transformations
3,100,163,162,255

[TimingPoints]
1002,240,4,2,0,60,1,0
7722,-71.4285714285714,4,2,0,60,0,0
69222,-100,4,2,0,100,0,0
71982,-100,4,2,0,5,0,0

[Colours]
Combo1 : 255,132,132
Combo2 : 121,131,244
Combo3 : 109,243,119

[HitObjects]
171,240,1002,1,0
208,107,1122,1,2
341,144,1242,1,2
304,277,1362,1,0
256,192,1722,5,2
256,192,1962,1,0
392,72,2322,2,0,B|424:104|432:144|424:176|408:200|384:216,1,150,0|0
396,206,2922,1,2
160,192,3402,5,0
104,112,3522,1,2
168,32,3642,1,2
264,72,3762,1,2
256,168,3882,1,2
256,168,4242,1,0
464,256,4602,6,0,B|344:256,1,100,0|2
240,336,5442,5,2
152,280,5562,1,0
216,200,5682,1,2
304,256,5802,1,0
256,88,7002,5,0
256,88,7362,1,0
432,40,7722,5,0
443,49,7782,1,2
451,61,7842,1,2
458,73,7902,1,2
464,86,7962,1,0
468,100,8022,1,0
471,114,8082,1,2
473,128,8142,1,2
471,142,8202,1,0
468,156,8262,1,2
466,170,8322,1,0
466,184,8382,1,2
467,198,8442,1,2
470,212,8502,1,2
474,226,8562,1,0
477,240,8622,1,2
478,254,8682,5,0
477,268,8742,1,2
472,282,8802,1,2
463,294,8862,1,2
451,304,8922,1,0
438,311,8982,1,2
424,316,9042,1,0
409,320,9102,1,2
394,322,9162,1,0
379,323,9222,1,2
364,323,9282,1,2
349,323,9342,1,0
334,322,9402,1,2
319,321,9462,1,0
304,320,9522,1,0
289,319,9582,1,2
274,317,9642,5,2
259,315,9702,1,0
244,312,9762,1,2
229,308,9822,1,2
214,303,9882,1,2
199,298,9942,1,0
185,292,10002,1,0
171,285,10062,1,0
158,276,10122,1,2
146,266,10182,1,0
134,255,10242,1,0
124,243,10302,1,0
115,230,10362,1,2
107,216,10422,1,2
101,201,10482,1,0
98,186,10542,1,2
97,171,10602,5,2
98,156,10662,1,0
100,141,10722,1,2
104,126,10782,1,0
112,113,10842,1,0
121,101,10902,1,2
131,90,10962,1,2
142,80,11022,1,0
154,72,11082,1,0
167,65,11142,1,2
180,59,11202,1,0
194,56,11262,1,0
208,54,11322,1,0
222,53,11382,1,2
236,55,11442,1,0
250,57,11502,1,2
264,60,11562,5,0
278,64,11622,1,2
291,70,11682,1,2
303,77,11742,1,0
315,85,11802,1,0
326,94,11862,1,0
335,105,11922,1,0
343,117,11982,1,0
349,130,12042,1,2
353,144,12102,1,0
356,158,12162,1,2
358,172,12222,1,0
358,186,12282,1,0
356,200,12342,1,0
353,214,12402,1,0
349,228,12462,1,0
343,241,12522,5,2
335,253,12582,1,2
324,263,12642,1,2
312,272,12702,1,2
299,280,12762,1,0
286,287,12822,1,2
272,293,12882,1,2
257,298,12942,1,2
242,301,13002,1,0
227,303,13062,1,2
212,304,13122,1,2
197,304,13182,1,2
182,304,13242,1,2
167,303,13302,1,0
152,300,13362,1,2
137,297,13422,1,2
122,292,13482,5,2
108,286,13542,1,2
95,277,13602,1,2
83,267,13662,1,0
72,256,13722,1,2
63,243,13782,1,2
56,229,13842,1,2
50,215,13902,1,0
46,200,13962,1,0
43,185,14022,1,2
45,170,14082,1,0
49,155,14142,1,2
55,141,14202,1,0
64,129,14262,1,0
75,119,14322,1,2
87,110,14382,1,0
100,103,14442,5,2
113,97,14502,1,2
127,93,14562,1,0
141,91,14622,1,0
155,91,14682,1,2
169,91,14742,1,2
183,92,14802,1,2
198,96,14862,1,2
212,98,14922,1,0
226,98,14982,1,2
240,95,15042,1,0
254,91,15102,1,0
268,86,15162,1,0
281,80,15222,1,0
295,74,15282,1,0
309,72,15342,1,0
323,71,15402,5,0
337,72,15462,1,2
351,74,15522,1,0
365,79,15582,1,0
378,84,15642,1,0
390,91,15702,1,0
401,100,15762,1,2
411,110,15822,1,0
418,123,15882,1,0
422,137,15942,1,0
424,151,16002,1,0
425,165,16062,1,0
424,179,16122,1,0
421,193,16182,1,2
417,207,16242,1,0
410,220,16302,1,0
401,232,16362,5,0
390,242,16422,1,2
377,250,16482,1,0
364,258,16542,1,0
350,264,16602,1,2
336,269,16662,1,2
321,273,16722,1,2
306,277,16782,1,2
291,280,16842,1,0
276,282,16902,1,2
261,284,16962,1,2
246,285,17022,1,0
231,286,17082,1,0
216,285,17142,1,2
201,283,17202,1,2
186,279,17262,1,2
172,273,17322,5,2
158,266,17382,1,2
144,259,17442,1,2
131,251,17502,1,0
121,239,17562,1,2
120,224,17622,1,0
122,209,17682,1,2
129,195,17742,1,0
139,184,17802,1,0
150,174,17862,1,2
160,163,17922,1,0
169,151,17982,1,0
173,136,18042,1,0
172,121,18102,1,0
166,106,18162,1,2
157,93,18222,1,0
146,82,18282,5,2
132,74,18342,1,2
117,69,18402,1,2
103,65,18462,1,2
88,61,18522,1,0
73,60,18582,1,0
58,62,18642,1,0
45,69,18702,1,2
37,81,18762,1,0
30,94,18822,1,0
27,108,18882,1,0
27,122,18942,1,2
29,136,19002,1,0
31,151,19062,1,0
33,165,19122,1,2
30,179,19182,1,0
26,193,19242,5,2
29,207,19302,1,2
32,221,19362,1,0
33,235,19422,1,2
34,249,19482,1,0
34,263,19542,1,0
31,277,19602,1,2
31,292,19662,1,2
36,305,19722,1,2
44,317,19782,1,0
57,323,19842,1,2
71,327,19902,1,0
85,329,19962,1,0
99,330,20022,1,2
113,330,20082,1,0
127,330,20142,1,0
141,330,20202,5,0
156,330,20262,1,0
170,329,20322,1,2
184,328,20382,1,2
198,326,20442,1,0
212,324,20502,1,0
226,322,20562,1,2
240,319,20622,1,0
254,316,20682,1,2
268,313,20742,1,2
282,310,20802,1,0
296,306,20862,1,2
310,301,20922,1,0
324,296,20982,1,0
338,291,21042,1,2
352,285,21102,1,0
365,279,21162,5,0
378,273,21222,1,0
391,266,21282,1,0
404,258,21342,1,0
416,249,21402,1,0
428,240,21462,1,2
440,231,21522,1,2
451,221,21582,1,0
461,210,21642,1,2
469,197,21702,1,2
475,183,21762,1,0
479,168,21822,1,0
482,153,21882,1,0
484,138,21942,1,0
485,123,22002,1,0
484,108,22062,1,0
481,93,22122,5,0
475,79,22182,1,2
465,67,22242,1,0
452,58,22302,1,2
438,52,22362,1,2
423,48,22422,1,2
408,45,22482,1,2
393,43,22542,1,2
378,43,22602,1,2
363,43,22662,1,2
348,43,22722,1,0
333,43,22782,1,0
318,43,22842,1,2
303,43,22902,1,0
288,43,22962,1,2
273,43,23022,1,0
258,43,23082,5,2
243,43,23142,1,0
228,46,23202,1,2
213,50,23262,1,0
198,55,23322,1,0
184,60,23382,1,2
170,66,23442,1,2
157,73,23502,1,0
144,81,23562,1,0
134,92,23622,1,0
126,105,23682,1,0
123,119,23742,1,0
124,133,23802,1,2
130,146,23862,1,2
138,158,23922,1,0
149,167,23982,1,2
163,171,24042,5,0
177,172,24102,1,2
191,169,24162,1,0
205,164,24222,1,0
218,157,24282,1,2
231,150,24342,1,0
243,141,24402,1,0
254,130,24462,1,2
264,119,24522,1,0
270,105,24582,1,2
274,90,24642,1,0
272,75,24702,1,2
264,62,24762,1,0
251,53,24822,1,0
236,50,24882,1,2
221,47,24942,1,2
206,46,25002,5,0
191,47,25062,1,2
176,48,25122,1,0
161,51,25182,1,2
146,55,25242,1,2
132,62,25302,1,2
121,72,25362,1,2
112,84,25422,1,2
105,97,25482,1,0
103,111,25542,1,0
102,125,25602,1,0
102,139,25662,1,0
102,153,25722,1,0
103,167,25782,1,2
104,181,25842,1,2
105,195,25902,1,2
107,209,25962,5,2
111,223,26022,1,2
117,236,26082,1,0
124,249,26142,1,0
134,260,26202,1,0
145,269,26262,1,0
158,276,26322,1,2
172,280,26382,1,2
186,283,26442,1,0
200,285,26502,1,2
214,286,26562,1,0
228,286,26622,1,2
242,285,26682,1,0
256,285,26742,1,0
270,285,26802,1,2
284,285,26862,1,2
298,285,26922,5,2
312,285,26982,1,2
326,285,27042,1,2
340,285,27102,1,0
354,285,27162,1,0
368,285,27222,1,2
382,285,27282,1,0
396,285,27342,1,0
410,285,27402,1,2
424,284,27462,1,0
438,279,27522,1,2
451,272,27582,1,0
462,262,27642,1,2
470,249,27702,1,0
477,236,27762,1,2
483,222,27822,1,2
485,207,27882,5,2
486,192,27942,1,2
486,177,28002,1,0
486,162,28062,1,0
486,147,28122,1,2
486,132,28182,1,0
483,117,28242,1,0
479,102,28302,1,2
471,88,28362,1,0
461,76,28422,1,2
449,66,28482,1,2
436,57,28542,1,2
421,53,28602,1,0
406,49,28662,1,0
391,46,28722,1,0
376,45,28782,1,2
361,44,28842,5,0
346,44,28902,1,0
331,44,28962,1,0
316,44,29022,1,0
301,44,29082,1,2
286,44,29142,1,0
271,44,29202,1,2
256,44,29262,1,0
241,44,29322,1,2
226,43,29382,1,0
211,42,29442,1,0
196,42,29502,1,2
181,42,29562,1,0
166,42,29622,1,0
151,42,29682,1,2
136,42,29742,1,0
121,42,29802,5,0
106,45,29862,1,2
92,51,29922,1,0
80,60,29982,1,0
72,73,30042,1,0
70,87,30102,1,0
65,102,30162,1,0
63,116,30222,1,2
62,130,30282,1,2
61,144,30342,1,0
60,158,30402,1,0
61,172,30462,1,2
65,186,30522,1,2
69,200,30582,1,2
75,213,30642,1,0
84,224,30702,1,2
95,234,30762,5,4
107,242,30822,1,2
118,251,30882,1,2
130,258,30942,1,0
144,263,31002,1,0
158,265,31062,1,2
172,264,31122,1,2
186,268,31182,1,2
199,275,31242,1,2
209,285,31302,1,0
220,295,31362,1,2
232,302,31422,1,0
246,305,31482,1,2
260,307,31542,1,0
275,309,31602,1,0
289,312,31662,1,0
302,318,31722,5,4
315,324,31782,1,0
329,326,31842,1,2
343,326,31902,1,0
357,324,31962,1,0
371,321,32022,1,0
386,321,32082,1,2
400,323,32142,1,2
414,326,32202,1,2
428,326,32262,1,2
442,323,32322,1,2
455,316,32382,1,2
466,306,32442,1,0
472,292,32502,1,2
475,277,32562,1,0
476,262,32622,1,2
476,247,32682,5,4
474,232,32742,1,2
473,217,32802,1,0
472,202,32862,1,2
472,187,32922,1,0
472,172,32982,1,2
472,157,33042,1,0
472,142,33102,1,0
472,127,33162,1,6
457,122,33222,1,2
442,120,33282,1,2
427,118,33342,1,0
412,117,33402,1,0
397,116,33462,1,0
382,115,33522,1,0
367,114,33582,1,0
352,113,33642,5,6
346,126,33702,1,2
341,140,33762,1,2
337,154,33822,1,0
330,167,33882,1,2
324,180,33942,1,0
317,193,34002,1,0
309,206,34062,1,0
301,218,34122,1,4
286,217,34182,1,0
271,214,34242,1,0
256,210,34302,1,0
241,206,34362,1,0
226,202,34422,1,0
211,197,34482,1,2
196,192,34542,1,2
182,186,34602,5,4
169,178,34662,1,2
160,165,34722,1,2
157,150,34782,1,2
155,135,34842,1,4
146,122,34902,1,2
131,116,34962,1,0
116,113,35022,1,2
101,113,35082,1,6
86,117,35142,1,0
74,126,35202,1,2
65,138,35262,1,2
59,152,35322,1,4
54,166,35382,1,0
51,180,35442,1,0
49,194,35502,1,0
54,207,35562,5,6
61,220,35622,1,0
69,232,35682,1,4
78,243,35742,1,2
90,251,35802,1,4
103,256,35862,1,0
117,260,35922,1,4
131,263,35982,1,2
145,266,36042,1,4
159,269,36102,1,2
173,272,36162,1,4
187,275,36222,1,0
201,279,36282,1,4
215,283,36342,1,2
229,287,36402,1,6
243,291,36462,1,2
257,295,36522,5,0
271,299,36582,1,2
285,303,36642,1,2
299,307,36702,1,2
313,311,36762,1,2
327,315,36822,1,0
341,319,36882,1,0
355,323,36942,1,0
369,327,37002,1,0
381,319,37062,1,2
392,309,37122,1,0
404,300,37182,1,2
415,290,37242,1,0
426,280,37302,1,0
437,270,37362,1,0
448,260,37422,1,2
460,251,37482,5,0
472,242,37542,1,0
484,233,37602,1,2
496,224,37662,1,0
498,209,37722,1,0
497,194,37782,1,2
495,179,37842,1,2
490,164,37902,1,0
481,151,37962,1,2
468,142,38022,1,0
453,136,38082,1,2
438,133,38142,1,0
423,130,38202,1,2
408,126,38262,1,0
394,119,38322,1,2
383,108,38382,1,2
372,97,38442,5,0
361,86,38502,1,0
348,77,38562,1,0
334,70,38622,1,2
319,66,38682,1,0
304,64,38742,1,0
289,63,38802,1,2
274,62,38862,1,2
259,62,38922,1,0
244,62,38982,1,2
229,62,39042,1,0
214,61,39102,1,0
199,60,39162,1,2
184,60,39222,1,0
169,60,39282,1,0
154,61,39342,1,0
139,64,39402,5,2
125,70,39462,1,2
111,76,39522,1,2
99,85,39582,1,2
88,95,39642,1,0
79,107,39702,1,2
71,120,39762,1,2
65,134,39822,1,2
60,148,39882,1,0
56,162,39942,1,2
53,176,40002,1,2
50,190,40062,1,0
48,204,40122,1,2
49,218,40182,1,2
53,232,40242,1,0
57,246,40302,1,0
65,258,40362,5,0
73,270,40422,1,0
83,280,40482,1,2
95,287,40542,1,2
109,292,40602,1,2
123,296,40662,1,0
137,299,40722,1,0
151,301,40782,1,0
165,301,40842,1,2
179,301,40902,1,2
193,301,40962,1,0
207,301,41022,1,2
221,301,41082,1,0
235,301,41142,1,0
249,301,41202,1,2
263,301,41262,1,0
277,301,41322,5,2
291,301,41382,1,0
305,301,41442,1,2
319,302,41502,1,2
333,302,41562,1,2
347,302,41622,1,2
361,301,41682,1,0
375,300,41742,1,2
389,297,41802,1,2
403,292,41862,1,2
416,285,41922,1,2
428,276,41982,1,0
439,266,42042,1,0
447,253,42102,1,2
454,239,42162,1,2
460,225,42222,1,0
463,210,42282,5,0
466,195,42342,1,2
468,180,42402,1,0
468,165,42462,1,0
467,150,42522,1,2
465,135,42582,1,0
460,120,42642,1,0
453,106,42702,1,2
443,94,42762,1,0
431,84,42822,1,0
418,76,42882,1,2
404,70,42942,1,0
389,65,43002,1,2
374,62,43062,1,0
359,59,43122,1,2
344,58,43182,1,2
329,57,43242,5,2
314,56,43302,1,2
299,55,43362,1,2
284,54,43422,1,0
269,53,43482,1,2
254,52,43542,1,0
239,52,43602,1,2
224,52,43662,1,0
209,52,43722,1,2
194,52,43782,1,0
179,53,43842,1,0
164,55,43902,1,0
149,57,43962,1,0
134,60,44022,1,2
121,68,44082,1,0
110,78,44142,1,0
103,91,44202,5,2
100,105,44262,1,0
103,119,44322,1,0
112,130,44382,1,2
125,136,44442,1,2
139,139,44502,1,0
153,139,44562,1,0
167,138,44622,1,0
181,138,44682,1,2
195,137,44742,1,0
209,136,44802,1,0
223,135,44862,1,0
238,135,44922,1,2
252,135,44982,1,0
266,135,45042,1,0
280,137,45102,1,0
294,139,45162,5,0
308,142,45222,1,0
322,147,45282,1,0
334,155,45342,1,0
344,165,45402,1,2
351,178,45462,1,0
353,192,45522,1,0
349,206,45582,1,0
339,217,45642,1,2
327,226,45702,1,0
312,230,45762,1,0
297,232,45822,1,2
282,234,45882,1,2
267,235,45942,1,2
252,235,46002,1,2
237,234,46062,1,2
222,232,46122,5,2
207,231,46182,1,2
192,230,46242,1,0
177,230,46302,1,0
162,230,46362,1,0
147,231,46422,1,2
132,232,46482,1,2
117,233,46542,1,2
104,241,46602,1,2
95,253,46662,1,0
94,267,46722,1,2
101,280,46782,1,0
114,285,46842,1,2
127,291,46902,1,0
141,294,46962,1,2
155,293,47022,1,2
169,291,47082,5,2
183,288,47142,1,0
196,293,47202,1,0
208,300,47262,1,2
219,309,47322,1,2
233,313,47382,1,0
247,309,47442,1,2
261,304,47502,1,2
275,300,47562,1,2
289,303,47622,1,0
302,308,47682,1,0
315,313,47742,1,2
329,314,47802,1,0
343,311,47862,1,0
356,303,47922,1,2
369,297,47982,1,0
383,296,48042,5,2
397,296,48102,1,0
411,294,48162,1,2
425,290,48222,1,0
437,281,48282,1,2
448,271,48342,1,2
458,260,48402,1,0
465,247,48462,1,2
470,232,48522,1,2
473,217,48582,1,0
474,202,48642,1,0
473,187,48702,1,2
472,172,48762,1,0
470,157,48822,1,2
466,142,48882,1,0
459,128,48942,1,2
450,115,49002,5,0
439,104,49062,1,0
426,95,49122,1,0
412,89,49182,1,0
397,84,49242,1,0
382,80,49302,1,0
367,77,49362,1,0
352,75,49422,1,2
337,74,49482,1,2
322,73,49542,1,0
307,72,49602,1,0
292,71,49662,1,2
277,70,49722,1,2
262,69,49782,1,2
247,69,49842,1,0
232,69,49902,1,2
217,69,49962,5,2
202,70,50022,1,0
187,72,50082,1,0
172,76,50142,1,0
157,80,50202,1,2
143,86,50262,1,0
129,92,50322,1,0
116,100,50382,1,2
104,109,50442,1,0
94,120,50502,1,0
85,132,50562,1,2
78,145,50622,1,2
72,159,50682,1,2
73,173,50742,1,2
75,187,50802,1,2
82,200,50862,1,0
91,211,50922,5,0
102,220,50982,1,2
113,229,51042,1,0
125,236,51102,1,2
137,243,51162,1,2
150,250,51222,1,2
164,255,51282,1,2
178,257,51342,1,0
192,259,51402,1,0
206,261,51462,1,2
220,262,51522,1,2
234,263,51582,1,2
248,264,51642,1,2
262,264,51702,1,2
276,263,51762,1,2
290,261,51822,1,2
304,258,51882,5,2
318,254,51942,1,0
332,249,52002,1,2
345,243,52062,1,2
358,236,52122,1,2
371,228,52182,1,2
383,219,52242,1,0
395,210,52302,1,0
406,200,52362,1,0
416,189,52422,1,2
425,177,52482,1,2
433,164,52542,1,0
439,150,52602,1,2
443,135,52662,1,2
444,120,52722,1,2
439,105,52782,1,2
430,92,52842,5,0
417,83,52902,1,2
403,76,52962,1,2
388,73,53022,1,0
373,74,53082,1,2
358,77,53142,1,0
343,82,53202,1,2
329,87,53262,1,0
315,94,53322,1,2
301,100,53382,1,0
287,106,53442,1,2
272,110,53502,1,2
257,111,53562,1,2
242,110,53622,1,2
227,107,53682,1,0
212,103,53742,1,0
197,99,53802,5,0
182,96,53862,1,2
167,96,53922,1,2
152,99,53982,1,2
138,105,54042,1,2
130,117,54102,1,0
126,131,54162,1,0
125,145,54222,1,0
126,159,54282,1,0
128,173,54342,1,2
135,186,54402,1,0
144,197,54462,1,0
156,205,54522,1,0
170,207,54582,1,0
184,204,54642,1,0
197,210,54702,1,2
208,219,54762,5,2
214,232,54822,1,2
217,246,54882,1,0
214,260,54942,1,0
209,274,55002,1,2
197,283,55062,1,0
185,292,55122,1,0
185,306,55182,1,0
189,320,55242,1,0
200,329,55302,1,2
214,332,55362,1,0
228,333,55422,1,2
242,333,55482,1,0
256,333,55542,1,2
270,333,55602,1,2
284,333,55662,1,2
298,333,55722,5,2
312,333,55782,1,0
326,334,55842,1,0
340,335,55902,1,0
354,336,55962,1,2
368,337,56022,1,2
382,337,56082,1,0
396,338,56142,1,0
410,337,56202,1,0
424,332,56262,1,0
437,325,56322,1,2
447,314,56382,1,2
456,302,56442,1,2
463,288,56502,1,0
467,273,56562,1,2
470,258,56622,1,0
470,243,56682,5,0
470,228,56742,1,0
470,213,56802,1,2
470,198,56862,1,0
469,183,56922,1,2
468,168,56982,1,2
467,153,57042,1,2
466,138,57102,1,2
464,123,57162,1,0
459,108,57222,1,0
447,98,57282,1,2
435,87,57342,1,0
422,78,57402,1,0
408,71,57462,1,2
393,67,57522,1,0
378,65,57582,1,0
363,64,57642,5,2
348,63,57702,1,2
333,63,57762,1,0
318,62,57822,1,0
303,61,57882,1,2
288,60,57942,1,2
273,59,58002,1,0
258,58,58062,1,2
243,57,58122,1,2
228,57,58182,1,2
213,57,58242,1,2
198,57,58302,1,2
183,57,58362,1,2
168,58,58422,1,0
153,60,58482,1,0
138,63,58542,1,2
124,68,58602,5,0
111,76,58662,1,0
98,84,58722,1,0
88,95,58782,1,0
80,108,58842,1,0
75,122,58902,1,2
73,136,58962,1,2
72,150,59022,1,2
72,164,59082,1,0
72,178,59142,1,2
74,192,59202,1,2
77,206,59262,1,2
80,220,59322,1,2
84,234,59382,1,0
90,247,59442,1,2
97,260,59502,1,2
107,271,59562,5,0
118,280,59622,1,0
131,287,59682,1,2
145,291,59742,1,0
159,295,59802,1,0
173,295,59862,1,2
187,290,59922,1,0
200,282,59982,1,0
211,271,60042,1,2
221,259,60102,1,0
229,246,60162,1,0
236,232,60222,1,2
244,219,60282,1,2
250,205,60342,1,2
253,190,60402,1,0
252,175,60462,1,2
250,160,60522,5,0
252,145,60582,1,0
258,131,60642,1,0
268,120,60702,1,0
279,110,60762,1,0
291,101,60822,1,0
304,94,60882,1,0
318,89,60942,1,2
332,85,61002,1,2
346,83,61062,1,0
360,82,61122,1,0
374,83,61182,1,2
388,85,61242,1,2
401,90,61302,1,0
414,97,61362,1,2
425,106,61422,1,0
434,117,61482,5,2
440,130,61542,1,2
445,144,61602,1,2
448,158,61662,1,0
449,172,61722,1,2
450,186,61782,1,2
450,201,61842,1,2
448,215,61902,1,0
445,229,61962,1,0
439,242,62022,1,2
431,254,62082,1,2
421,265,62142,1,2
409,275,62202,1,0
396,282,62262,1,2
383,289,62322,1,0
369,295,62382,1,0
355,300,62442,5,2
340,304,62502,1,2
325,308,62562,1,0
310,310,62622,1,2
295,312,62682,1,0
280,313,62742,1,0
265,313,62802,1,0
250,312,62862,1,2
235,311,62922,1,2
220,311,62982,1,0
205,310,63042,1,0
190,308,63102,1,0
175,305,63162,1,2
160,301,63222,1,0
145,297,63282,1,2
130,293,63342,1,2
115,288,63402,5,0
102,280,63462,1,2
89,272,63522,1,0
78,261,63582,1,0
69,248,63642,1,0
62,234,63702,1,0
56,220,63762,1,2
52,205,63822,1,2
49,190,63882,1,0
46,175,63942,1,0
44,160,64002,1,2
45,145,64062,1,2
48,130,64122,1,2
52,115,64182,1,2
58,101,64242,1,2
66,88,64302,1,0
77,77,64362,5,2
89,68,64422,1,2
102,60,64482,1,0
116,57,64542,1,2
130,54,64602,1,2
144,53,64662,1,2
158,52,64722,1,0
172,51,64782,1,0
187,51,64842,1,0
201,51,64902,1,2
215,51,64962,1,0
229,51,65022,1,0
243,51,65082,1,2
257,51,65142,1,0
271,51,65202,1,2
285,51,65262,1,0
299,51,65322,5,2
313,51,65382,1,0
327,51,65442,1,0
341,51,65502,1,2
355,51,65562,1,2
369,51,65622,1,2
383,51,65682,1,0
397,51,65742,1,2
411,51,65802,1,0
425,51,65862,1,2
438,58,65922,1,2
448,68,65982,1,2
453,81,66042,1,0
455,95,66102,1,2
455,109,66162,1,0
454,123,66222,1,0
453,137,66282,5,0
452,151,66342,1,0
451,165,66402,1,2
450,179,66462,1,0
449,193,66522,1,2
449,208,66582,1,2
449,222,66642,1,0
449,236,66702,1,0
449,250,66762,1,2
449,264,66822,1,0
448,278,66882,1,2
445,292,66942,1,0
437,304,67002,1,0
424,312,67062,1,2
409,315,67122,1,0
394,314,67182,1,2
379,313,67242,5,0
364,312,67302,1,2
349,312,67362,1,2
334,312,67422,1,0
319,312,67482,1,2
304,312,67542,1,2
289,312,67602,1,0
274,312,67662,1,0
259,312,67722,1,2
244,312,67782,1,2
229,312,67842,1,2
214,312,67902,1,2
199,312,67962,1,2
184,312,68022,1,2
169,312,68082,1,2
154,312,68142,1,0
139,312,68202,5,0
124,312,68262,1,2
109,312,68322,1,0
94,310,68382,1,2
79,305,68442,1,0
67,295,68502,1,2
58,282,68562,1,0
51,268,68622,1,0
50,253,68682,1,0
49,238,68742,1,0
49,223,68802,1,0
49,208,68862,1,2
49,193,68922,1,0
49,178,68982,1,2
49,163,69042,1,2
49,148,69102,1,0
50,133,69162,5,2
256,192,69222,12,0,72042
