osu file format v14

[General]
AudioFilename: Odin.ogg
AudioLeadIn: 1500
PreviewTime: 35673
Countdown: 0
SampleSet: Normal
StackLeniency: 0.7
Mode: 3
LetterboxInBreaks: 0
SpecialStyle: 0
WidescreenStoryboard: 0

[Editor]
DistanceSpacing: 1
BeatDivisor: 16
GridSize: 16
TimelineZoom: 1

[Metadata]
Title:Odin
TitleUnicode:Odin
Artist:Shiraishi
ArtistUnicode:しらいし
Creator:Fullerene-
Version:VIKINGFJORD
Source:BMS
Tags:
BeatmapID:777356
BeatmapSetID:352759

[Difficulty]
HPDrainRate:8
CircleSize:4
OverallDifficulty:5.5
ApproachRate:9
SliderMultiplier:1.4
SliderTickRate:1

[Events]
//Background and Video events
0,0,"odin_background.png",0,0
//Break Periods
//Storyboard Layer 0 (Background)
//Storyboard Layer 1 (Fail)
//Storyboard Layer 2 (Pass)
//Storyboard Layer 3 (Foreground)
//Storyboard Sound Samples

[TimingPoints]
336.041,368.098,4,1,0,15,1,0
60289.4,368.098,4,1,0,15,1,0

[HitObjects]
320,0,888,5,0,1:0:0:0:
320,0,949,1,0,1:0:0:0:
320,0,1010,1,0,1:0:0:0:
320,0,1072,1,0,1:0:0:0:
64,0,1256,5,0,1:0:0:0:
192,0,1440,1,0,1:0:0:0:
448,0,1624,1,0,1:0:0:0:
320,0,1808,1,0,1:0:0:0:
192,0,2360,1,0,1:0:0:0:
64,0,2544,1,0,1:0:0:0:
64,0,3096,1,0,1:0:0:0:
448,0,3280,1,0,1:0:0:0:
192,0,3832,1,0,1:0:0:0:
192,0,3894,1,0,1:0:0:0:
192,0,3955,1,0,1:0:0:0:
192,0,4017,1,0,1:0:0:0:
320,0,4201,1,0,1:0:0:0:
64,0,4385,1,0,1:0:0:0:
448,0,4569,1,0,1:0:0:0:
192,0,4753,1,0,1:0:0:0:
192,0,6041,1,0,1:0:0:0:
64,0,6225,1,0,1:0:0:0:
448,0,6225,1,0,1:0:0:0:
320,0,6777,1,0,1:0:0:0:
320,0,6839,1,0,1:0:0:0:
320,0,6900,1,0,1:0:0:0:
320,0,6961,1,0,1:0:0:0:
64,0,7145,1,0,1:0:0:0:
192,0,7329,1,0,1:0:0:0:
448,0,7513,1,0,1:0:0:0:
320,0,7698,1,0,1:0:0:0:
448,0,8250,1,0,1:0:0:0:
448,0,8311,1,0,1:0:0:0:
448,0,8372,1,0,1:0:0:0:
448,0,8434,1,0,1:0:0:0:
64,0,8986,1,0,1:0:0:0:
192,0,9047,1,0,1:0:0:0:
320,0,9109,1,0,1:0:0:0:
448,0,9170,1,0,1:0:0:0:
320,0,9354,1,0,1:0:0:0:
64,0,9538,1,0,1:0:0:0:
192,0,9661,1,0,1:0:0:0:
448,0,9722,1,0,1:0:0:0:
320,0,9906,1,0,1:0:0:0:
64,0,10090,1,0,1:0:0:0:
192,0,10274,1,0,1:0:0:0:
448,0,10458,1,0,1:0:0:0:
64,0,10642,1,0,1:0:0:0:
192,0,10642,1,0,1:0:0:0:
64,0,10734,1,0,1:0:0:0:
192,0,10734,1,0,1:0:0:0:
320,0,10918,1,0,1:0:0:0:
448,0,10918,1,0,1:0:0:0:
64,0,11102,1,0,1:0:0:0:
192,0,11102,1,0,1:0:0:0:
320,0,11286,1,0,1:0:0:0:
448,0,11286,1,0,1:0:0:0:
320,0,11378,1,0,1:0:0:0:
448,0,11378,1,0,1:0:0:0:
64,0,11471,1,0,1:0:0:0:
192,0,11471,1,0,1:0:0:0:
320,0,11563,1,0,1:0:0:0:
448,0,11563,1,0,1:0:0:0:
64,0,11655,1,0,1:0:0:0:
192,0,11655,1,0,1:0:0:0:
64,0,11747,1,0,1:0:0:0:
448,0,11747,1,0,1:0:0:0:
192,0,11808,1,0,1:0:0:0:
320,0,11869,1,0,1:0:0:0:
448,0,11931,1,0,1:0:0:0:
64,0,11977,1,0,1:0:0:0:
192,0,12023,1,0,1:0:0:0:
320,0,12069,1,0,1:0:0:0:
64,0,12115,1,0,1:0:0:0:
192,0,12115,1,0,1:0:0:0:
448,0,12115,1,0,1:0:0:0:
64,0,12299,1,0,1:0:0:0:
448,0,12299,1,0,1:0:0:0:
192,0,12483,1,0,1:0:0:0:
320,0,12483,1,0,1:0:0:0:
192,0,12667,1,0,1:0:0:0:
320,0,12667,1,0,1:0:0:0:
64,0,12851,1,0,1:0:0:0:
448,0,12851,1,0,1:0:0:0:
192,0,12897,1,0,1:0:0:0:
320,0,12943,1,0,1:0:0:0:
448,0,12989,1,0,1:0:0:0:
192,0,13035,1,0,1:0:0:0:
320,0,13081,1,0,1:0:0:0:
64,0,13127,1,0,1:0:0:0:
192,0,13173,1,0,1:0:0:0:
64,0,13219,1,0,1:0:0:0:
448,0,13219,1,0,1:0:0:0:
320,0,13265,1,0,1:0:0:0:
192,0,13311,1,0,1:0:0:0:
64,0,13357,1,0,1:0:0:0:
448,0,13403,1,0,1:0:0:0:
320,0,13495,1,0,1:0:0:0:
64,0,13587,1,0,1:0:0:0:
192,0,13587,1,0,1:0:0:0:
64,0,13771,1,0,1:0:0:0:
192,0,13771,1,0,1:0:0:0:
320,0,13955,1,0,1:0:0:0:
448,0,13955,1,0,1:0:0:0:
320,0,14139,1,0,1:0:0:0:
448,0,14139,1,0,1:0:0:0:
64,0,14323,1,0,1:0:0:0:
192,0,14323,1,0,1:0:0:0:
320,0,14369,1,0,1:0:0:0:
448,0,14415,1,0,1:0:0:0:
64,0,14461,1,0,1:0:0:0:
192,0,14507,1,0,1:0:0:0:
448,0,14553,1,0,1:0:0:0:
320,0,14599,1,0,1:0:0:0:
192,0,14645,1,0,1:0:0:0:
64,0,14691,1,0,1:0:0:0:
320,0,14691,1,0,1:0:0:0:
448,0,14737,1,0,1:0:0:0:
192,0,14783,1,0,1:0:0:0:
64,0,14829,1,0,1:0:0:0:
320,0,14875,1,0,1:0:0:0:
448,0,14967,1,0,1:0:0:0:
192,0,15059,1,0,1:0:0:0:
320,0,15059,1,0,1:0:0:0:
192,0,15244,1,0,1:0:0:0:
320,0,15244,1,0,1:0:0:0:
64,0,15428,1,0,1:0:0:0:
448,0,15428,1,0,1:0:0:0:
64,0,15612,1,0,1:0:0:0:
448,0,15612,1,0,1:0:0:0:
192,0,15796,1,0,1:0:0:0:
320,0,15796,1,0,1:0:0:0:
64,0,15842,1,0,1:0:0:0:
448,0,15888,1,0,1:0:0:0:
320,0,15934,1,0,1:0:0:0:
64,0,15980,1,0,1:0:0:0:
192,0,16026,1,0,1:0:0:0:
448,0,16072,1,0,1:0:0:0:
64,0,16118,1,0,1:0:0:0:
320,0,16164,1,0,1:0:0:0:
448,0,16164,1,0,1:0:0:0:
192,0,16210,1,0,1:0:0:0:
64,0,16256,1,0,1:0:0:0:
448,0,16302,1,0,1:0:0:0:
320,0,16348,1,0,1:0:0:0:
192,0,16440,1,0,1:0:0:0:
64,0,16532,1,0,1:0:0:0:
320,0,16532,1,0,1:0:0:0:
64,0,16716,1,0,1:0:0:0:
320,0,16716,1,0,1:0:0:0:
192,0,16900,1,0,1:0:0:0:
448,0,16900,1,0,1:0:0:0:
192,0,17084,1,0,1:0:0:0:
448,0,17084,1,0,1:0:0:0:
64,0,17268,1,0,1:0:0:0:
320,0,17268,1,0,1:0:0:0:
192,0,17314,1,0,1:0:0:0:
448,0,17360,1,0,1:0:0:0:
320,0,17406,1,0,1:0:0:0:
64,0,17452,1,0,1:0:0:0:
192,0,17498,1,0,1:0:0:0:
320,0,17544,1,0,1:0:0:0:
448,0,17590,1,0,1:0:0:0:
64,0,17636,1,0,1:0:0:0:
192,0,17636,1,0,1:0:0:0:
448,0,17682,1,0,1:0:0:0:
320,0,17728,1,0,1:0:0:0:
192,0,17774,1,0,1:0:0:0:
64,0,17820,1,0,1:0:0:0:
448,0,17820,1,0,1:0:0:0:
320,0,17866,1,0,1:0:0:0:
192,0,17912,1,0,1:0:0:0:
448,0,17958,1,0,1:0:0:0:
64,0,18004,1,0,1:0:0:0:
192,0,18004,1,0,1:0:0:0:
320,0,18004,1,0,1:0:0:0:
64,0,18188,1,0,1:0:0:0:
192,0,18188,1,0,1:0:0:0:
320,0,18372,1,0,1:0:0:0:
448,0,18372,1,0,1:0:0:0:
320,0,18556,1,0,1:0:0:0:
448,0,18556,1,0,1:0:0:0:
64,0,18740,1,0,1:0:0:0:
192,0,18740,1,0,1:0:0:0:
448,0,18786,1,0,1:0:0:0:
320,0,18832,1,0,1:0:0:0:
64,0,18878,1,0,1:0:0:0:
448,0,18924,1,0,1:0:0:0:
192,0,18971,1,0,1:0:0:0:
320,0,19017,1,0,1:0:0:0:
64,0,19063,1,0,1:0:0:0:
192,0,19109,1,0,1:0:0:0:
448,0,19109,1,0,1:0:0:0:
64,0,19155,1,0,1:0:0:0:
320,0,19201,1,0,1:0:0:0:
192,0,19247,1,0,1:0:0:0:
448,0,19293,1,0,1:0:0:0:
320,0,19339,1,0,1:0:0:0:
64,0,19385,1,0,1:0:0:0:
192,0,19477,1,0,1:0:0:0:
448,0,19477,1,0,1:0:0:0:
192,0,19661,1,0,1:0:0:0:
448,0,19661,1,0,1:0:0:0:
64,0,19845,1,0,1:0:0:0:
320,0,19845,1,0,1:0:0:0:
64,0,20029,1,0,1:0:0:0:
320,0,20029,1,0,1:0:0:0:
192,0,20213,1,0,1:0:0:0:
448,0,20213,1,0,1:0:0:0:
320,0,20259,1,0,1:0:0:0:
64,0,20305,1,0,1:0:0:0:
448,0,20351,1,0,1:0:0:0:
320,0,20397,1,0,1:0:0:0:
192,0,20443,1,0,1:0:0:0:
64,0,20489,1,0,1:0:0:0:
448,0,20535,1,0,1:0:0:0:
192,0,20581,1,0,1:0:0:0:
320,0,20581,1,0,1:0:0:0:
64,0,20627,1,0,1:0:0:0:
192,0,20673,1,0,1:0:0:0:
320,0,20719,1,0,1:0:0:0:
448,0,20765,1,0,1:0:0:0:
192,0,20857,1,0,1:0:0:0:
64,0,20949,1,0,1:0:0:0:
448,0,20949,1,0,1:0:0:0:
64,0,21133,1,0,1:0:0:0:
448,0,21133,1,0,1:0:0:0:
192,0,21317,1,0,1:0:0:0:
320,0,21317,1,0,1:0:0:0:
192,0,21501,1,0,1:0:0:0:
320,0,21501,1,0,1:0:0:0:
64,0,21685,1,0,1:0:0:0:
448,0,21685,1,0,1:0:0:0:
320,0,21731,1,0,1:0:0:0:
192,0,21777,1,0,1:0:0:0:
448,0,21823,1,0,1:0:0:0:
64,0,21869,1,0,1:0:0:0:
192,0,21915,1,0,1:0:0:0:
320,0,21961,1,0,1:0:0:0:
448,0,22007,1,0,1:0:0:0:
64,0,22053,1,0,1:0:0:0:
192,0,22053,1,0,1:0:0:0:
448,0,22099,1,0,1:0:0:0:
320,0,22145,1,0,1:0:0:0:
64,0,22191,1,0,1:0:0:0:
192,0,22237,1,0,1:0:0:0:
320,0,22329,1,0,1:0:0:0:
64,0,22421,1,0,1:0:0:0:
448,0,22421,1,0,1:0:0:0:
192,0,22513,1,0,1:0:0:0:
320,0,22605,1,0,1:0:0:0:
448,0,22605,1,0,1:0:0:0:
64,0,22698,1,0,1:0:0:0:
192,0,22790,1,0,1:0:0:0:
448,0,22790,1,0,1:0:0:0:
320,0,22882,1,0,1:0:0:0:
64,0,22974,1,0,1:0:0:0:
192,0,22974,1,0,1:0:0:0:
448,0,23066,1,0,1:0:0:0:
64,0,23158,1,0,1:0:0:0:
320,0,23158,1,0,1:0:0:0:
192,0,23204,1,0,1:0:0:0:
448,0,23250,1,0,1:0:0:0:
320,0,23296,1,0,1:0:0:0:
64,0,23342,1,0,1:0:0:0:
192,0,23342,1,0,1:0:0:0:
448,0,23403,1,0,1:0:0:0:
320,0,23464,1,0,1:0:0:0:
64,0,23526,1,0,1:0:0:0:
448,0,23526,1,0,1:0:0:0:
192,0,23572,1,0,1:0:0:0:
320,0,23618,1,0,1:0:0:0:
64,0,23664,1,0,1:0:0:0:
192,0,23710,1,0,1:0:0:0:
448,0,23710,1,0,1:0:0:0:
320,0,23756,1,0,1:0:0:0:
64,0,23802,1,0,1:0:0:0:
192,0,23848,1,0,1:0:0:0:
64,0,23894,1,0,1:0:0:0:
448,0,23894,1,0,1:0:0:0:
320,0,23924,1,0,1:0:0:0:
64,0,24078,1,0,1:0:0:0:
448,0,24078,1,0,1:0:0:0:
320,0,24109,1,0,1:0:0:0:
64,0,24262,1,0,1:0:0:0:
192,0,24323,1,0,1:0:0:0:
64,0,24385,1,0,1:0:0:0:
192,0,24446,1,0,1:0:0:0:
320,0,24507,1,0,1:0:0:0:
192,0,24569,1,0,1:0:0:0:
320,0,24630,1,0,1:0:0:0:
448,0,24691,1,0,1:0:0:0:
320,0,24753,1,0,1:0:0:0:
448,0,24814,1,0,1:0:0:0:
64,0,24875,1,0,1:0:0:0:
448,0,24937,1,0,1:0:0:0:
64,0,24998,1,0,1:0:0:0:
320,0,25044,1,0,1:0:0:0:
192,0,25090,1,0,1:0:0:0:
448,0,25136,1,0,1:0:0:0:
320,0,25182,1,0,1:0:0:0:
64,0,25228,1,0,1:0:0:0:
192,0,25274,1,0,1:0:0:0:
320,0,25320,1,0,1:0:0:0:
64,0,25366,1,0,1:0:0:0:
448,0,25366,1,0,1:0:0:0:
192,0,25397,1,0,1:0:0:0:
64,0,25550,1,0,1:0:0:0:
448,0,25550,1,0,1:0:0:0:
192,0,25581,1,0,1:0:0:0:
448,0,25734,1,0,1:0:0:0:
320,0,25796,1,0,1:0:0:0:
448,0,25857,1,0,1:0:0:0:
320,0,25918,1,0,1:0:0:0:
192,0,25980,1,0,1:0:0:0:
320,0,26041,1,0,1:0:0:0:
192,0,26102,1,0,1:0:0:0:
64,0,26164,1,0,1:0:0:0:
192,0,26225,1,0,1:0:0:0:
64,0,26286,1,0,1:0:0:0:
448,0,26348,1,0,1:0:0:0:
64,0,26409,1,0,1:0:0:0:
448,0,26471,1,0,1:0:0:0:
192,0,26517,1,0,1:0:0:0:
320,0,26563,1,0,1:0:0:0:
64,0,26609,1,0,1:0:0:0:
192,0,26655,1,0,1:0:0:0:
448,0,26701,1,0,1:0:0:0:
320,0,26747,1,0,1:0:0:0:
192,0,26793,1,0,1:0:0:0:
64,0,26839,1,0,1:0:0:0:
448,0,26839,1,0,1:0:0:0:
320,0,26869,1,0,1:0:0:0:
64,0,27023,1,0,1:0:0:0:
448,0,27023,1,0,1:0:0:0:
320,0,27053,1,0,1:0:0:0:
192,0,27207,1,0,1:0:0:0:
448,0,27207,1,0,1:0:0:0:
320,0,27253,1,0,1:0:0:0:
64,0,27299,1,0,1:0:0:0:
192,0,27345,1,0,1:0:0:0:
64,0,27391,1,0,1:0:0:0:
448,0,27437,1,0,1:0:0:0:
320,0,27483,1,0,1:0:0:0:
192,0,27529,1,0,1:0:0:0:
64,0,27575,1,0,1:0:0:0:
448,0,27575,1,0,1:0:0:0:
320,0,27605,1,0,1:0:0:0:
64,0,27759,1,0,1:0:0:0:
448,0,27759,1,0,1:0:0:0:
320,0,27790,1,0,1:0:0:0:
64,0,27943,1,0,1:0:0:0:
192,0,27943,1,0,1:0:0:0:
320,0,27989,1,0,1:0:0:0:
448,0,28035,1,0,1:0:0:0:
64,0,28081,1,0,1:0:0:0:
448,0,28127,1,0,1:0:0:0:
320,0,28173,1,0,1:0:0:0:
192,0,28219,1,0,1:0:0:0:
64,0,28265,1,0,1:0:0:0:
192,0,28311,1,0,1:0:0:0:
448,0,28311,1,0,1:0:0:0:
320,0,28342,1,0,1:0:0:0:
192,0,28495,1,0,1:0:0:0:
448,0,28495,1,0,1:0:0:0:
320,0,28526,1,0,1:0:0:0:
64,0,28679,1,0,1:0:0:0:
320,0,28679,1,0,1:0:0:0:
192,0,28710,1,0,1:0:0:0:
64,0,28863,1,0,1:0:0:0:
320,0,28863,1,0,1:0:0:0:
192,0,28894,1,0,1:0:0:0:
64,0,29047,1,0,1:0:0:0:
448,0,29047,1,0,1:0:0:0:
320,0,29093,1,0,1:0:0:0:
192,0,29139,1,0,1:0:0:0:
64,0,29185,1,0,1:0:0:0:
448,0,29231,1,0,1:0:0:0:
192,0,29277,1,0,1:0:0:0:
320,0,29323,1,0,1:0:0:0:
64,0,29369,1,0,1:0:0:0:
192,0,29415,1,0,1:0:0:0:
448,0,29415,1,0,1:0:0:0:
320,0,29461,1,0,1:0:0:0:
64,0,29507,1,0,1:0:0:0:
448,0,29553,1,0,1:0:0:0:
192,0,29599,1,0,1:0:0:0:
320,0,29599,1,0,1:0:0:0:
64,0,29645,1,0,1:0:0:0:
448,0,29691,1,0,1:0:0:0:
192,0,29737,1,0,1:0:0:0:
320,0,29783,1,0,1:0:0:0:
448,0,29783,1,0,1:0:0:0:
64,0,29814,1,0,1:0:0:0:
320,0,29967,1,0,1:0:0:0:
448,0,29967,1,0,1:0:0:0:
64,0,29998,1,0,1:0:0:0:
192,0,30151,1,0,1:0:0:0:
64,0,30213,1,0,1:0:0:0:
320,0,30274,1,0,1:0:0:0:
192,0,30336,1,0,1:0:0:0:
448,0,30397,1,0,1:0:0:0:
320,0,30458,1,0,1:0:0:0:
448,0,30520,1,0,1:0:0:0:
64,0,30581,1,0,1:0:0:0:
192,0,30642,1,0,1:0:0:0:
64,0,30704,1,0,1:0:0:0:
320,0,30765,1,0,1:0:0:0:
192,0,30826,1,0,1:0:0:0:
448,0,30888,1,0,1:0:0:0:
320,0,30934,1,0,1:0:0:0:
448,0,30980,1,0,1:0:0:0:
64,0,31026,1,0,1:0:0:0:
192,0,31072,1,0,1:0:0:0:
320,0,31118,1,0,1:0:0:0:
448,0,31164,1,0,1:0:0:0:
64,0,31210,1,0,1:0:0:0:
192,0,31256,1,0,1:0:0:0:
320,0,31256,1,0,1:0:0:0:
448,0,31286,1,0,1:0:0:0:
192,0,31440,1,0,1:0:0:0:
320,0,31440,1,0,1:0:0:0:
448,0,31471,1,0,1:0:0:0:
448,0,31624,1,0,1:0:0:0:
320,0,31685,1,0,1:0:0:0:
448,0,31747,1,0,1:0:0:0:
192,0,31808,1,0,1:0:0:0:
320,0,31869,1,0,1:0:0:0:
64,0,31931,1,0,1:0:0:0:
192,0,31992,1,0,1:0:0:0:
64,0,32053,1,0,1:0:0:0:
448,0,32115,1,0,1:0:0:0:
320,0,32176,1,0,1:0:0:0:
192,0,32237,1,0,1:0:0:0:
64,0,32299,1,0,1:0:0:0:
448,0,32360,1,0,1:0:0:0:
320,0,32406,1,0,1:0:0:0:
192,0,32452,1,0,1:0:0:0:
448,0,32498,1,0,1:0:0:0:
320,0,32544,1,0,1:0:0:0:
192,0,32590,1,0,1:0:0:0:
64,0,32636,1,0,1:0:0:0:
448,0,32682,1,0,1:0:0:0:
192,0,32728,1,0,1:0:0:0:
320,0,32728,1,0,1:0:0:0:
64,0,32759,1,0,1:0:0:0:
192,0,32912,1,0,1:0:0:0:
320,0,32912,1,0,1:0:0:0:
64,0,32943,1,0,1:0:0:0:
64,0,33096,1,0,1:0:0:0:
448,0,33096,1,0,1:0:0:0:
320,0,33142,1,0,1:0:0:0:
192,0,33188,1,0,1:0:0:0:
64,0,33234,1,0,1:0:0:0:
192,0,33280,1,0,1:0:0:0:
320,0,33326,1,0,1:0:0:0:
448,0,33372,1,0,1:0:0:0:
64,0,33418,1,0,1:0:0:0:
192,0,33464,1,0,1:0:0:0:
320,0,33464,1,0,1:0:0:0:
448,0,33495,1,0,1:0:0:0:
192,0,33648,1,0,1:0:0:0:
320,0,33648,1,0,1:0:0:0:
448,0,33679,1,0,1:0:0:0:
64,0,33832,1,0,1:0:0:0:
448,0,33832,1,0,1:0:0:0:
192,0,33878,1,0,1:0:0:0:
320,0,33924,1,0,1:0:0:0:
192,0,33971,1,0,1:0:0:0:
448,0,34017,1,0,1:0:0:0:
64,0,34063,1,0,1:0:0:0:
320,0,34109,1,0,1:0:0:0:
192,0,34155,1,0,1:0:0:0:
64,0,34201,1,0,1:0:0:0:
320,0,34201,1,0,1:0:0:0:
448,0,34201,1,0,1:0:0:0:
192,0,34262,1,0,1:0:0:0:
320,0,34323,1,0,1:0:0:0:
448,0,34385,1,0,1:0:0:0:
64,0,34446,1,0,1:0:0:0:
192,0,34446,1,0,1:0:0:0:
448,0,34507,1,0,1:0:0:0:
320,0,34569,1,0,1:0:0:0:
192,0,34630,1,0,1:0:0:0:
64,0,34691,1,0,1:0:0:0:
320,0,34753,1,0,1:0:0:0:
448,0,34753,1,0,1:0:0:0:
64,0,34814,1,0,1:0:0:0:
192,0,34875,1,0,1:0:0:0:
320,0,34937,1,0,1:0:0:0:
448,0,34983,1,0,1:0:0:0:
320,0,35029,1,0,1:0:0:0:
192,0,35075,1,0,1:0:0:0:
64,0,35121,1,0,1:0:0:0:
448,0,35167,1,0,1:0:0:0:
192,0,35213,1,0,1:0:0:0:
320,0,35259,1,0,1:0:0:0:
64,0,35305,1,0,1:0:0:0:
192,0,35351,1,0,1:0:0:0:
320,0,35397,1,0,1:0:0:0:
448,0,35443,1,0,1:0:0:0:
64,0,35489,1,0,1:0:0:0:
192,0,35489,1,0,1:0:0:0:
320,0,35581,1,0,1:0:0:0:
64,0,35673,1,0,1:0:0:0:
192,0,35673,1,0,1:0:0:0:
448,0,35673,1,0,1:0:0:0:
320,0,35719,1,0,1:0:0:0:
192,0,35765,1,0,1:0:0:0:
64,0,35811,1,0,1:0:0:0:
320,0,35857,1,0,1:0:0:0:
192,0,35903,1,0,1:0:0:0:
448,0,35949,1,0,1:0:0:0:
64,0,35995,1,0,1:0:0:0:
192,0,36041,1,0,1:0:0:0:
320,0,36041,1,0,1:0:0:0:
448,0,36087,1,0,1:0:0:0:
64,0,36133,1,0,1:0:0:0:
320,0,36179,1,0,1:0:0:0:
192,0,36225,1,0,1:0:0:0:
448,0,36271,1,0,1:0:0:0:
192,0,36317,1,0,1:0:0:0:
320,0,36363,1,0,1:0:0:0:
64,0,36409,1,0,1:0:0:0:
448,0,36409,1,0,1:0:0:0:
192,0,36455,1,0,1:0:0:0:
320,0,36501,1,0,1:0:0:0:
64,0,36547,1,0,1:0:0:0:
192,0,36593,1,0,1:0:0:0:
448,0,36639,1,0,1:0:0:0:
64,0,36685,1,0,1:0:0:0:
320,0,36685,1,0,1:0:0:0:
192,0,36731,1,0,1:0:0:0:
448,0,36777,1,0,1:0:0:0:
320,0,36823,1,0,1:0:0:0:
64,0,36869,1,0,1:0:0:0:
192,0,36915,1,0,1:0:0:0:
320,0,36961,1,0,1:0:0:0:
448,0,36961,1,0,1:0:0:0:
192,0,37007,1,0,1:0:0:0:
64,0,37053,1,0,1:0:0:0:
320,0,37099,1,0,1:0:0:0:
192,0,37145,1,0,1:0:0:0:
448,0,37145,1,0,1:0:0:0:
64,0,37191,1,0,1:0:0:0:
320,0,37237,1,0,1:0:0:0:
192,0,37283,1,0,1:0:0:0:
448,0,37329,1,0,1:0:0:0:
64,0,37375,1,0,1:0:0:0:
192,0,37421,1,0,1:0:0:0:
320,0,37467,1,0,1:0:0:0:
64,0,37513,1,0,1:0:0:0:
448,0,37513,1,0,1:0:0:0:
192,0,37559,1,0,1:0:0:0:
320,0,37605,1,0,1:0:0:0:
64,0,37651,1,0,1:0:0:0:
448,0,37698,1,0,1:0:0:0:
320,0,37744,1,0,1:0:0:0:
192,0,37790,1,0,1:0:0:0:
64,0,37836,1,0,1:0:0:0:
192,0,37882,1,0,1:0:0:0:
320,0,37882,1,0,1:0:0:0:
448,0,37928,1,0,1:0:0:0:
64,0,37974,1,0,1:0:0:0:
192,0,38020,1,0,1:0:0:0:
320,0,38066,1,0,1:0:0:0:
448,0,38112,1,0,1:0:0:0:
64,0,38158,1,0,1:0:0:0:
192,0,38158,1,0,1:0:0:0:
320,0,38204,1,0,1:0:0:0:
448,0,38250,1,0,1:0:0:0:
64,0,38296,1,0,1:0:0:0:
192,0,38342,1,0,1:0:0:0:
320,0,38388,1,0,1:0:0:0:
64,0,38434,1,0,1:0:0:0:
448,0,38434,1,0,1:0:0:0:
192,0,38480,1,0,1:0:0:0:
64,0,38526,1,0,1:0:0:0:
320,0,38572,1,0,1:0:0:0:
192,0,38618,1,0,1:0:0:0:
448,0,38618,1,0,1:0:0:0:
64,0,38664,1,0,1:0:0:0:
320,0,38710,1,0,1:0:0:0:
192,0,38756,1,0,1:0:0:0:
448,0,38802,1,0,1:0:0:0:
64,0,38848,1,0,1:0:0:0:
320,0,38894,1,0,1:0:0:0:
448,0,38940,1,0,1:0:0:0:
64,0,38986,1,0,1:0:0:0:
192,0,38986,1,0,1:0:0:0:
320,0,39032,1,0,1:0:0:0:
448,0,39078,1,0,1:0:0:0:
192,0,39124,1,0,1:0:0:0:
64,0,39170,1,0,1:0:0:0:
448,0,39216,1,0,1:0:0:0:
320,0,39262,1,0,1:0:0:0:
192,0,39308,1,0,1:0:0:0:
64,0,39354,1,0,1:0:0:0:
448,0,39354,1,0,1:0:0:0:
192,0,39400,1,0,1:0:0:0:
320,0,39446,1,0,1:0:0:0:
448,0,39492,1,0,1:0:0:0:
64,0,39538,1,0,1:0:0:0:
192,0,39584,1,0,1:0:0:0:
320,0,39630,1,0,1:0:0:0:
448,0,39630,1,0,1:0:0:0:
64,0,39676,1,0,1:0:0:0:
192,0,39722,1,0,1:0:0:0:
448,0,39768,1,0,1:0:0:0:
320,0,39814,1,0,1:0:0:0:
192,0,39860,1,0,1:0:0:0:
64,0,39906,1,0,1:0:0:0:
448,0,39906,1,0,1:0:0:0:
320,0,39952,1,0,1:0:0:0:
192,0,39998,1,0,1:0:0:0:
64,0,40044,1,0,1:0:0:0:
320,0,40090,1,0,1:0:0:0:
448,0,40090,1,0,1:0:0:0:
64,0,40136,1,0,1:0:0:0:
192,0,40182,1,0,1:0:0:0:
320,0,40228,1,0,1:0:0:0:
448,0,40274,1,0,1:0:0:0:
192,0,40320,1,0,1:0:0:0:
64,0,40366,1,0,1:0:0:0:
320,0,40412,1,0,1:0:0:0:
192,0,40458,1,0,1:0:0:0:
448,0,40458,1,0,1:0:0:0:
64,0,40504,1,0,1:0:0:0:
320,0,40550,1,0,1:0:0:0:
192,0,40596,1,0,1:0:0:0:
448,0,40642,1,0,1:0:0:0:
64,0,40688,1,0,1:0:0:0:
192,0,40734,1,0,1:0:0:0:
320,0,40780,1,0,1:0:0:0:
64,0,40826,1,0,1:0:0:0:
448,0,40826,1,0,1:0:0:0:
320,0,40872,1,0,1:0:0:0:
192,0,40918,1,0,1:0:0:0:
64,0,40964,1,0,1:0:0:0:
448,0,41010,1,0,1:0:0:0:
320,0,41056,1,0,1:0:0:0:
192,0,41102,1,0,1:0:0:0:
64,0,41148,1,0,1:0:0:0:
320,0,41194,1,0,1:0:0:0:
448,0,41194,1,0,1:0:0:0:
64,0,41240,1,0,1:0:0:0:
192,0,41286,1,0,1:0:0:0:
320,0,41332,1,0,1:0:0:0:
64,0,41378,1,0,1:0:0:0:
448,0,41378,1,0,1:0:0:0:
192,0,41424,1,0,1:0:0:0:
320,0,41471,1,0,1:0:0:0:
448,0,41517,1,0,1:0:0:0:
192,0,41563,1,0,1:0:0:0:
320,0,41563,1,0,1:0:0:0:
64,0,41609,1,0,1:0:0:0:
448,0,41655,1,0,1:0:0:0:
192,0,41701,1,0,1:0:0:0:
320,0,41747,1,0,1:0:0:0:
64,0,41793,1,0,1:0:0:0:
448,0,41839,1,0,1:0:0:0:
320,0,41885,1,0,1:0:0:0:
64,0,41931,1,0,1:0:0:0:
192,0,41931,1,0,1:0:0:0:
448,0,41977,1,0,1:0:0:0:
320,0,42023,1,0,1:0:0:0:
64,0,42069,1,0,1:0:0:0:
192,0,42115,1,0,1:0:0:0:
320,0,42161,1,0,1:0:0:0:
448,0,42207,1,0,1:0:0:0:
192,0,42253,1,0,1:0:0:0:
64,0,42299,1,0,1:0:0:0:
448,0,42299,1,0,1:0:0:0:
320,0,42345,1,0,1:0:0:0:
192,0,42391,1,0,1:0:0:0:
64,0,42437,1,0,1:0:0:0:
448,0,42483,1,0,1:0:0:0:
320,0,42529,1,0,1:0:0:0:
64,0,42575,1,0,1:0:0:0:
192,0,42575,1,0,1:0:0:0:
448,0,42621,1,0,1:0:0:0:
320,0,42667,1,0,1:0:0:0:
64,0,42713,1,0,1:0:0:0:
192,0,42759,1,0,1:0:0:0:
320,0,42805,1,0,1:0:0:0:
64,0,42851,1,0,1:0:0:0:
448,0,42851,1,0,1:0:0:0:
192,0,42897,1,0,1:0:0:0:
320,0,42943,1,0,1:0:0:0:
448,0,42989,1,0,1:0:0:0:
64,0,43035,1,0,1:0:0:0:
192,0,43035,1,0,1:0:0:0:
448,0,43081,1,0,1:0:0:0:
320,0,43127,1,0,1:0:0:0:
192,0,43173,1,0,1:0:0:0:
64,0,43219,1,0,1:0:0:0:
320,0,43265,1,0,1:0:0:0:
192,0,43311,1,0,1:0:0:0:
448,0,43357,1,0,1:0:0:0:
64,0,43403,1,0,1:0:0:0:
320,0,43403,1,0,1:0:0:0:
192,0,43449,1,0,1:0:0:0:
448,0,43495,1,0,1:0:0:0:
64,0,43541,1,0,1:0:0:0:
320,0,43587,1,0,1:0:0:0:
192,0,43633,1,0,1:0:0:0:
320,0,43679,1,0,1:0:0:0:
64,0,43725,1,0,1:0:0:0:
192,0,43771,1,0,1:0:0:0:
448,0,43771,1,0,1:0:0:0:
320,0,43817,1,0,1:0:0:0:
64,0,43863,1,0,1:0:0:0:
192,0,43909,1,0,1:0:0:0:
320,0,43955,1,0,1:0:0:0:
448,0,44001,1,0,1:0:0:0:
64,0,44047,1,0,1:0:0:0:
192,0,44047,1,0,1:0:0:0:
320,0,44093,1,0,1:0:0:0:
448,0,44139,1,0,1:0:0:0:
192,0,44185,1,0,1:0:0:0:
64,0,44231,1,0,1:0:0:0:
320,0,44277,1,0,1:0:0:0:
192,0,44323,1,0,1:0:0:0:
448,0,44323,1,0,1:0:0:0:
320,0,44369,1,0,1:0:0:0:
64,0,44415,1,0,1:0:0:0:
192,0,44461,1,0,1:0:0:0:
320,0,44507,1,0,1:0:0:0:
448,0,44507,1,0,1:0:0:0:
64,0,44553,1,0,1:0:0:0:
192,0,44599,1,0,1:0:0:0:
320,0,44645,1,0,1:0:0:0:
192,0,44691,1,0,1:0:0:0:
448,0,44737,1,0,1:0:0:0:
320,0,44783,1,0,1:0:0:0:
192,0,44829,1,0,1:0:0:0:
64,0,44875,1,0,1:0:0:0:
448,0,44875,1,0,1:0:0:0:
320,0,44921,1,0,1:0:0:0:
448,0,44967,1,0,1:0:0:0:
64,0,45013,1,0,1:0:0:0:
192,0,45059,1,0,1:0:0:0:
320,0,45105,1,0,1:0:0:0:
448,0,45151,1,0,1:0:0:0:
192,0,45198,1,0,1:0:0:0:
64,0,45244,1,0,1:0:0:0:
320,0,45244,1,0,1:0:0:0:
192,0,45290,1,0,1:0:0:0:
448,0,45336,1,0,1:0:0:0:
320,0,45382,1,0,1:0:0:0:
64,0,45428,1,0,1:0:0:0:
192,0,45474,1,0,1:0:0:0:
320,0,45520,1,0,1:0:0:0:
448,0,45520,1,0,1:0:0:0:
64,0,45566,1,0,1:0:0:0:
192,0,45612,1,0,1:0:0:0:
320,0,45658,1,0,1:0:0:0:
448,0,45704,1,0,1:0:0:0:
64,0,45750,1,0,1:0:0:0:
192,0,45796,1,0,1:0:0:0:
448,0,45796,1,0,1:0:0:0:
320,0,45842,1,0,1:0:0:0:
64,0,45888,1,0,1:0:0:0:
192,0,45934,1,0,1:0:0:0:
320,0,45980,1,0,1:0:0:0:
448,0,45980,1,0,1:0:0:0:
64,0,46041,1,0,1:0:0:0:
192,0,46041,1,0,1:0:0:0:
448,0,46102,1,0,1:0:0:0:
320,0,46164,1,0,1:0:0:0:
64,0,46225,1,0,1:0:0:0:
192,0,46225,1,0,1:0:0:0:
448,0,46286,1,0,1:0:0:0:
320,0,46348,1,0,1:0:0:0:
64,0,46409,1,0,1:0:0:0:
192,0,46409,1,0,1:0:0:0:
448,0,46471,1,0,1:0:0:0:
320,0,46532,1,0,1:0:0:0:
64,0,46593,1,0,1:0:0:0:
192,0,46593,1,0,1:0:0:0:
320,0,46655,1,0,1:0:0:0:
64,0,46716,1,0,1:0:0:0:
448,0,46716,1,0,1:0:0:0:
192,0,46762,1,0,1:0:0:0:
320,0,46808,1,0,1:0:0:0:
448,0,46854,1,0,1:0:0:0:
192,0,46900,1,0,1:0:0:0:
64,0,46946,1,0,1:0:0:0:
320,0,46992,1,0,1:0:0:0:
448,0,46992,1,0,1:0:0:0:
192,0,47038,1,0,1:0:0:0:
64,0,47084,1,0,1:0:0:0:
320,0,47130,1,0,1:0:0:0:
192,0,47176,1,0,1:0:0:0:
448,0,47222,1,0,1:0:0:0:
64,0,47268,1,0,1:0:0:0:
320,0,47268,1,0,1:0:0:0:
192,0,47314,1,0,1:0:0:0:
448,0,47360,1,0,1:0:0:0:
64,0,47406,1,0,1:0:0:0:
192,0,47452,1,0,1:0:0:0:
320,0,47452,1,0,1:0:0:0:
448,0,47452,1,0,1:0:0:0:
320,0,48004,1,0,1:0:0:0:
320,0,48066,1,0,1:0:0:0:
320,0,48127,1,0,1:0:0:0:
320,0,48188,1,0,1:0:0:0:
64,0,48372,1,0,1:0:0:0:
192,0,48556,1,0,1:0:0:0:
448,0,48740,1,0,1:0:0:0:
320,0,48924,1,0,1:0:0:0:
192,0,49477,1,0,1:0:0:0:
64,0,49661,1,0,1:0:0:0:
64,0,50213,1,0,1:0:0:0:
448,0,50397,1,0,1:0:0:0:
192,0,50949,1,0,1:0:0:0:
192,0,51010,1,0,1:0:0:0:
192,0,51072,1,0,1:0:0:0:
192,0,51133,1,0,1:0:0:0:
320,0,51317,1,0,1:0:0:0:
64,0,51501,1,0,1:0:0:0:
448,0,51685,1,0,1:0:0:0:
192,0,51869,1,0,1:0:0:0:
64,0,53158,1,0,1:0:0:0:
192,0,53158,1,0,1:0:0:0:
64,0,53342,1,0,1:0:0:0:
448,0,53342,1,0,1:0:0:0:
320,0,53894,1,0,1:0:0:0:
320,0,53955,1,0,1:0:0:0:
320,0,54017,1,0,1:0:0:0:
320,0,54078,1,0,1:0:0:0:
64,0,54262,1,0,1:0:0:0:
192,0,54446,1,0,1:0:0:0:
448,0,54630,1,0,1:0:0:0:
320,0,54814,1,0,1:0:0:0:
448,0,55366,1,0,1:0:0:0:
448,0,55428,1,0,1:0:0:0:
448,0,55489,1,0,1:0:0:0:
448,0,55550,1,0,1:0:0:0:
64,0,56102,1,0,1:0:0:0:
320,0,56102,1,0,1:0:0:0:
192,0,56164,1,0,1:0:0:0:
320,0,56225,1,0,1:0:0:0:
192,0,56286,1,0,1:0:0:0:
448,0,56286,1,0,1:0:0:0:
320,0,56471,1,0,1:0:0:0:
64,0,56655,1,0,1:0:0:0:
192,0,56777,1,0,1:0:0:0:
448,0,56839,1,0,1:0:0:0:
320,0,57023,1,0,1:0:0:0:
64,0,57207,1,0,1:0:0:0:
192,0,57391,1,0,1:0:0:0:
448,0,57575,1,0,1:0:0:0:
320,0,57759,1,0,1:0:0:0:
64,0,58495,1,0,1:0:0:0:
64,0,58771,1,0,1:0:0:0:
64,0,59047,1,0,1:0:0:0:
64,0,60289,1,0,1:0:0:0:
192,0,60289,1,0,1:0:0:0:
320,0,60350,1,0,1:0:0:0:
192,0,60412,1,0,1:0:0:0:
448,0,60473,1,0,1:0:0:0:
320,0,60534,1,0,1:0:0:0:
64,0,60596,1,0,1:0:0:0:
192,0,60657,1,0,1:0:0:0:
448,0,60657,1,0,1:0:0:0:
320,0,60718,1,0,1:0:0:0:
64,0,60780,1,0,1:0:0:0:
192,0,60841,1,0,1:0:0:0:
320,0,60887,1,0,1:0:0:0:
448,0,60933,1,0,1:0:0:0:
192,0,60979,1,0,1:0:0:0:
64,0,61025,1,0,1:0:0:0:
320,0,61025,1,0,1:0:0:0:
448,0,61071,1,0,1:0:0:0:
192,0,61117,1,0,1:0:0:0:
64,0,61163,1,0,1:0:0:0:
448,0,61209,1,0,1:0:0:0:
320,0,61255,1,0,1:0:0:0:
192,0,61301,1,0,1:0:0:0:
320,0,61347,1,0,1:0:0:0:
64,0,61393,1,0,1:0:0:0:
448,0,61393,1,0,1:0:0:0:
192,0,61455,1,0,1:0:0:0:
320,0,61516,1,0,1:0:0:0:
64,0,61577,1,0,1:0:0:0:
192,0,61577,1,0,1:0:0:0:
448,0,61639,1,0,1:0:0:0:
320,0,61700,1,0,1:0:0:0:
64,0,61761,1,0,1:0:0:0:
448,0,61761,1,0,1:0:0:0:
192,0,61823,1,0,1:0:0:0:
320,0,61884,1,0,1:0:0:0:
448,0,61945,1,0,1:0:0:0:
192,0,62007,1,0,1:0:0:0:
320,0,62068,1,0,1:0:0:0:
64,0,62129,1,0,1:0:0:0:
192,0,62129,1,0,1:0:0:0:
448,0,62191,1,0,1:0:0:0:
320,0,62252,1,0,1:0:0:0:
192,0,62313,1,0,1:0:0:0:
64,0,62359,1,0,1:0:0:0:
320,0,62405,1,0,1:0:0:0:
192,0,62451,1,0,1:0:0:0:
64,0,62497,1,0,1:0:0:0:
448,0,62497,1,0,1:0:0:0:
192,0,62543,1,0,1:0:0:0:
320,0,62590,1,0,1:0:0:0:
448,0,62636,1,0,1:0:0:0:
64,0,62682,1,0,1:0:0:0:
320,0,62728,1,0,1:0:0:0:
192,0,62774,1,0,1:0:0:0:
448,0,62820,1,0,1:0:0:0:
64,0,62866,1,0,1:0:0:0:
320,0,62866,1,0,1:0:0:0:
192,0,62927,1,0,1:0:0:0:
320,0,62988,1,0,1:0:0:0:
192,0,63050,1,0,1:0:0:0:
448,0,63050,1,0,1:0:0:0:
64,0,63111,1,0,1:0:0:0:
448,0,63172,1,0,1:0:0:0:
192,0,63234,1,0,1:0:0:0:
320,0,63234,1,0,1:0:0:0:
64,0,63295,1,0,1:0:0:0:
192,0,63356,1,0,1:0:0:0:
320,0,63418,1,0,1:0:0:0:
448,0,63479,1,0,1:0:0:0:
192,0,63540,1,0,1:0:0:0:
320,0,63602,1,0,1:0:0:0:
448,0,63602,1,0,1:0:0:0:
64,0,63663,1,0,1:0:0:0:
192,0,63724,1,0,1:0:0:0:
320,0,63786,1,0,1:0:0:0:
448,0,63832,1,0,1:0:0:0:
64,0,63878,1,0,1:0:0:0:
192,0,63924,1,0,1:0:0:0:
320,0,63970,1,0,1:0:0:0:
448,0,63970,1,0,1:0:0:0:
192,0,64016,1,0,1:0:0:0:
64,0,64062,1,0,1:0:0:0:
320,0,64108,1,0,1:0:0:0:
192,0,64154,1,0,1:0:0:0:
448,0,64200,1,0,1:0:0:0:
320,0,64246,1,0,1:0:0:0:
64,0,64292,1,0,1:0:0:0:
192,0,64338,1,0,1:0:0:0:
448,0,64338,1,0,1:0:0:0:
320,0,64399,1,0,1:0:0:0:
192,0,64461,1,0,1:0:0:0:
64,0,64522,1,0,1:0:0:0:
448,0,64522,1,0,1:0:0:0:
320,0,64583,1,0,1:0:0:0:
192,0,64645,1,0,1:0:0:0:
64,0,64706,1,0,1:0:0:0:
448,0,64706,1,0,1:0:0:0:
192,0,64767,1,0,1:0:0:0:
320,0,64829,1,0,1:0:0:0:
448,0,64890,1,0,1:0:0:0:
64,0,64951,1,0,1:0:0:0:
192,0,65013,1,0,1:0:0:0:
320,0,65074,1,0,1:0:0:0:
448,0,65074,1,0,1:0:0:0:
192,0,65136,1,0,1:0:0:0:
320,0,65197,1,0,1:0:0:0:
448,0,65258,1,0,1:0:0:0:
64,0,65304,1,0,1:0:0:0:
192,0,65350,1,0,1:0:0:0:
320,0,65396,1,0,1:0:0:0:
64,0,65442,1,0,1:0:0:0:
448,0,65442,1,0,1:0:0:0:
320,0,65488,1,0,1:0:0:0:
192,0,65534,1,0,1:0:0:0:
64,0,65580,1,0,1:0:0:0:
448,0,65626,1,0,1:0:0:0:
192,0,65672,1,0,1:0:0:0:
320,0,65718,1,0,1:0:0:0:
64,0,65764,1,0,1:0:0:0:
192,0,65810,1,0,1:0:0:0:
448,0,65810,1,0,1:0:0:0:
320,0,65872,1,0,1:0:0:0:
192,0,65933,1,0,1:0:0:0:
64,0,65994,1,0,1:0:0:0:
448,0,65994,1,0,1:0:0:0:
320,0,66056,1,0,1:0:0:0:
192,0,66117,1,0,1:0:0:0:
64,0,66178,1,0,1:0:0:0:
320,0,66178,1,0,1:0:0:0:
448,0,66240,1,0,1:0:0:0:
192,0,66301,1,0,1:0:0:0:
320,0,66363,1,0,1:0:0:0:
448,0,66363,1,0,1:0:0:0:
64,0,66424,1,0,1:0:0:0:
192,0,66485,1,0,1:0:0:0:
64,0,66547,1,0,1:0:0:0:
448,0,66547,1,0,1:0:0:0:
320,0,66608,1,0,1:0:0:0:
192,0,66669,1,0,1:0:0:0:
320,0,66731,1,0,1:0:0:0:
448,0,66731,1,0,1:0:0:0:
64,0,66777,1,0,1:0:0:0:
192,0,66823,1,0,1:0:0:0:
320,0,66869,1,0,1:0:0:0:
448,0,66915,1,0,1:0:0:0:
64,0,66961,1,0,1:0:0:0:
448,0,67007,1,0,1:0:0:0:
320,0,67053,1,0,1:0:0:0:
64,0,67099,1,0,1:0:0:0:
192,0,67099,1,0,1:0:0:0:
448,0,67145,1,0,1:0:0:0:
320,0,67191,1,0,1:0:0:0:
192,0,67237,1,0,1:0:0:0:
64,0,67283,1,0,1:0:0:0:
448,0,67283,1,0,1:0:0:0:
320,0,67344,1,0,1:0:0:0:
192,0,67405,1,0,1:0:0:0:
64,0,67467,1,0,1:0:0:0:
320,0,67467,1,0,1:0:0:0:
448,0,67528,1,0,1:0:0:0:
64,0,67590,1,0,1:0:0:0:
192,0,67651,1,0,1:0:0:0:
320,0,67651,1,0,1:0:0:0:
448,0,67712,1,0,1:0:0:0:
64,0,67774,1,0,1:0:0:0:
192,0,67835,1,0,1:0:0:0:
448,0,67835,1,0,1:0:0:0:
320,0,67896,1,0,1:0:0:0:
192,0,67958,1,0,1:0:0:0:
64,0,68019,1,0,1:0:0:0:
448,0,68019,1,0,1:0:0:0:
320,0,68080,1,0,1:0:0:0:
192,0,68142,1,0,1:0:0:0:
64,0,68203,1,0,1:0:0:0:
448,0,68203,1,0,1:0:0:0:
320,0,68249,1,0,1:0:0:0:
192,0,68295,1,0,1:0:0:0:
320,0,68341,1,0,1:0:0:0:
448,0,68387,1,0,1:0:0:0:
64,0,68433,1,0,1:0:0:0:
192,0,68479,1,0,1:0:0:0:
320,0,68525,1,0,1:0:0:0:
64,0,68571,1,0,1:0:0:0:
448,0,68571,1,0,1:0:0:0:
192,0,68617,1,0,1:0:0:0:
320,0,68663,1,0,1:0:0:0:
448,0,68709,1,0,1:0:0:0:
64,0,68755,1,0,1:0:0:0:
192,0,68755,1,0,1:0:0:0:
320,0,68817,1,0,1:0:0:0:
192,0,68878,1,0,1:0:0:0:
64,0,68939,1,0,1:0:0:0:
448,0,68939,1,0,1:0:0:0:
320,0,69001,1,0,1:0:0:0:
192,0,69062,1,0,1:0:0:0:
320,0,69123,1,0,1:0:0:0:
448,0,69123,1,0,1:0:0:0:
64,0,69185,1,0,1:0:0:0:
192,0,69246,1,0,1:0:0:0:
64,0,69307,1,0,1:0:0:0:
448,0,69307,1,0,1:0:0:0:
320,0,69369,1,0,1:0:0:0:
192,0,69430,1,0,1:0:0:0:
64,0,69491,1,0,1:0:0:0:
320,0,69491,1,0,1:0:0:0:
448,0,69553,1,0,1:0:0:0:
64,0,69614,1,0,1:0:0:0:
192,0,69675,1,0,1:0:0:0:
320,0,69675,1,0,1:0:0:0:
448,0,69721,1,0,1:0:0:0:
64,0,69767,1,0,1:0:0:0:
448,0,69813,1,0,1:0:0:0:
320,0,69859,1,0,1:0:0:0:
192,0,69905,1,0,1:0:0:0:
64,0,69951,1,0,1:0:0:0:
320,0,69997,1,0,1:0:0:0:
192,0,70043,1,0,1:0:0:0:
448,0,70043,1,0,1:0:0:0:
64,0,70090,1,0,1:0:0:0:
320,0,70136,1,0,1:0:0:0:
448,0,70182,1,0,1:0:0:0:
64,0,70228,1,0,1:0:0:0:
192,0,70228,1,0,1:0:0:0:
320,0,70289,1,0,1:0:0:0:
192,0,70350,1,0,1:0:0:0:
64,0,70412,1,0,1:0:0:0:
448,0,70412,1,0,1:0:0:0:
320,0,70473,1,0,1:0:0:0:
192,0,70534,1,0,1:0:0:0:
64,0,70596,1,0,1:0:0:0:
320,0,70596,1,0,1:0:0:0:
448,0,70642,1,0,1:0:0:0:
192,0,70688,1,0,1:0:0:0:
64,0,70734,1,0,1:0:0:0:
320,0,70780,1,0,1:0:0:0:
192,0,70826,1,0,1:0:0:0:
448,0,70872,1,0,1:0:0:0:
64,0,70918,1,0,1:0:0:0:
192,0,70964,1,0,1:0:0:0:
320,0,70964,1,0,1:0:0:0:
448,0,71010,1,0,1:0:0:0:
64,0,71056,1,0,1:0:0:0:
320,0,71102,1,0,1:0:0:0:
192,0,71148,1,0,1:0:0:0:
448,0,71194,1,0,1:0:0:0:
320,0,71240,1,0,1:0:0:0:
192,0,71286,1,0,1:0:0:0:
64,0,71332,1,0,1:0:0:0:
448,0,71332,1,0,1:0:0:0:
192,0,71378,1,0,1:0:0:0:
320,0,71424,1,0,1:0:0:0:
448,0,71470,1,0,1:0:0:0:
64,0,71516,1,0,1:0:0:0:
192,0,71516,1,0,1:0:0:0:
320,0,71562,1,0,1:0:0:0:
448,0,71608,1,0,1:0:0:0:
192,0,71654,1,0,1:0:0:0:
64,0,71700,1,0,1:0:0:0:
320,0,71700,1,0,1:0:0:0:
448,0,71746,1,0,1:0:0:0:
320,0,71792,1,0,1:0:0:0:
192,0,71838,1,0,1:0:0:0:
64,0,71884,1,0,1:0:0:0:
320,0,71930,1,0,1:0:0:0:
192,0,71976,1,0,1:0:0:0:
448,0,72022,1,0,1:0:0:0:
64,0,72068,1,0,1:0:0:0:
320,0,72068,1,0,1:0:0:0:
192,0,72129,1,0,1:0:0:0:
320,0,72191,1,0,1:0:0:0:
64,0,72252,1,0,1:0:0:0:
448,0,72252,1,0,1:0:0:0:
192,0,72313,1,0,1:0:0:0:
320,0,72375,1,0,1:0:0:0:
192,0,72436,1,0,1:0:0:0:
448,0,72436,1,0,1:0:0:0:
64,0,72497,1,0,1:0:0:0:
320,0,72559,1,0,1:0:0:0:
64,0,72620,1,0,1:0:0:0:
192,0,72620,1,0,1:0:0:0:
448,0,72666,1,0,1:0:0:0:
320,0,72712,1,0,1:0:0:0:
192,0,72758,1,0,1:0:0:0:
64,0,72804,1,0,1:0:0:0:
448,0,72804,1,0,1:0:0:0:
320,0,72850,1,0,1:0:0:0:
448,0,72896,1,0,1:0:0:0:
64,0,72942,1,0,1:0:0:0:
192,0,72988,1,0,1:0:0:0:
320,0,73034,1,0,1:0:0:0:
448,0,73080,1,0,1:0:0:0:
192,0,73126,1,0,1:0:0:0:
64,0,73172,1,0,1:0:0:0:
320,0,73172,1,0,1:0:0:0:
448,0,73234,1,0,1:0:0:0:
64,0,73295,1,0,1:0:0:0:
192,0,73356,1,0,1:0:0:0:
320,0,73356,1,0,1:0:0:0:
448,0,73418,1,0,1:0:0:0:
320,0,73479,1,0,1:0:0:0:
64,0,73540,1,0,1:0:0:0:
192,0,73540,1,0,1:0:0:0:
448,0,73602,1,0,1:0:0:0:
320,0,73663,1,0,1:0:0:0:
64,0,73724,1,0,1:0:0:0:
448,0,73724,1,0,1:0:0:0:
192,0,73786,1,0,1:0:0:0:
320,0,73847,1,0,1:0:0:0:
64,0,73909,1,0,1:0:0:0:
192,0,73909,1,0,1:0:0:0:
320,0,73970,1,0,1:0:0:0:
448,0,74031,1,0,1:0:0:0:
192,0,74093,1,0,1:0:0:0:
320,0,74093,1,0,1:0:0:0:
64,0,74139,1,0,1:0:0:0:
448,0,74185,1,0,1:0:0:0:
320,0,74231,1,0,1:0:0:0:
64,0,74277,1,0,1:0:0:0:
192,0,74277,1,0,1:0:0:0:
448,0,74323,1,0,1:0:0:0:
320,0,74369,1,0,1:0:0:0:
64,0,74415,1,0,1:0:0:0:
192,0,74461,1,0,1:0:0:0:
320,0,74507,1,0,1:0:0:0:
192,0,74553,1,0,1:0:0:0:
448,0,74599,1,0,1:0:0:0:
64,0,74645,1,0,1:0:0:0:
320,0,74645,1,0,1:0:0:0:
192,0,74706,1,0,1:0:0:0:
320,0,74767,1,0,1:0:0:0:
64,0,74829,1,0,1:0:0:0:
448,0,74829,1,0,1:0:0:0:
192,0,74890,1,0,1:0:0:0:
320,0,74951,1,0,1:0:0:0:
64,0,75013,1,0,1:0:0:0:
192,0,75013,1,0,1:0:0:0:
320,0,75074,1,0,1:0:0:0:
448,0,75136,1,0,1:0:0:0:
64,0,75197,1,0,1:0:0:0:
192,0,75197,1,0,1:0:0:0:
320,0,75258,1,0,1:0:0:0:
192,0,75320,1,0,1:0:0:0:
64,0,75381,1,0,1:0:0:0:
448,0,75381,1,0,1:0:0:0:
320,0,75442,1,0,1:0:0:0:
192,0,75504,1,0,1:0:0:0:
320,0,75565,1,0,1:0:0:0:
448,0,75565,1,0,1:0:0:0:
64,0,75611,1,0,1:0:0:0:
192,0,75657,1,0,1:0:0:0:
320,0,75703,1,0,1:0:0:0:
64,0,75749,1,0,1:0:0:0:
448,0,75749,1,0,1:0:0:0:
192,0,75795,1,0,1:0:0:0:
320,0,75841,1,0,1:0:0:0:
192,0,75887,1,0,1:0:0:0:
448,0,75933,1,0,1:0:0:0:
64,0,75979,1,0,1:0:0:0:
320,0,76025,1,0,1:0:0:0:
192,0,76071,1,0,1:0:0:0:
64,0,76117,1,0,1:0:0:0:
448,0,76117,1,0,1:0:0:0:
320,0,76178,1,0,1:0:0:0:
192,0,76240,1,0,1:0:0:0:
320,0,76301,1,0,1:0:0:0:
448,0,76301,1,0,1:0:0:0:
64,0,76363,1,0,1:0:0:0:
192,0,76424,1,0,1:0:0:0:
64,0,76485,1,0,1:0:0:0:
448,0,76485,1,0,1:0:0:0:
320,0,76547,1,0,1:0:0:0:
192,0,76608,1,0,1:0:0:0:
64,0,76669,1,0,1:0:0:0:
320,0,76669,1,0,1:0:0:0:
448,0,76731,1,0,1:0:0:0:
192,0,76792,1,0,1:0:0:0:
320,0,76853,1,0,1:0:0:0:
448,0,76853,1,0,1:0:0:0:
64,0,76915,1,0,1:0:0:0:
192,0,76976,1,0,1:0:0:0:
64,0,77037,1,0,1:0:0:0:
448,0,77037,1,0,1:0:0:0:
320,0,77083,1,0,1:0:0:0:
192,0,77129,1,0,1:0:0:0:
64,0,77175,1,0,1:0:0:0:
320,0,77221,1,0,1:0:0:0:
448,0,77221,1,0,1:0:0:0:
64,0,77267,1,0,1:0:0:0:
192,0,77313,1,0,1:0:0:0:
448,0,77359,1,0,1:0:0:0:
320,0,77405,1,0,1:0:0:0:
64,0,77451,1,0,1:0:0:0:
192,0,77497,1,0,1:0:0:0:
320,0,77543,1,0,1:0:0:0:
64,0,77590,1,0,1:0:0:0:
448,0,77590,1,0,1:0:0:0:
192,0,77651,1,0,1:0:0:0:
320,0,77712,1,0,1:0:0:0:
192,0,77774,1,0,1:0:0:0:
448,0,77774,1,0,1:0:0:0:
64,0,77835,1,0,1:0:0:0:
320,0,77896,1,0,1:0:0:0:
64,0,77958,1,0,1:0:0:0:
192,0,77958,1,0,1:0:0:0:
448,0,78019,1,0,1:0:0:0:
320,0,78080,1,0,1:0:0:0:
192,0,78142,1,0,1:0:0:0:
448,0,78142,1,0,1:0:0:0:
64,0,78203,1,0,1:0:0:0:
320,0,78264,1,0,1:0:0:0:
64,0,78326,1,0,1:0:0:0:
192,0,78326,1,0,1:0:0:0:
448,0,78387,1,0,1:0:0:0:
320,0,78448,1,0,1:0:0:0:
64,0,78510,1,0,1:0:0:0:
448,0,78510,1,0,1:0:0:0:
192,0,78556,1,0,1:0:0:0:
320,0,78602,1,0,1:0:0:0:
448,0,78648,1,0,1:0:0:0:
64,0,78694,1,0,1:0:0:0:
192,0,78694,1,0,1:0:0:0:
320,0,78740,1,0,1:0:0:0:
64,0,78786,1,0,1:0:0:0:
192,0,78832,1,0,1:0:0:0:
320,0,78878,1,0,1:0:0:0:
448,0,78878,1,0,1:0:0:0:
64,0,78924,1,0,1:0:0:0:
192,0,78970,1,0,1:0:0:0:
320,0,79016,1,0,1:0:0:0:
64,0,79062,1,0,1:0:0:0:
448,0,79062,1,0,1:0:0:0:
192,0,79123,1,0,1:0:0:0:
320,0,79185,1,0,1:0:0:0:
192,0,79246,1,0,1:0:0:0:
448,0,79246,1,0,1:0:0:0:
64,0,79307,1,0,1:0:0:0:
448,0,79369,1,0,1:0:0:0:
192,0,79430,1,0,1:0:0:0:
320,0,79430,1,0,1:0:0:0:
64,0,79491,1,0,1:0:0:0:
192,0,79553,1,0,1:0:0:0:
320,0,79614,1,0,1:0:0:0:
448,0,79614,1,0,1:0:0:0:
64,0,79675,1,0,1:0:0:0:
192,0,79737,1,0,1:0:0:0:
64,0,79798,1,0,1:0:0:0:
448,0,79798,1,0,1:0:0:0:
320,0,79859,1,0,1:0:0:0:
192,0,79921,1,0,1:0:0:0:
320,0,79982,1,0,1:0:0:0:
448,0,79982,1,0,1:0:0:0:
64,0,80028,1,0,1:0:0:0:
192,0,80074,1,0,1:0:0:0:
320,0,80120,1,0,1:0:0:0:
64,0,80166,1,0,1:0:0:0:
448,0,80166,1,0,1:0:0:0:
320,0,80212,1,0,1:0:0:0:
192,0,80258,1,0,1:0:0:0:
448,0,80304,1,0,1:0:0:0:
64,0,80350,1,0,1:0:0:0:
320,0,80350,1,0,1:0:0:0:
192,0,80396,1,0,1:0:0:0:
448,0,80442,1,0,1:0:0:0:
64,0,80488,1,0,1:0:0:0:
192,0,80534,1,0,1:0:0:0:
320,0,80534,1,0,1:0:0:0:
448,0,80596,1,0,1:0:0:0:
320,0,80657,1,0,1:0:0:0:
64,0,80718,1,0,1:0:0:0:
192,0,80718,1,0,1:0:0:0:
448,0,80780,1,0,1:0:0:0:
64,0,80841,1,0,1:0:0:0:
192,0,80902,1,0,1:0:0:0:
320,0,80902,1,0,1:0:0:0:
448,0,80964,1,0,1:0:0:0:
320,0,81025,1,0,1:0:0:0:
64,0,81086,1,0,1:0:0:0:
192,0,81086,1,0,1:0:0:0:
448,0,81148,1,0,1:0:0:0:
320,0,81209,1,0,1:0:0:0:
64,0,81270,1,0,1:0:0:0:
448,0,81270,1,0,1:0:0:0:
192,0,81332,1,0,1:0:0:0:
320,0,81393,1,0,1:0:0:0:
192,0,81455,1,0,1:0:0:0:
448,0,81501,1,0,1:0:0:0:
320,0,81547,1,0,1:0:0:0:
64,0,81593,1,0,1:0:0:0:
192,0,81639,1,0,1:0:0:0:
448,0,81639,1,0,1:0:0:0:
320,0,81685,1,0,1:0:0:0:
64,0,81731,1,0,1:0:0:0:
320,0,81777,1,0,1:0:0:0:
192,0,81823,1,0,1:0:0:0:
448,0,81823,1,0,1:0:0:0:
64,0,81869,1,0,1:0:0:0:
320,0,81915,1,0,1:0:0:0:
192,0,81961,1,0,1:0:0:0:
64,0,82007,1,0,1:0:0:0:
448,0,82007,1,0,1:0:0:0:
320,0,82068,1,0,1:0:0:0:
192,0,82129,1,0,1:0:0:0:
64,0,82191,1,0,1:0:0:0:
448,0,82191,1,0,1:0:0:0:
192,0,82252,1,0,1:0:0:0:
320,0,82313,1,0,1:0:0:0:
64,0,82375,1,0,1:0:0:0:
448,0,82375,1,0,1:0:0:0:
192,0,82421,1,0,1:0:0:0:
320,0,82467,1,0,1:0:0:0:
448,0,82467,1,0,1:0:0:0:
64,0,82513,1,0,1:0:0:0:
192,0,82559,1,0,1:0:0:0:
320,0,82605,1,0,1:0:0:0:
64,0,82651,1,0,1:0:0:0:
448,0,82651,1,0,1:0:0:0:
320,0,82697,1,0,1:0:0:0:
192,0,82743,1,0,1:0:0:0:
64,0,82789,1,0,1:0:0:0:
320,0,82835,1,0,1:0:0:0:
448,0,82835,1,0,1:0:0:0:
192,0,82881,1,0,1:0:0:0:
64,0,82927,1,0,1:0:0:0:
448,0,82973,1,0,1:0:0:0:
192,0,83019,1,0,1:0:0:0:
320,0,83019,1,0,1:0:0:0:
64,0,83065,1,0,1:0:0:0:
320,0,83111,1,0,1:0:0:0:
448,0,83111,1,0,1:0:0:0:
192,0,83157,1,0,1:0:0:0:
64,0,83203,1,0,1:0:0:0:
320,0,83249,1,0,1:0:0:0:
192,0,83295,1,0,1:0:0:0:
448,0,83341,1,0,1:0:0:0:
64,0,83387,1,0,1:0:0:0:
320,0,83387,1,0,1:0:0:0:
192,0,83433,1,0,1:0:0:0:
320,0,83479,1,0,1:0:0:0:
448,0,83525,1,0,1:0:0:0:
64,0,83571,1,0,1:0:0:0:
192,0,83617,1,0,1:0:0:0:
320,0,83663,1,0,1:0:0:0:
448,0,83663,1,0,1:0:0:0:
64,0,83709,1,0,1:0:0:0:
192,0,83755,1,0,1:0:0:0:
320,0,83801,1,0,1:0:0:0:
64,0,83847,1,0,1:0:0:0:
192,0,83847,1,0,1:0:0:0:
448,0,83847,1,0,1:0:0:0:
320,0,83939,1,0,1:0:0:0:
192,0,84031,1,0,1:0:0:0:
64,0,84123,1,0,1:0:0:0:
448,0,84215,1,0,1:0:0:0:
320,0,84307,1,0,1:0:0:0:
192,0,84399,1,0,1:0:0:0:
448,0,84399,1,0,1:0:0:0:
64,0,84461,1,0,1:0:0:0:
320,0,84461,1,0,1:0:0:0:
192,0,84522,1,0,1:0:0:0:
448,0,84522,1,0,1:0:0:0:
64,0,84583,1,0,1:0:0:0:
320,0,84583,1,0,1:0:0:0:
192,0,84675,1,0,1:0:0:0:
64,0,84767,1,0,1:0:0:0:
448,0,84767,1,0,1:0:0:0:
320,0,84859,1,0,1:0:0:0:
192,0,84951,1,0,1:0:0:0:
448,0,84951,1,0,1:0:0:0:
64,0,85043,1,0,1:0:0:0:
192,0,85136,1,0,1:0:0:0:
320,0,85136,1,0,1:0:0:0:
448,0,85228,1,0,1:0:0:0:
64,0,85320,1,0,1:0:0:0:
320,0,85320,1,0,1:0:0:0:
192,0,85412,1,0,1:0:0:0:
64,0,85504,1,0,1:0:0:0:
192,0,85596,1,0,1:0:0:0:
320,0,85688,1,0,1:0:0:0:
448,0,85780,1,0,1:0:0:0:
64,0,85872,1,0,1:0:0:0:
192,0,85872,1,0,1:0:0:0:
448,0,85964,1,0,1:0:0:0:
192,0,86056,1,0,1:0:0:0:
320,0,86056,1,0,1:0:0:0:
64,0,86148,1,0,1:0:0:0:
448,0,86240,1,0,1:0:0:0:
320,0,86332,1,0,1:0:0:0:
192,0,86424,1,0,1:0:0:0:
320,0,86516,1,0,1:0:0:0:
64,0,86608,1,0,1:0:0:0:
448,0,86608,1,0,1:0:0:0:
192,0,86700,1,0,1:0:0:0:
320,0,86792,1,0,1:0:0:0:
448,0,86792,1,0,1:0:0:0:
64,0,86884,1,0,1:0:0:0:
192,0,86976,1,0,1:0:0:0:
320,0,87068,1,0,1:0:0:0:
64,0,87160,1,0,1:0:0:0:
192,0,87252,1,0,1:0:0:0:
64,0,87344,1,0,1:0:0:0:
320,0,87344,1,0,1:0:0:0:
192,0,87405,1,0,1:0:0:0:
448,0,87405,1,0,1:0:0:0:
64,0,87467,1,0,1:0:0:0:
320,0,87467,1,0,1:0:0:0:
192,0,87528,1,0,1:0:0:0:
448,0,87528,1,0,1:0:0:0:
320,0,87620,1,0,1:0:0:0:
64,0,87712,1,0,1:0:0:0:
448,0,87712,1,0,1:0:0:0:
192,0,87804,1,0,1:0:0:0:
64,0,87896,1,0,1:0:0:0:
320,0,87896,1,0,1:0:0:0:
448,0,87988,1,0,1:0:0:0:
192,0,88080,1,0,1:0:0:0:
320,0,88080,1,0,1:0:0:0:
64,0,88172,1,0,1:0:0:0:
192,0,88264,1,0,1:0:0:0:
448,0,88264,1,0,1:0:0:0:
320,0,88356,1,0,1:0:0:0:
448,0,88448,1,0,1:0:0:0:
320,0,88540,1,0,1:0:0:0:
192,0,88632,1,0,1:0:0:0:
64,0,88724,1,0,1:0:0:0:
320,0,88817,1,0,1:0:0:0:
192,0,88909,1,0,1:0:0:0:
320,0,89001,1,0,1:0:0:0:
192,0,89093,1,0,1:0:0:0:
64,0,89185,1,0,1:0:0:0:
448,0,89277,1,0,1:0:0:0:
320,0,89369,1,0,1:0:0:0:
192,0,89461,1,0,1:0:0:0:
64,0,89553,1,0,1:0:0:0:
448,0,89553,1,0,1:0:0:0:
192,0,89645,1,0,1:0:0:0:
64,0,89737,1,0,1:0:0:0:
320,0,89737,1,0,1:0:0:0:
448,0,89829,1,0,1:0:0:0:
192,0,89921,1,0,1:0:0:0:
320,0,90013,1,0,1:0:0:0:
64,0,90105,1,0,1:0:0:0:
192,0,90105,1,0,1:0:0:0:
448,0,90197,1,0,1:0:0:0:
192,0,90289,1,0,1:0:0:0:
320,0,90289,1,0,1:0:0:0:
64,0,90350,1,0,1:0:0:0:
448,0,90350,1,0,1:0:0:0:
192,0,90412,1,0,1:0:0:0:
320,0,90412,1,0,1:0:0:0:
64,0,90473,1,0,1:0:0:0:
448,0,90473,1,0,1:0:0:0:
192,0,90565,1,0,1:0:0:0:
64,0,90657,1,0,1:0:0:0:
320,0,90657,1,0,1:0:0:0:
448,0,90749,1,0,1:0:0:0:
64,0,90841,1,0,1:0:0:0:
192,0,90841,1,0,1:0:0:0:
448,0,90933,1,0,1:0:0:0:
192,0,91025,1,0,1:0:0:0:
320,0,91025,1,0,1:0:0:0:
64,0,91117,1,0,1:0:0:0:
320,0,91209,1,0,1:0:0:0:
448,0,91209,1,0,1:0:0:0:
64,0,91301,1,0,1:0:0:0:
192,0,91393,1,0,1:0:0:0:
320,0,91485,1,0,1:0:0:0:
64,0,91577,1,0,1:0:0:0:
448,0,91577,1,0,1:0:0:0:
192,0,91669,1,0,1:0:0:0:
320,0,91761,1,0,1:0:0:0:
448,0,91761,1,0,1:0:0:0:
64,0,91823,1,0,1:0:0:0:
192,0,91823,1,0,1:0:0:0:
320,0,91884,1,0,1:0:0:0:
448,0,91884,1,0,1:0:0:0:
64,0,91945,1,0,1:0:0:0:
192,0,91945,1,0,1:0:0:0:
320,0,92037,1,0,1:0:0:0:
448,0,92129,1,0,1:0:0:0:
320,0,92221,1,0,1:0:0:0:
64,0,92313,1,0,1:0:0:0:
448,0,92313,1,0,1:0:0:0:
192,0,92405,1,0,1:0:0:0:
64,0,92497,1,0,1:0:0:0:
320,0,92497,1,0,1:0:0:0:
192,0,92559,1,0,1:0:0:0:
448,0,92559,1,0,1:0:0:0:
64,0,92620,1,0,1:0:0:0:
320,0,92620,1,0,1:0:0:0:
192,0,92682,1,0,1:0:0:0:
448,0,92682,1,0,1:0:0:0:
320,0,92774,1,0,1:0:0:0:
64,0,92866,1,0,1:0:0:0:
448,0,92866,1,0,1:0:0:0:
192,0,92958,1,0,1:0:0:0:
64,0,93050,1,0,1:0:0:0:
320,0,93050,1,0,1:0:0:0:
192,0,93142,1,0,1:0:0:0:
320,0,93172,1,0,1:0:0:0:
64,0,93234,1,0,1:0:0:0:
448,0,93234,1,0,1:0:0:0:
192,0,93326,1,0,1:0:0:0:
320,0,93418,1,0,1:0:0:0:
448,0,93418,1,0,1:0:0:0:
64,0,93510,1,0,1:0:0:0:
192,0,93602,1,0,1:0:0:0:
448,0,93602,1,0,1:0:0:0:
320,0,93694,1,0,1:0:0:0:
64,0,93786,1,0,1:0:0:0:
192,0,93786,1,0,1:0:0:0:
320,0,93878,1,0,1:0:0:0:
64,0,93970,1,0,1:0:0:0:
448,0,93970,1,0,1:0:0:0:
192,0,94062,1,0,1:0:0:0:
320,0,94154,1,0,1:0:0:0:
448,0,94154,1,0,1:0:0:0:
320,0,94246,1,0,1:0:0:0:
448,0,94246,1,0,1:0:0:0:
320,0,94430,1,0,1:0:0:0:
448,0,94430,1,0,1:0:0:0:
320,0,94614,1,0,1:0:0:0:
448,0,94614,1,0,1:0:0:0:
64,0,94706,1,0,1:0:0:0:
192,0,94706,1,0,1:0:0:0:
192,0,94798,1,0,1:0:0:0:
320,0,94890,1,0,1:0:0:0:
320,0,94982,1,0,1:0:0:0:
192,0,95074,1,0,1:0:0:0:
192,0,95166,1,0,1:0:0:0:
320,0,95258,1,0,1:0:0:0:
448,0,95258,1,0,1:0:0:0:
320,0,95350,1,0,1:0:0:0:
64,0,95442,1,0,1:0:0:0:
192,0,95442,1,0,1:0:0:0:
192,0,95534,1,0,1:0:0:0:
64,0,95626,1,0,1:0:0:0:
320,0,95626,1,0,1:0:0:0:
448,0,95626,1,0,1:0:0:0:
192,0,95672,1,0,1:0:0:0:
320,0,95718,1,0,1:0:0:0:
448,0,95764,1,0,1:0:0:0:
192,0,95810,1,0,1:0:0:0:
320,0,95856,1,0,1:0:0:0:
64,0,95902,1,0,1:0:0:0:
448,0,95948,1,0,1:0:0:0:
192,0,95994,1,0,1:0:0:0:
320,0,95994,1,0,1:0:0:0:
64,0,96040,1,0,1:0:0:0:
448,0,96086,1,0,1:0:0:0:
192,0,96132,1,0,1:0:0:0:
320,0,96178,1,0,1:0:0:0:
64,0,96224,1,0,1:0:0:0:
320,0,96270,1,0,1:0:0:0:
192,0,96317,1,0,1:0:0:0:
64,0,96363,1,0,1:0:0:0:
448,0,96363,1,0,1:0:0:0:
320,0,96409,1,0,1:0:0:0:
192,0,96455,1,0,1:0:0:0:
448,0,96501,1,0,1:0:0:0:
320,0,96547,1,0,1:0:0:0:
64,0,96593,1,0,1:0:0:0:
192,0,96639,1,0,1:0:0:0:
448,0,96639,1,0,1:0:0:0:
320,0,96685,1,0,1:0:0:0:
64,0,96731,1,0,1:0:0:0:
192,0,96777,1,0,1:0:0:0:
448,0,96823,1,0,1:0:0:0:
320,0,96869,1,0,1:0:0:0:
64,0,96915,1,0,1:0:0:0:
192,0,96915,1,0,1:0:0:0:
320,0,96961,1,0,1:0:0:0:
448,0,97007,1,0,1:0:0:0:
192,0,97053,1,0,1:0:0:0:
64,0,97099,1,0,1:0:0:0:
320,0,97099,1,0,1:0:0:0:
448,0,97145,1,0,1:0:0:0:
192,0,97191,1,0,1:0:0:0:
320,0,97237,1,0,1:0:0:0:
64,0,97283,1,0,1:0:0:0:
448,0,97329,1,0,1:0:0:0:
320,0,97375,1,0,1:0:0:0:
192,0,97421,1,0,1:0:0:0:
64,0,97467,1,0,1:0:0:0:
448,0,97467,1,0,1:0:0:0:
320,0,97513,1,0,1:0:0:0:
192,0,97559,1,0,1:0:0:0:
448,0,97605,1,0,1:0:0:0:
64,0,97651,1,0,1:0:0:0:
192,0,97697,1,0,1:0:0:0:
320,0,97743,1,0,1:0:0:0:
448,0,97789,1,0,1:0:0:0:
192,0,97835,1,0,1:0:0:0:
320,0,97835,1,0,1:0:0:0:
64,0,97881,1,0,1:0:0:0:
448,0,97927,1,0,1:0:0:0:
320,0,97973,1,0,1:0:0:0:
192,0,98019,1,0,1:0:0:0:
64,0,98065,1,0,1:0:0:0:
320,0,98111,1,0,1:0:0:0:
448,0,98111,1,0,1:0:0:0:
192,0,98157,1,0,1:0:0:0:
64,0,98203,1,0,1:0:0:0:
448,0,98249,1,0,1:0:0:0:
320,0,98295,1,0,1:0:0:0:
192,0,98341,1,0,1:0:0:0:
64,0,98387,1,0,1:0:0:0:
448,0,98387,1,0,1:0:0:0:
320,0,98433,1,0,1:0:0:0:
448,0,98479,1,0,1:0:0:0:
192,0,98525,1,0,1:0:0:0:
64,0,98571,1,0,1:0:0:0:
320,0,98571,1,0,1:0:0:0:
448,0,98617,1,0,1:0:0:0:
192,0,98663,1,0,1:0:0:0:
320,0,98709,1,0,1:0:0:0:
64,0,98755,1,0,1:0:0:0:
448,0,98801,1,0,1:0:0:0:
192,0,98847,1,0,1:0:0:0:
64,0,98893,1,0,1:0:0:0:
320,0,98939,1,0,1:0:0:0:
448,0,98939,1,0,1:0:0:0:
192,0,98985,1,0,1:0:0:0:
64,0,99031,1,0,1:0:0:0:
320,0,99077,1,0,1:0:0:0:
448,0,99123,1,0,1:0:0:0:
64,0,99169,1,0,1:0:0:0:
192,0,99215,1,0,1:0:0:0:
320,0,99261,1,0,1:0:0:0:
64,0,99307,1,0,1:0:0:0:
448,0,99307,1,0,1:0:0:0:
320,0,99353,1,0,1:0:0:0:
192,0,99399,1,0,1:0:0:0:
64,0,99445,1,0,1:0:0:0:
448,0,99491,1,0,1:0:0:0:
320,0,99537,1,0,1:0:0:0:
64,0,99583,1,0,1:0:0:0:
192,0,99583,1,0,1:0:0:0:
448,0,99629,1,0,1:0:0:0:
320,0,99675,1,0,1:0:0:0:
64,0,99721,1,0,1:0:0:0:
192,0,99767,1,0,1:0:0:0:
320,0,99813,1,0,1:0:0:0:
64,0,99859,1,0,1:0:0:0:
448,0,99859,1,0,1:0:0:0:
192,0,99905,1,0,1:0:0:0:
320,0,99951,1,0,1:0:0:0:
448,0,99997,1,0,1:0:0:0:
64,0,100043,1,0,1:0:0:0:
192,0,100043,1,0,1:0:0:0:
448,0,100090,1,0,1:0:0:0:
320,0,100136,1,0,1:0:0:0:
192,0,100182,1,0,1:0:0:0:
64,0,100228,1,0,1:0:0:0:
320,0,100274,1,0,1:0:0:0:
448,0,100320,1,0,1:0:0:0:
192,0,100366,1,0,1:0:0:0:
64,0,100412,1,0,1:0:0:0:
320,0,100412,1,0,1:0:0:0:
448,0,100458,1,0,1:0:0:0:
192,0,100504,1,0,1:0:0:0:
64,0,100550,1,0,1:0:0:0:
320,0,100596,1,0,1:0:0:0:
448,0,100642,1,0,1:0:0:0:
192,0,100688,1,0,1:0:0:0:
320,0,100734,1,0,1:0:0:0:
64,0,100780,1,0,1:0:0:0:
448,0,100780,1,0,1:0:0:0:
320,0,100826,1,0,1:0:0:0:
192,0,100872,1,0,1:0:0:0:
64,0,100918,1,0,1:0:0:0:
448,0,100964,1,0,1:0:0:0:
320,0,101010,1,0,1:0:0:0:
192,0,101056,1,0,1:0:0:0:
64,0,101102,1,0,1:0:0:0:
320,0,101148,1,0,1:0:0:0:
448,0,101148,1,0,1:0:0:0:
192,0,101194,1,0,1:0:0:0:
64,0,101240,1,0,1:0:0:0:
192,0,101286,1,0,1:0:0:0:
320,0,101332,1,0,1:0:0:0:
448,0,101332,1,0,1:0:0:0:
64,0,101378,1,0,1:0:0:0:
192,0,101424,1,0,1:0:0:0:
320,0,101470,1,0,1:0:0:0:
64,0,101516,1,0,1:0:0:0:
448,0,101516,1,0,1:0:0:0:
192,0,101562,1,0,1:0:0:0:
320,0,101608,1,0,1:0:0:0:
192,0,101654,1,0,1:0:0:0:
448,0,101700,1,0,1:0:0:0:
320,0,101746,1,0,1:0:0:0:
64,0,101792,1,0,1:0:0:0:
192,0,101838,1,0,1:0:0:0:
320,0,101884,1,0,1:0:0:0:
448,0,101884,1,0,1:0:0:0:
64,0,101930,1,0,1:0:0:0:
192,0,101976,1,0,1:0:0:0:
448,0,102022,1,0,1:0:0:0:
320,0,102068,1,0,1:0:0:0:
192,0,102114,1,0,1:0:0:0:
64,0,102160,1,0,1:0:0:0:
320,0,102206,1,0,1:0:0:0:
64,0,102252,1,0,1:0:0:0:
448,0,102252,1,0,1:0:0:0:
192,0,102298,1,0,1:0:0:0:
320,0,102344,1,0,1:0:0:0:
448,0,102390,1,0,1:0:0:0:
64,0,102436,1,0,1:0:0:0:
192,0,102482,1,0,1:0:0:0:
320,0,102528,1,0,1:0:0:0:
448,0,102528,1,0,1:0:0:0:
64,0,102574,1,0,1:0:0:0:
192,0,102620,1,0,1:0:0:0:
448,0,102666,1,0,1:0:0:0:
320,0,102712,1,0,1:0:0:0:
192,0,102758,1,0,1:0:0:0:
64,0,102804,1,0,1:0:0:0:
448,0,102804,1,0,1:0:0:0:
320,0,102850,1,0,1:0:0:0:
192,0,102896,1,0,1:0:0:0:
64,0,102942,1,0,1:0:0:0:
320,0,102988,1,0,1:0:0:0:
448,0,102988,1,0,1:0:0:0:
64,0,103034,1,0,1:0:0:0:
192,0,103080,1,0,1:0:0:0:
320,0,103126,1,0,1:0:0:0:
448,0,103172,1,0,1:0:0:0:
192,0,103218,1,0,1:0:0:0:
320,0,103264,1,0,1:0:0:0:
64,0,103310,1,0,1:0:0:0:
192,0,103356,1,0,1:0:0:0:
448,0,103356,1,0,1:0:0:0:
320,0,103402,1,0,1:0:0:0:
64,0,103448,1,0,1:0:0:0:
448,0,103494,1,0,1:0:0:0:
192,0,103540,1,0,1:0:0:0:
320,0,103586,1,0,1:0:0:0:
192,0,103632,1,0,1:0:0:0:
448,0,103678,1,0,1:0:0:0:
64,0,103724,1,0,1:0:0:0:
320,0,103724,1,0,1:0:0:0:
192,0,103770,1,0,1:0:0:0:
448,0,103817,1,0,1:0:0:0:
320,0,103863,1,0,1:0:0:0:
192,0,103909,1,0,1:0:0:0:
64,0,103955,1,0,1:0:0:0:
320,0,104001,1,0,1:0:0:0:
448,0,104001,1,0,1:0:0:0:
192,0,104047,1,0,1:0:0:0:
64,0,104093,1,0,1:0:0:0:
320,0,104139,1,0,1:0:0:0:
448,0,104185,1,0,1:0:0:0:
192,0,104231,1,0,1:0:0:0:
64,0,104277,1,0,1:0:0:0:
320,0,104277,1,0,1:0:0:0:
192,0,104323,1,0,1:0:0:0:
448,0,104369,1,0,1:0:0:0:
320,0,104415,1,0,1:0:0:0:
64,0,104461,1,0,1:0:0:0:
192,0,104461,1,0,1:0:0:0:
448,0,104507,1,0,1:0:0:0:
320,0,104553,1,0,1:0:0:0:
192,0,104599,1,0,1:0:0:0:
320,0,104645,1,0,1:0:0:0:
64,0,104691,1,0,1:0:0:0:
192,0,104737,1,0,1:0:0:0:
320,0,104783,1,0,1:0:0:0:
64,0,104829,1,0,1:0:0:0:
448,0,104829,1,0,1:0:0:0:
192,0,104875,1,0,1:0:0:0:
64,0,104921,1,0,1:0:0:0:
448,0,104967,1,0,1:0:0:0:
320,0,105013,1,0,1:0:0:0:
192,0,105059,1,0,1:0:0:0:
64,0,105105,1,0,1:0:0:0:
320,0,105151,1,0,1:0:0:0:
192,0,105197,1,0,1:0:0:0:
448,0,105197,1,0,1:0:0:0:
320,0,105243,1,0,1:0:0:0:
64,0,105289,1,0,1:0:0:0:
192,0,105335,1,0,1:0:0:0:
448,0,105381,1,0,1:0:0:0:
320,0,105427,1,0,1:0:0:0:
64,0,105473,1,0,1:0:0:0:
192,0,105473,1,0,1:0:0:0:
448,0,105519,1,0,1:0:0:0:
320,0,105565,1,0,1:0:0:0:
192,0,105611,1,0,1:0:0:0:
64,0,105657,1,0,1:0:0:0:
448,0,105703,1,0,1:0:0:0:
64,0,105749,1,0,1:0:0:0:
320,0,105749,1,0,1:0:0:0:
192,0,105795,1,0,1:0:0:0:
448,0,105841,1,0,1:0:0:0:
320,0,105887,1,0,1:0:0:0:
64,0,105933,1,0,1:0:0:0:
192,0,105933,1,0,1:0:0:0:
448,0,105994,1,0,1:0:0:0:
320,0,106056,1,0,1:0:0:0:
192,0,106117,1,0,1:0:0:0:
64,0,106178,1,0,1:0:0:0:
320,0,106240,1,0,1:0:0:0:
64,0,106301,1,0,1:0:0:0:
192,0,106301,1,0,1:0:0:0:
448,0,106363,1,0,1:0:0:0:
320,0,106424,1,0,1:0:0:0:
192,0,106485,1,0,1:0:0:0:
64,0,106547,1,0,1:0:0:0:
320,0,106608,1,0,1:0:0:0:
64,0,106669,1,0,1:0:0:0:
192,0,106669,1,0,1:0:0:0:
448,0,106715,1,0,1:0:0:0:
320,0,106761,1,0,1:0:0:0:
192,0,106807,1,0,1:0:0:0:
64,0,106853,1,0,1:0:0:0:
448,0,106853,1,0,1:0:0:0:
320,0,106899,1,0,1:0:0:0:
192,0,106945,1,0,1:0:0:0:
320,0,106991,1,0,1:0:0:0:
64,0,107037,1,0,1:0:0:0:
448,0,107037,1,0,1:0:0:0:
192,0,107083,1,0,1:0:0:0:
320,0,107129,1,0,1:0:0:0:
448,0,107175,1,0,1:0:0:0:
64,0,107221,1,0,1:0:0:0:
192,0,107221,1,0,1:0:0:0:
320,0,107313,1,0,1:0:0:0:
64,0,107405,1,0,1:0:0:0:
192,0,107405,1,0,1:0:0:0:
448,0,107405,1,0,1:0:0:0:
320,0,107451,1,0,1:0:0:0:
64,0,107497,1,0,1:0:0:0:
192,0,107543,1,0,1:0:0:0:
320,0,107590,1,0,1:0:0:0:
448,0,107590,1,0,1:0:0:0:
64,0,107636,1,0,1:0:0:0:
192,0,107682,1,0,1:0:0:0:
320,0,107728,1,0,1:0:0:0:
64,0,107774,1,0,1:0:0:0:
448,0,107774,1,0,1:0:0:0:
320,0,107820,1,0,1:0:0:0:
192,0,107866,1,0,1:0:0:0:
448,0,107912,1,0,1:0:0:0:
64,0,107958,1,0,1:0:0:0:
320,0,107958,1,0,1:0:0:0:
192,0,108004,1,0,1:0:0:0:
448,0,108050,1,0,1:0:0:0:
64,0,108096,1,0,1:0:0:0:
192,0,108142,1,0,1:0:0:0:
320,0,108142,1,0,1:0:0:0:
448,0,108188,1,0,1:0:0:0:
320,0,108234,1,0,1:0:0:0:
192,0,108280,1,0,1:0:0:0:
64,0,108326,1,0,1:0:0:0:
320,0,108372,1,0,1:0:0:0:
192,0,108418,1,0,1:0:0:0:
448,0,108418,1,0,1:0:0:0:
64,0,108464,1,0,1:0:0:0:
320,0,108510,1,0,1:0:0:0:
192,0,108556,1,0,1:0:0:0:
448,0,108602,1,0,1:0:0:0:
320,0,108648,1,0,1:0:0:0:
64,0,108694,1,0,1:0:0:0:
448,0,108694,1,0,1:0:0:0:
192,0,108740,1,0,1:0:0:0:
320,0,108786,1,0,1:0:0:0:
448,0,108832,1,0,1:0:0:0:
64,0,108878,1,0,1:0:0:0:
192,0,108878,1,0,1:0:0:0:
448,0,108924,1,0,1:0:0:0:
320,0,108970,1,0,1:0:0:0:
192,0,109016,1,0,1:0:0:0:
64,0,109062,1,0,1:0:0:0:
448,0,109062,1,0,1:0:0:0:
320,0,109108,1,0,1:0:0:0:
192,0,109154,1,0,1:0:0:0:
64,0,109200,1,0,1:0:0:0:
320,0,109246,1,0,1:0:0:0:
448,0,109246,1,0,1:0:0:0:
192,0,109292,1,0,1:0:0:0:
448,0,109338,1,0,1:0:0:0:
320,0,109384,1,0,1:0:0:0:
64,0,109430,1,0,1:0:0:0:
192,0,109430,1,0,1:0:0:0:
448,0,109476,1,0,1:0:0:0:
320,0,109522,1,0,1:0:0:0:
64,0,109568,1,0,1:0:0:0:
192,0,109614,1,0,1:0:0:0:
448,0,109614,1,0,1:0:0:0:
320,0,109660,1,0,1:0:0:0:
64,0,109706,1,0,1:0:0:0:
320,0,109752,1,0,1:0:0:0:
192,0,109798,1,0,1:0:0:0:
448,0,109844,1,0,1:0:0:0:
64,0,109890,1,0,1:0:0:0:
320,0,109890,1,0,1:0:0:0:
192,0,109936,1,0,1:0:0:0:
448,0,109982,1,0,1:0:0:0:
64,0,110028,1,0,1:0:0:0:
192,0,110074,1,0,1:0:0:0:
320,0,110120,1,0,1:0:0:0:
64,0,110166,1,0,1:0:0:0:
448,0,110166,1,0,1:0:0:0:
192,0,110212,1,0,1:0:0:0:
320,0,110258,1,0,1:0:0:0:
192,0,110304,1,0,1:0:0:0:
64,0,110350,1,0,1:0:0:0:
448,0,110350,1,0,1:0:0:0:
320,0,110396,1,0,1:0:0:0:
192,0,110442,1,0,1:0:0:0:
64,0,110488,1,0,1:0:0:0:
320,0,110534,1,0,1:0:0:0:
448,0,110534,1,0,1:0:0:0:
192,0,110580,1,0,1:0:0:0:
64,0,110626,1,0,1:0:0:0:
320,0,110672,1,0,1:0:0:0:
192,0,110718,1,0,1:0:0:0:
448,0,110718,1,0,1:0:0:0:
320,0,110764,1,0,1:0:0:0:
64,0,110810,1,0,1:0:0:0:
192,0,110856,1,0,1:0:0:0:
320,0,110902,1,0,1:0:0:0:
448,0,110902,1,0,1:0:0:0:
64,0,110948,1,0,1:0:0:0:
192,0,110994,1,0,1:0:0:0:
320,0,111040,1,0,1:0:0:0:
64,0,111086,1,0,1:0:0:0:
192,0,111086,1,0,1:0:0:0:
448,0,111132,1,0,1:0:0:0:
320,0,111178,1,0,1:0:0:0:
64,0,111224,1,0,1:0:0:0:
192,0,111270,1,0,1:0:0:0:
448,0,111317,1,0,1:0:0:0:
64,0,111363,1,0,1:0:0:0:
320,0,111363,1,0,1:0:0:0:
192,0,111409,1,0,1:0:0:0:
448,0,111455,1,0,1:0:0:0:
64,0,111501,1,0,1:0:0:0:
320,0,111547,1,0,1:0:0:0:
192,0,111593,1,0,1:0:0:0:
64,0,111639,1,0,1:0:0:0:
448,0,111639,1,0,1:0:0:0:
192,0,111685,1,0,1:0:0:0:
320,0,111731,1,0,1:0:0:0:
448,0,111777,1,0,1:0:0:0:
64,0,111823,1,0,1:0:0:0:
192,0,111823,1,0,1:0:0:0:
320,0,111869,1,0,1:0:0:0:
448,0,111915,1,0,1:0:0:0:
64,0,111961,1,0,1:0:0:0:
192,0,112007,1,0,1:0:0:0:
320,0,112007,1,0,1:0:0:0:
448,0,112053,1,0,1:0:0:0:
320,0,112099,1,0,1:0:0:0:
192,0,112145,1,0,1:0:0:0:
64,0,112191,1,0,1:0:0:0:
448,0,112191,1,0,1:0:0:0:
320,0,112237,1,0,1:0:0:0:
192,0,112283,1,0,1:0:0:0:
320,0,112329,1,0,1:0:0:0:
64,0,112375,1,0,1:0:0:0:
448,0,112375,1,0,1:0:0:0:
192,0,112421,1,0,1:0:0:0:
320,0,112467,1,0,1:0:0:0:
448,0,112513,1,0,1:0:0:0:
64,0,112559,1,0,1:0:0:0:
192,0,112559,1,0,1:0:0:0:
448,0,112605,1,0,1:0:0:0:
320,0,112651,1,0,1:0:0:0:
192,0,112697,1,0,1:0:0:0:
64,0,112743,1,0,1:0:0:0:
448,0,112789,1,0,1:0:0:0:
320,0,112835,1,0,1:0:0:0:
192,0,112881,1,0,1:0:0:0:
64,0,112927,1,0,1:0:0:0:
448,0,112927,1,0,1:0:0:0:
192,0,112973,1,0,1:0:0:0:
320,0,113019,1,0,1:0:0:0:
448,0,113065,1,0,1:0:0:0:
64,0,113111,1,0,1:0:0:0:
192,0,113111,1,0,1:0:0:0:
320,0,113157,1,0,1:0:0:0:
448,0,113203,1,0,1:0:0:0:
64,0,113249,1,0,1:0:0:0:
192,0,113295,1,0,1:0:0:0:
320,0,113295,1,0,1:0:0:0:
448,0,113341,1,0,1:0:0:0:
64,0,113387,1,0,1:0:0:0:
192,0,113433,1,0,1:0:0:0:
320,0,113479,1,0,1:0:0:0:
448,0,113479,1,0,1:0:0:0:
192,0,113525,1,0,1:0:0:0:
64,0,113571,1,0,1:0:0:0:
320,0,113617,1,0,1:0:0:0:
192,0,113663,1,0,1:0:0:0:
448,0,113663,1,0,1:0:0:0:
64,0,113709,1,0,1:0:0:0:
320,0,113755,1,0,1:0:0:0:
448,0,113801,1,0,1:0:0:0:
64,0,113847,1,0,1:0:0:0:
192,0,113847,1,0,1:0:0:0:
320,0,113893,1,0,1:0:0:0:
64,0,113939,1,0,1:0:0:0:
192,0,113985,1,0,1:0:0:0:
320,0,114031,1,0,1:0:0:0:
448,0,114031,1,0,1:0:0:0:
64,0,114077,1,0,1:0:0:0:
192,0,114123,1,0,1:0:0:0:
320,0,114169,1,0,1:0:0:0:
64,0,114215,1,0,1:0:0:0:
448,0,114215,1,0,1:0:0:0:
320,0,114261,1,0,1:0:0:0:
192,0,114307,1,0,1:0:0:0:
64,0,114353,1,0,1:0:0:0:
320,0,114399,1,0,1:0:0:0:
448,0,114399,1,0,1:0:0:0:
192,0,114445,1,0,1:0:0:0:
64,0,114491,1,0,1:0:0:0:
448,0,114537,1,0,1:0:0:0:
192,0,114583,1,0,1:0:0:0:
320,0,114583,1,0,1:0:0:0:
64,0,114629,1,0,1:0:0:0:
448,0,114675,1,0,1:0:0:0:
320,0,114721,1,0,1:0:0:0:
64,0,114767,1,0,1:0:0:0:
192,0,114767,1,0,1:0:0:0:
448,0,114813,1,0,1:0:0:0:
320,0,114859,1,0,1:0:0:0:
192,0,114905,1,0,1:0:0:0:
64,0,114951,1,0,1:0:0:0:
448,0,114951,1,0,1:0:0:0:
192,0,114997,1,0,1:0:0:0:
320,0,115043,1,0,1:0:0:0:
448,0,115090,1,0,1:0:0:0:
64,0,115136,1,0,1:0:0:0:
192,0,115136,1,0,1:0:0:0:
320,0,115182,1,0,1:0:0:0:
448,0,115228,1,0,1:0:0:0:
64,0,115274,1,0,1:0:0:0:
192,0,115320,1,0,1:0:0:0:
320,0,115320,1,0,1:0:0:0:
64,0,115366,1,0,1:0:0:0:
448,0,115412,1,0,1:0:0:0:
320,0,115458,1,0,1:0:0:0:
64,0,115504,1,0,1:0:0:0:
192,0,115504,1,0,1:0:0:0:
448,0,115550,1,0,1:0:0:0:
320,0,115596,1,0,1:0:0:0:
192,0,115642,1,0,1:0:0:0:
64,0,115688,1,0,1:0:0:0:
448,0,115688,1,0,1:0:0:0:
320,0,115734,1,0,1:0:0:0:
192,0,115780,1,0,1:0:0:0:
320,0,115826,1,0,1:0:0:0:
64,0,115872,1,0,1:0:0:0:
448,0,115872,1,0,1:0:0:0:
192,0,115918,1,0,1:0:0:0:
320,0,115964,1,0,1:0:0:0:
448,0,116010,1,0,1:0:0:0:
64,0,116056,1,0,1:0:0:0:
192,0,116056,1,0,1:0:0:0:
320,0,116102,1,0,1:0:0:0:
192,0,116148,1,0,1:0:0:0:
448,0,116194,1,0,1:0:0:0:
64,0,116240,1,0,1:0:0:0:
320,0,116240,1,0,1:0:0:0:
192,0,116286,1,0,1:0:0:0:
448,0,116332,1,0,1:0:0:0:
64,0,116378,1,0,1:0:0:0:
192,0,116424,1,0,1:0:0:0:
320,0,116424,1,0,1:0:0:0:
448,0,116470,1,0,1:0:0:0:
64,0,116516,1,0,1:0:0:0:
320,0,116562,1,0,1:0:0:0:
192,0,116608,1,0,1:0:0:0:
448,0,116608,1,0,1:0:0:0:
64,0,116654,1,0,1:0:0:0:
320,0,116700,1,0,1:0:0:0:
192,0,116746,1,0,1:0:0:0:
320,0,116792,1,0,1:0:0:0:
448,0,116792,1,0,1:0:0:0:
64,0,116838,1,0,1:0:0:0:
192,0,116884,1,0,1:0:0:0:
320,0,116930,1,0,1:0:0:0:
64,0,116976,1,0,1:0:0:0:
448,0,116976,1,0,1:0:0:0:
192,0,117022,1,0,1:0:0:0:
64,0,117068,1,0,1:0:0:0:
320,0,117114,1,0,1:0:0:0:
192,0,117160,1,0,1:0:0:0:
448,0,117160,1,0,1:0:0:0:
64,0,117206,1,0,1:0:0:0:
320,0,117252,1,0,1:0:0:0:
192,0,117298,1,0,1:0:0:0:
64,0,117344,1,0,1:0:0:0:
448,0,117344,1,0,1:0:0:0:
320,0,117390,1,0,1:0:0:0:
192,0,117436,1,0,1:0:0:0:
320,0,117482,1,0,1:0:0:0:
64,0,117528,1,0,1:0:0:0:
448,0,117528,1,0,1:0:0:0:
192,0,117574,1,0,1:0:0:0:
320,0,117620,1,0,1:0:0:0:
448,0,117666,1,0,1:0:0:0:
64,0,117712,1,0,1:0:0:0:
192,0,117712,1,0,1:0:0:0:
320,0,117758,1,0,1:0:0:0:
64,0,117804,1,0,1:0:0:0:
448,0,117804,1,0,1:0:0:0:
192,0,117850,1,0,1:0:0:0:
320,0,117896,1,0,1:0:0:0:
448,0,117896,1,0,1:0:0:0:
64,0,117942,1,0,1:0:0:0:
192,0,117988,1,0,1:0:0:0:
320,0,118034,1,0,1:0:0:0:
64,0,118080,1,0,1:0:0:0:
448,0,118080,1,0,1:0:0:0:
192,0,118126,1,0,1:0:0:0:
448,0,118172,1,0,1:0:0:0:
320,0,118218,1,0,1:0:0:0:
64,0,118264,1,0,1:0:0:0:
192,0,118264,1,0,1:0:0:0:
448,0,118310,1,0,1:0:0:0:
64,0,118356,1,0,1:0:0:0:
320,0,118356,1,0,1:0:0:0:
192,0,118402,1,0,1:0:0:0:
320,0,118448,1,0,1:0:0:0:
448,0,118448,1,0,1:0:0:0:
64,0,118510,1,0,1:0:0:0:
192,0,118571,1,0,1:0:0:0:
320,0,118632,1,0,1:0:0:0:
448,0,118694,1,0,1:0:0:0:
64,0,118755,1,0,1:0:0:0:
448,0,118817,1,0,1:0:0:0:
320,0,118878,1,0,1:0:0:0:
192,0,118939,1,0,1:0:0:0:
64,0,119001,1,0,1:0:0:0:
192,0,119047,1,0,1:0:0:0:
320,0,119093,1,0,1:0:0:0:
448,0,119139,1,0,1:0:0:0:
64,0,119185,1,0,1:0:0:0:
192,0,119185,1,0,1:0:0:0:
320,0,119185,1,0,1:0:0:0:
