osu file format v12

[General]
AudioFilename: BGM NX.MP3
AudioLeadIn: 0
PreviewTime: 16000
Countdown: 0
SampleSet: Soft
StackLeniency: 0.7
Mode: 3
LetterboxInBreaks: 0

[Editor]
DistanceSpacing: 1.3
BeatDivisor: 4
GridSize: 8

[Metadata]
Title:Natalie
TitleUnicode:Natalie
Artist:Shiraishi
ArtistUnicode:Shiraishi
Creator:ishimaru94
Version:HD
Source:BMS Re:
Tags:o2jam piano classical trance
BeatmapID:251884
BeatmapSetID:93342

[Difficulty]
HPDrainRate:7
CircleSize:7
OverallDifficulty:7
ApproachRate:5
SliderMultiplier:1.4
SliderTickRate:1

[Events]
//Background and Video events
0,0,"Image.jpg",0,0
//Break Periods
//Storyboard Layer 0 (Background)
//Storyboard Layer 1 (Fail)
//Storyboard Layer 2 (Pass)
//Storyboard Layer 3 (Foreground)
//Storyboard Sound Samples
//Background Colour Transformations
3,100,163,162,255

[TimingPoints]
0,400,4,2,0,70,1,0
16000,-100,4,2,0,70,0,1
28800,-100,4,2,0,70,0,0
40700,-66.6666666666667,4,2,0,70,0,0
40733,-133.333333333333,4,2,0,70,0,0
40800,-66.6666666666667,4,2,0,70,0,0
40833,-133.333333333333,4,2,0,70,0,0
40900,-66.6666666666667,4,2,0,70,0,0
40933,-133.333333333333,4,2,0,70,0,0
41000,-66.6666666666667,4,2,0,70,0,0
41033,-133.333333333333,4,2,0,70,0,0
41100,-66.6666666666667,4,2,0,70,0,0
41133,-133.333333333333,4,2,0,70,0,0
41200,-66.6666666666667,4,2,0,70,0,0
41233,-133.333333333333,4,2,0,70,0,0
41300,-66.6666666666667,4,2,0,70,0,0
41333,-133.333333333333,4,2,0,70,0,0
41400,-66.6666666666667,4,2,0,70,0,0
41433,-133.333333333333,4,2,0,70,0,0
41500,-66.6666666666667,4,2,0,70,0,0
41533,-133.333333333333,4,2,0,70,0,0
41600,-100,4,2,0,70,0,0
80000,-100,4,2,0,70,0,1
91900,-66.6666666666667,4,2,0,70,0,1
91933,-133.333333333333,4,2,0,70,0,1
92000,-66.6666666666667,4,2,0,70,0,1
92033,-133.333333333333,4,2,0,70,0,1
92100,-66.6666666666667,4,2,0,70,0,1
92133,-133.333333333333,4,2,0,70,0,1
92200,-66.6666666666667,4,2,0,70,0,1
92233,-133.333333333333,4,2,0,70,0,1
92300,-66.6666666666667,4,2,0,70,0,1
92333,-133.333333333333,4,2,0,70,0,1
92400,-66.6666666666667,4,2,0,70,0,1
92433,-133.333333333333,4,2,0,70,0,1
92500,-66.6666666666667,4,2,0,70,0,1
92533,-133.333333333333,4,2,0,70,0,1
92600,-66.6666666666667,4,2,0,70,0,1
92633,-133.333333333333,4,2,0,70,0,1
92700,-66.6666666666667,4,2,0,70,0,1
92733,-133.333333333333,4,2,0,70,0,1
92800,-100,4,2,0,70,0,0
104000,-74.0740740740741,4,2,0,70,0,0
104222,-178.571428571429,4,2,0,70,0,0
104400,-74.0740740740741,4,2,0,70,0,0
104622,-178.571428571429,4,2,0,70,0,0
104800,-74.0740740740741,4,2,0,70,0,0
105022,-178.571428571429,4,2,0,70,0,0
105200,-74.0740740740741,4,2,0,70,0,0
105422,-178.571428571429,4,2,0,70,0,0
105600,-100,4,2,0,70,0,1
118400,-100,4,2,0,70,0,0
118800,-50,4,2,0,70,0,0
118833,-200,4,2,0,70,0,0
118900,-50,4,2,0,70,0,0
118933,-200,4,2,0,70,0,0
119000,-100,4,2,0,70,0,0
120400,-50,4,2,0,70,0,0
120433,-200,4,2,0,70,0,0
120500,-50,4,2,0,70,0,0
120533,-200,4,2,0,70,0,0
120600,-100,4,2,0,70,0,0
122000,-50,4,2,0,70,0,0
122033,-200,4,2,0,70,0,0
122100,-50,4,2,0,70,0,0
122133,-200,4,2,0,70,0,0
122200,-100,4,2,0,70,0,0
123600,-50,4,2,0,70,0,0
123633,-200,4,2,0,70,0,0
123700,-50,4,2,0,70,0,0
123733,-200,4,2,0,70,0,0
123800,-100,4,2,0,70,0,0
132800,-66.6666666666667,4,2,0,70,0,0
133050,-588.235294117647,4,2,0,70,0,0
133800,-66.6666666666667,4,2,0,70,0,0
134000,-333.333333333333,4,2,0,70,0,0
135000,-200,4,2,0,70,0,0

[HitObjects]
475,192,2400,128,0,3200:0:0:0:0:EffectsKEYS_01.ogg
109,192,3200,1,0,0:0:0:0:PianoKEYS_18.ogg
36,192,3200,1,0,0:0:0:0:BeatKEYS_01.ogg
182,192,3300,1,0,0:0:0:0:PianoKEYS_20.ogg
256,192,3400,1,0,0:0:0:0:PianoKEYS_24.ogg
329,192,3500,1,0,0:0:0:0:PianoKEYS_28.ogg
402,192,3600,1,0,0:0:0:0:PianoKEYS_29.ogg
475,192,3700,1,0,0:0:0:0:PianoKEYS_30.ogg
402,192,3800,1,0,0:0:0:0:PianoKEYS_29.ogg
329,192,3900,1,0,0:0:0:0:PianoKEYS_28.ogg
256,192,4000,1,0,0:0:0:0:PianoKEYS_26.ogg
329,192,4100,1,0,0:0:0:0:PianoKEYS_28.ogg
256,192,4200,1,0,0:0:0:0:PianoKEYS_26.ogg
182,192,4300,1,0,0:0:0:0:PianoKEYS_25.ogg
109,192,4400,1,0,0:0:0:0:PianoKEYS_24.ogg
182,192,4500,1,0,0:0:0:0:PianoKEYS_25.ogg
256,192,4600,1,0,0:0:0:0:PianoKEYS_26.ogg
109,192,4700,1,0,0:0:0:0:PianoKEYS_24.ogg
329,192,4800,1,0,0:0:0:0:PianoKEYS_25.ogg
402,192,4900,1,0,0:0:0:0:PianoKEYS_20.ogg
329,192,5000,1,0,0:0:0:0:PianoKEYS_25.ogg
256,192,5100,1,0,0:0:0:0:PianoKEYS_28.ogg
182,192,5200,1,0,0:0:0:0:PianoKEYS_30.ogg
109,192,5300,1,0,0:0:0:0:PianoKEYS_32.ogg
182,192,5400,1,0,0:0:0:0:PianoKEYS_30.ogg
256,192,5500,1,0,0:0:0:0:PianoKEYS_29.ogg
329,192,5600,1,0,0:0:0:0:PianoKEYS_28.ogg
256,192,5700,1,0,0:0:0:0:PianoKEYS_29.ogg
329,192,5800,1,0,0:0:0:0:PianoKEYS_28.ogg
402,192,5900,1,0,0:0:0:0:PianoKEYS_26.ogg
475,192,6000,1,0,0:0:0:0:PianoKEYS_25.ogg
402,192,6100,1,0,0:0:0:0:PianoKEYS_26.ogg
329,192,6200,1,0,0:0:0:0:PianoKEYS_28.ogg
475,192,6300,1,0,0:0:0:0:PianoKEYS_25.ogg
182,192,6400,1,0,0:0:0:0:PianoKEYS_27.ogg
109,192,6500,1,0,0:0:0:0:PianoKEYS_24.ogg
182,192,6600,1,0,0:0:0:0:PianoKEYS_27.ogg
256,192,6700,1,0,0:0:0:0:PianoKEYS_29.ogg
329,192,6800,1,0,0:0:0:0:PianoKEYS_32.ogg
402,192,6900,1,0,0:0:0:0:PianoKEYS_33.ogg
329,192,7000,1,0,0:0:0:0:PianoKEYS_32.ogg
256,192,7100,1,0,0:0:0:0:PianoKEYS_30.ogg
182,192,7200,1,0,0:0:0:0:PianoKEYS_29.ogg
256,192,7300,1,0,0:0:0:0:PianoKEYS_30.ogg
182,192,7400,1,0,0:0:0:0:PianoKEYS_29.ogg
109,192,7500,1,0,0:0:0:0:PianoKEYS_28.ogg
36,192,7600,1,0,0:0:0:0:PianoKEYS_27.ogg
109,192,7700,1,0,0:0:0:0:PianoKEYS_28.ogg
182,192,7800,1,0,0:0:0:0:PianoKEYS_29.ogg
36,192,7900,1,0,0:0:0:0:PianoKEYS_27.ogg
256,192,8000,1,0,0:0:0:0:PianoKEYS_28.ogg
329,192,8100,1,0,0:0:0:0:PianoKEYS_25.ogg
256,192,8200,1,0,0:0:0:0:PianoKEYS_28.ogg
182,192,8300,1,0,0:0:0:0:PianoKEYS_30.ogg
109,192,8400,1,0,0:0:0:0:PianoKEYS_33.ogg
36,192,8500,1,0,0:0:0:0:PianoKEYS_34.ogg
402,192,8600,1,0,0:0:0:0:PianoKEYS_33.ogg
329,192,8700,1,0,0:0:0:0:PianoKEYS_32.ogg
256,192,8800,1,0,0:0:0:0:PianoKEYS_30.ogg
182,192,8900,1,0,0:0:0:0:PianoKEYS_29.ogg
475,192,9000,1,0,0:0:0:0:PianoKEYS_28.ogg
402,192,9100,1,0,0:0:0:0:PianoKEYS_26.ogg
329,192,9200,1,0,0:0:0:0:PianoKEYS_25.ogg
256,192,9300,1,0,0:0:0:0:PianoKEYS_24.ogg
182,192,9400,1,0,0:0:0:0:PianoKEYS_22.ogg
109,192,9500,1,0,0:0:0:0:PianoKEYS_20.ogg
36,192,9600,1,0,0:0:0:0:BeatKEYS_01.ogg
475,192,9600,1,0,0:0:0:0:PianoKEYS_24.ogg
402,192,9700,1,0,0:0:0:0:PianoKEYS_22.ogg
329,192,9800,1,0,0:0:0:0:PianoKEYS_20.ogg
256,192,9900,1,0,0:0:0:0:PianoKEYS_19.ogg
402,192,10000,1,0,0:0:0:0:PianoKEYS_22.ogg
329,192,10100,1,0,0:0:0:0:PianoKEYS_20.ogg
256,192,10200,1,0,0:0:0:0:PianoKEYS_19.ogg
182,192,10300,1,0,0:0:0:0:PianoKEYS_18.ogg
329,192,10400,1,0,0:0:0:0:PianoKEYS_20.ogg
256,192,10500,1,0,0:0:0:0:PianoKEYS_19.ogg
182,192,10600,1,0,0:0:0:0:PianoKEYS_18.ogg
109,192,10700,1,0,0:0:0:0:PianoKEYS_17.ogg
256,192,10800,1,0,0:0:0:0:PianoKEYS_19.ogg
182,192,10900,1,0,0:0:0:0:PianoKEYS_18.ogg
109,192,11000,1,0,0:0:0:0:PianoKEYS_17.ogg
36,192,11100,1,0,0:0:0:0:PianoKEYS_14.ogg
182,192,11200,1,0,0:0:0:0:PianoKEYS_18.ogg
475,192,11300,1,0,0:0:0:0:PianoKEYS_15.ogg
329,192,11400,1,0,0:0:0:0:PianoKEYS_18.ogg
256,192,11500,1,0,0:0:0:0:PianoKEYS_19.ogg
182,192,11600,1,0,0:0:0:0:PianoKEYS_20.ogg
329,192,11700,1,0,0:0:0:0:PianoKEYS_18.ogg
182,192,11800,1,0,0:0:0:0:PianoKEYS_20.ogg
109,192,11900,1,0,0:0:0:0:PianoKEYS_22.ogg
36,192,12000,1,0,0:0:0:0:PianoKEYS_25.ogg
182,192,12100,1,0,0:0:0:0:PianoKEYS_20.ogg
36,192,12200,1,0,0:0:0:0:PianoKEYS_25.ogg
109,192,12300,1,0,0:0:0:0:PianoKEYS_28.ogg
182,192,12400,1,0,0:0:0:0:PianoKEYS_29.ogg
256,192,12500,1,0,0:0:0:0:PianoKEYS_30.ogg
329,192,12600,1,0,0:0:0:0:PianoKEYS_33.ogg
109,192,12700,1,0,0:0:0:0:PianoKEYS_28.ogg
36,192,12800,1,0,0:0:0:0:BeatKEYS_01.ogg
475,192,12800,1,0,0:0:0:0:PianoKEYS_32.ogg
329,192,12900,1,0,0:0:0:0:PianoKEYS_27.ogg
256,192,13000,1,0,0:0:0:0:PianoKEYS_19.ogg
109,192,13100,1,0,0:0:0:0:PianoKEYS_17.ogg
402,192,13200,1,0,0:0:0:0:PianoKEYS_29.ogg
256,192,13300,1,0,0:0:0:0:PianoKEYS_22.ogg
109,192,13400,1,0,0:0:0:0:PianoKEYS_17.ogg
36,192,13500,1,0,0:0:0:0:PianoKEYS_14.ogg
329,192,13600,1,0,0:0:0:0:PianoKEYS_27.ogg
256,192,13700,1,0,0:0:0:0:PianoKEYS_19.ogg
109,192,13800,1,0,0:0:0:0:PianoKEYS_14.ogg
36,192,13900,1,0,0:0:0:0:PianoKEYS_13.ogg
256,192,14000,1,0,0:0:0:0:PianoKEYS_24.ogg
182,192,14100,1,0,0:0:0:0:PianoKEYS_19.ogg
109,192,14200,1,0,0:0:0:0:PianoKEYS_17.ogg
36,192,14300,1,0,0:0:0:0:PianoKEYS_14.ogg
182,192,14400,1,0,0:0:0:0:PianoKEYS_19.ogg
256,192,14500,1,0,0:0:0:0:PianoKEYS_20.ogg
182,192,14600,1,0,0:0:0:0:PianoKEYS_19.ogg
109,192,14700,1,0,0:0:0:0:PianoKEYS_18.ogg
36,192,14800,1,0,0:0:0:0:PianoKEYS_16.ogg
475,192,14900,1,0,0:0:0:0:PianoKEYS_15.ogg
402,192,15000,1,0,0:0:0:0:PianoKEYS_14.ogg
329,192,15100,1,0,0:0:0:0:PianoKEYS_13.ogg
256,192,15200,1,0,0:0:0:0:PianoKEYS_12.ogg
182,192,15300,1,0,0:0:0:0:PianoKEYS_11.ogg
109,192,15400,1,0,0:0:0:0:PianoKEYS_10.ogg
36,192,15500,1,0,0:0:0:0:PianoKEYS_08.ogg
329,192,15600,1,0,0:0:0:0:PianoKEYS_07.ogg
256,192,15700,1,0,0:0:0:0:PianoKEYS_06.ogg
182,192,15800,1,0,0:0:0:0:PianoKEYS_05.ogg
402,192,15900,1,0,0:0:0:0:PianoKEYS_09.ogg
36,192,16000,1,0,0:0:0:0:LazuriTKEYS_02.ogg
475,192,16000,1,0,0:0:0:0:BeatKEYS_01.ogg
109,192,16100,1,0,0:0:0:0:LazuriTKEYS_04.ogg
182,192,16200,1,0,0:0:0:0:LazuriTKEYS_08.ogg
256,192,16300,1,0,0:0:0:0:LazuriTKEYS_11.ogg
329,192,16400,1,0,0:0:0:0:LazuriTKEYS_13.ogg
402,192,16500,1,0,0:0:0:0:LazuriTKEYS_14.ogg
329,192,16600,1,0,0:0:0:0:LazuriTKEYS_13.ogg
256,192,16700,1,0,0:0:0:0:LazuriTKEYS_12.ogg
182,192,16800,1,0,0:0:0:0:LazuriTKEYS_11.ogg
256,192,16900,1,0,0:0:0:0:LazuriTKEYS_12.ogg
182,192,17000,1,0,0:0:0:0:LazuriTKEYS_11.ogg
109,192,17100,1,0,0:0:0:0:LazuriTKEYS_10.ogg
36,192,17200,1,0,0:0:0:0:LazuriTKEYS_08.ogg
109,192,17300,1,0,0:0:0:0:LazuriTKEYS_10.ogg
182,192,17400,1,0,0:0:0:0:LazuriTKEYS_11.ogg
36,192,17500,1,0,0:0:0:0:LazuriTKEYS_08.ogg
109,192,17600,1,0,0:0:0:0:LazuriTKEYS_02.ogg
475,192,17600,1,0,0:0:0:0:BeatKEYS_01.ogg
182,192,17700,1,0,0:0:0:0:LazuriTKEYS_05.ogg
256,192,17800,1,0,0:0:0:0:LazuriTKEYS_08.ogg
329,192,17900,1,0,0:0:0:0:LazuriTKEYS_11.ogg
402,192,18000,1,0,0:0:0:0:LazuriTKEYS_13.ogg
475,192,18100,1,0,0:0:0:0:LazuriTKEYS_14.ogg
402,192,18200,1,0,0:0:0:0:LazuriTKEYS_13.ogg
329,192,18300,1,0,0:0:0:0:LazuriTKEYS_12.ogg
256,192,18400,1,0,0:0:0:0:LazuriTKEYS_11.ogg
329,192,18500,1,0,0:0:0:0:LazuriTKEYS_12.ogg
256,192,18600,1,0,0:0:0:0:LazuriTKEYS_11.ogg
182,192,18700,1,0,0:0:0:0:LazuriTKEYS_10.ogg
109,192,18800,1,0,0:0:0:0:LazuriTKEYS_08.ogg
182,192,18900,1,0,0:0:0:0:LazuriTKEYS_10.ogg
256,192,19000,1,0,0:0:0:0:LazuriTKEYS_11.ogg
109,192,19100,1,0,0:0:0:0:LazuriTKEYS_08.ogg
36,192,19200,1,0,0:0:0:0:BeatKEYS_01.ogg
475,192,19200,1,0,0:0:0:0:LazuriTKEYS_03.ogg
402,192,19300,1,0,0:0:0:0:LazuriTKEYS_05.ogg
329,192,19400,1,0,0:0:0:0:LazuriTKEYS_09.ogg
256,192,19500,1,0,0:0:0:0:LazuriTKEYS_12.ogg
182,192,19600,1,0,0:0:0:0:LazuriTKEYS_14.ogg
109,192,19700,1,0,0:0:0:0:LazuriTKEYS_15.ogg
182,192,19800,1,0,0:0:0:0:LazuriTKEYS_14.ogg
256,192,19900,1,0,0:0:0:0:LazuriTKEYS_13.ogg
329,192,20000,1,0,0:0:0:0:LazuriTKEYS_12.ogg
256,192,20100,1,0,0:0:0:0:LazuriTKEYS_13.ogg
329,192,20200,1,0,0:0:0:0:LazuriTKEYS_12.ogg
402,192,20300,1,0,0:0:0:0:LazuriTKEYS_11.ogg
475,192,20400,1,0,0:0:0:0:LazuriTKEYS_09.ogg
402,192,20500,1,0,0:0:0:0:LazuriTKEYS_11.ogg
329,192,20600,1,0,0:0:0:0:LazuriTKEYS_12.ogg
475,192,20700,1,0,0:0:0:0:LazuriTKEYS_09.ogg
256,192,20800,1,0,0:0:0:0:LazuriTKEYS_08.ogg
329,192,20900,1,0,0:0:0:0:LazuriTKEYS_10.ogg
256,192,21000,1,0,0:0:0:0:LazuriTKEYS_08.ogg
182,192,21100,1,0,0:0:0:0:LazuriTKEYS_07.ogg
256,192,21200,1,0,0:0:0:0:LazuriTKEYS_08.ogg
329,192,21300,1,0,0:0:0:0:LazuriTKEYS_10.ogg
402,192,21400,1,0,0:0:0:0:LazuriTKEYS_11.ogg
256,192,21500,1,0,0:0:0:0:LazuriTKEYS_08.ogg
182,192,21600,1,0,0:0:0:0:LazuriTKEYS_07.ogg
256,192,21700,1,0,0:0:0:0:LazuriTKEYS_08.ogg
182,192,21800,1,0,0:0:0:0:LazuriTKEYS_07.ogg
109,192,21900,1,0,0:0:0:0:LazuriTKEYS_06.ogg
182,192,22000,1,0,0:0:0:0:LazuriTKEYS_07.ogg
256,192,22100,1,0,0:0:0:0:LazuriTKEYS_08.ogg
329,192,22200,1,0,0:0:0:0:LazuriTKEYS_10.ogg
182,192,22300,1,0,0:0:0:0:LazuriTKEYS_07.ogg
36,192,22400,1,0,0:0:0:0:BeatKEYS_01.ogg
475,192,22400,1,0,0:0:0:0:LazuriTKEYS_02.ogg
402,192,22500,1,0,0:0:0:0:LazuriTKEYS_04.ogg
329,192,22600,1,0,0:0:0:0:LazuriTKEYS_08.ogg
256,192,22700,1,0,0:0:0:0:LazuriTKEYS_11.ogg
182,192,22800,1,0,0:0:0:0:LazuriTKEYS_13.ogg
109,192,22900,1,0,0:0:0:0:LazuriTKEYS_14.ogg
182,192,23000,1,0,0:0:0:0:LazuriTKEYS_13.ogg
256,192,23100,1,0,0:0:0:0:LazuriTKEYS_12.ogg
329,192,23200,1,0,0:0:0:0:LazuriTKEYS_11.ogg
256,192,23300,1,0,0:0:0:0:LazuriTKEYS_12.ogg
329,192,23400,1,0,0:0:0:0:LazuriTKEYS_11.ogg
402,192,23500,1,0,0:0:0:0:LazuriTKEYS_10.ogg
475,192,23600,1,0,0:0:0:0:LazuriTKEYS_08.ogg
402,192,23700,1,0,0:0:0:0:LazuriTKEYS_10.ogg
329,192,23800,1,0,0:0:0:0:LazuriTKEYS_11.ogg
475,192,23900,1,0,0:0:0:0:LazuriTKEYS_08.ogg
402,192,24000,1,0,0:0:0:0:LazuriTKEYS_02.ogg
36,192,24000,1,0,0:0:0:0:BeatKEYS_01.ogg
329,192,24100,1,0,0:0:0:0:LazuriTKEYS_05.ogg
256,192,24200,1,0,0:0:0:0:LazuriTKEYS_08.ogg
182,192,24300,1,0,0:0:0:0:LazuriTKEYS_11.ogg
109,192,24400,1,0,0:0:0:0:LazuriTKEYS_13.ogg
36,192,24500,1,0,0:0:0:0:LazuriTKEYS_14.ogg
109,192,24600,1,0,0:0:0:0:LazuriTKEYS_13.ogg
182,192,24700,1,0,0:0:0:0:LazuriTKEYS_12.ogg
256,192,24800,1,0,0:0:0:0:LazuriTKEYS_11.ogg
182,192,24900,1,0,0:0:0:0:LazuriTKEYS_12.ogg
256,192,25000,1,0,0:0:0:0:LazuriTKEYS_11.ogg
329,192,25100,1,0,0:0:0:0:LazuriTKEYS_10.ogg
402,192,25200,1,0,0:0:0:0:LazuriTKEYS_08.ogg
329,192,25300,1,0,0:0:0:0:LazuriTKEYS_10.ogg
256,192,25400,1,0,0:0:0:0:LazuriTKEYS_11.ogg
402,192,25500,1,0,0:0:0:0:LazuriTKEYS_08.ogg
36,192,25600,1,0,0:0:0:0:LazuriTKEYS_03.ogg
475,192,25600,1,0,0:0:0:0:BeatKEYS_01.ogg
109,192,25700,1,0,0:0:0:0:LazuriTKEYS_05.ogg
182,192,25800,1,0,0:0:0:0:LazuriTKEYS_09.ogg
256,192,25900,1,0,0:0:0:0:LazuriTKEYS_12.ogg
329,192,26000,1,0,0:0:0:0:LazuriTKEYS_14.ogg
402,192,26100,1,0,0:0:0:0:LazuriTKEYS_15.ogg
329,192,26200,1,0,0:0:0:0:LazuriTKEYS_14.ogg
256,192,26300,1,0,0:0:0:0:LazuriTKEYS_13.ogg
182,192,26400,1,0,0:0:0:0:LazuriTKEYS_12.ogg
256,192,26500,1,0,0:0:0:0:LazuriTKEYS_13.ogg
182,192,26600,1,0,0:0:0:0:LazuriTKEYS_12.ogg
109,192,26700,1,0,0:0:0:0:LazuriTKEYS_11.ogg
36,192,26800,1,0,0:0:0:0:LazuriTKEYS_09.ogg
109,192,26900,1,0,0:0:0:0:LazuriTKEYS_11.ogg
182,192,27000,1,0,0:0:0:0:LazuriTKEYS_12.ogg
256,192,27100,1,0,0:0:0:0:LazuriTKEYS_13.ogg
109,192,27200,1,0,0:0:0:0:LazuriTKEYS_11.ogg
256,192,27300,1,0,0:0:0:0:LazuriTKEYS_13.ogg
402,192,27400,1,0,0:0:0:0:LazuriTKEYS_16.ogg
256,192,27500,1,0,0:0:0:0:LazuriTKEYS_13.ogg
182,192,27600,1,0,0:0:0:0:LazuriTKEYS_12.ogg
329,192,27700,1,0,0:0:0:0:LazuriTKEYS_13.ogg
256,192,27800,1,0,0:0:0:0:LazuriTKEYS_12.ogg
109,192,27900,1,0,0:0:0:0:LazuriTKEYS_11.ogg
402,192,28000,1,0,0:0:0:0:LazuriTKEYS_10.ogg
182,192,28100,1,0,0:0:0:0:LazuriTKEYS_12.ogg
329,192,28200,1,0,0:0:0:0:LazuriTKEYS_14.ogg
256,192,28300,1,0,0:0:0:0:LazuriTKEYS_13.ogg
182,192,28400,1,0,0:0:0:0:LazuriTKEYS_12.ogg
329,192,28500,1,0,0:0:0:0:LazuriTKEYS_13.ogg
36,192,28600,1,0,0:0:0:0:LazuriTKEYS_10.ogg
475,192,28700,1,0,0:0:0:0:LazuriTKEYS_07.ogg
36,192,28800,1,0,0:0:0:0:BeatKEYS_01.ogg
182,192,28800,128,0,28900:0:0:0:0:LazuriKEYS_13.ogg
329,192,28900,128,0,29000:0:0:0:0:LazuriKEYS_13.ogg
182,192,29000,128,0,29100:0:0:0:0:LazuriKEYS_14.ogg
36,192,29200,1,0,0:0:0:0:BeatKEYS_01.ogg
329,192,29200,128,0,29300:0:0:0:0:LazuriKEYS_13.ogg
182,192,29300,128,0,29400:0:0:0:0:LazuriKEYS_13.ogg
329,192,29400,128,0,29500:0:0:0:0:LazuriKEYS_13.ogg
475,192,29500,128,0,29600:0:0:0:0:LazuriKEYS_16.ogg
36,192,29600,1,0,0:0:0:0:BeatKEYS_01.ogg
329,192,29700,128,0,29800:0:0:0:0:LazuriKEYS_15.ogg
475,192,29800,128,0,29900:0:0:0:0:LazuriKEYS_16.ogg
36,192,30000,1,0,0:0:0:0:BeatKEYS_01.ogg
329,192,30000,128,0,30100:0:0:0:0:LazuriKEYS_15.ogg
475,192,30100,128,0,30200:0:0:0:0:LazuriKEYS_15.ogg
329,192,30200,128,0,30300:0:0:0:0:LazuriKEYS_15.ogg
475,192,30300,128,0,30400:0:0:0:0:LazuriKEYS_15.ogg
36,192,30400,1,0,0:0:0:0:BeatKEYS_01.ogg
329,192,30400,128,0,30500:0:0:0:0:LazuriKEYS_13.ogg
182,192,30500,128,0,30600:0:0:0:0:LazuriKEYS_13.ogg
329,192,30600,128,0,30700:0:0:0:0:LazuriKEYS_14.ogg
36,192,30800,1,0,0:0:0:0:BeatKEYS_01.ogg
182,192,30800,128,0,30900:0:0:0:0:LazuriKEYS_13.ogg
329,192,30900,128,0,31000:0:0:0:0:LazuriKEYS_13.ogg
182,192,31000,128,0,31100:0:0:0:0:LazuriKEYS_13.ogg
256,192,31100,128,0,31200:0:0:0:0:LazuriKEYS_09.ogg
36,192,31200,1,0,0:0:0:0:BeatKEYS_01.ogg
256,192,31300,128,0,31400:0:0:0:0:LazuriKEYS_08.ogg
402,192,31400,128,0,31500:0:0:0:0:LazuriKEYS_11.ogg
36,192,31600,1,0,0:0:0:0:BeatKEYS_01.ogg
475,192,31600,128,0,31700:0:0:0:0:LazuriKEYS_12.ogg
329,192,31800,128,0,31900:0:0:0:0:LazuriKEYS_11.ogg
36,192,32000,1,0,0:0:0:0:BeatKEYS_01.ogg
109,192,32000,128,0,32100:0:0:0:0:LazuriKEYS_10.ogg
256,192,32100,128,0,32200:0:0:0:0:LazuriKEYS_10.ogg
109,192,32200,128,0,32300:0:0:0:0:LazuriKEYS_11.ogg
36,192,32400,1,0,0:0:0:0:BeatKEYS_01.ogg
256,192,32400,128,0,32500:0:0:0:0:LazuriKEYS_10.ogg
109,192,32500,128,0,32600:0:0:0:0:LazuriKEYS_10.ogg
256,192,32600,128,0,32700:0:0:0:0:LazuriKEYS_10.ogg
402,192,32700,128,0,32800:0:0:0:0:LazuriKEYS_09.ogg
36,192,32800,1,0,0:0:0:0:BeatKEYS_01.ogg
256,192,32900,128,0,33000:0:0:0:0:LazuriKEYS_08.ogg
402,192,33000,128,0,33100:0:0:0:0:LazuriKEYS_09.ogg
36,192,33200,1,0,0:0:0:0:BeatKEYS_01.ogg
256,192,33200,128,0,33300:0:0:0:0:LazuriKEYS_08.ogg
402,192,33300,128,0,33400:0:0:0:0:LazuriKEYS_08.ogg
256,192,33400,128,0,33500:0:0:0:0:LazuriKEYS_08.ogg
402,192,33500,128,0,33600:0:0:0:0:LazuriKEYS_08.ogg
36,192,33600,1,0,0:0:0:0:BeatKEYS_01.ogg
256,192,33600,128,0,33700:0:0:0:0:LazuriKEYS_10.ogg
109,192,33700,128,0,33800:0:0:0:0:LazuriKEYS_10.ogg
256,192,33800,128,0,33900:0:0:0:0:LazuriKEYS_11.ogg
36,192,34000,1,0,0:0:0:0:BeatKEYS_01.ogg
109,192,34000,128,0,34100:0:0:0:0:LazuriKEYS_10.ogg
256,192,34100,128,0,34200:0:0:0:0:LazuriKEYS_10.ogg
109,192,34200,128,0,34300:0:0:0:0:LazuriKEYS_10.ogg
402,192,34300,128,0,34400:0:0:0:0:LazuriKEYS_41.ogg
36,192,34400,1,0,0:0:0:0:BeatKEYS_01.ogg
402,192,34500,128,0,34600:0:0:0:0:LazuriKEYS_40.ogg
256,192,34600,128,0,34700:0:0:0:0:LazuriKEYS_04.ogg
36,192,34800,1,0,0:0:0:0:BeatKEYS_01.ogg
182,192,34800,128,0,34900:0:0:0:0:LazuriKEYS_07.ogg
329,192,35000,128,0,35100:0:0:0:0:LazuriKEYS_04.ogg
475,192,35200,1,0,0:0:0:0:BeatKEYS_01.ogg
402,192,35200,128,0,35300:0:0:0:0:LazuriKEYS_13.ogg
256,192,35300,128,0,35400:0:0:0:0:LazuriKEYS_13.ogg
402,192,35400,128,0,35500:0:0:0:0:LazuriKEYS_14.ogg
475,192,35600,1,0,0:0:0:0:BeatKEYS_01.ogg
256,192,35600,128,0,35700:0:0:0:0:LazuriKEYS_13.ogg
402,192,35700,128,0,35800:0:0:0:0:LazuriKEYS_13.ogg
256,192,35800,128,0,35900:0:0:0:0:LazuriKEYS_13.ogg
109,192,35900,128,0,36000:0:0:0:0:LazuriKEYS_16.ogg
475,192,36000,1,0,0:0:0:0:BeatKEYS_01.ogg
256,192,36100,128,0,36200:0:0:0:0:LazuriKEYS_15.ogg
109,192,36200,128,0,36300:0:0:0:0:LazuriKEYS_16.ogg
475,192,36400,1,0,0:0:0:0:BeatKEYS_01.ogg
256,192,36400,128,0,36500:0:0:0:0:LazuriKEYS_15.ogg
109,192,36500,128,0,36600:0:0:0:0:LazuriKEYS_15.ogg
256,192,36600,128,0,36700:0:0:0:0:LazuriKEYS_15.ogg
109,192,36700,128,0,36800:0:0:0:0:LazuriKEYS_15.ogg
475,192,36800,1,0,0:0:0:0:BeatKEYS_01.ogg
256,192,36800,128,0,36900:0:0:0:0:LazuriKEYS_13.ogg
402,192,36900,128,0,37000:0:0:0:0:LazuriKEYS_13.ogg
256,192,37000,128,0,37100:0:0:0:0:LazuriKEYS_14.ogg
475,192,37200,1,0,0:0:0:0:BeatKEYS_01.ogg
402,192,37200,128,0,37300:0:0:0:0:LazuriKEYS_13.ogg
256,192,37300,128,0,37400:0:0:0:0:LazuriKEYS_13.ogg
402,192,37400,128,0,37500:0:0:0:0:LazuriKEYS_13.ogg
109,192,37500,128,0,37600:0:0:0:0:LazuriKEYS_09.ogg
475,192,37600,1,0,0:0:0:0:BeatKEYS_01.ogg
109,192,37700,128,0,37800:0:0:0:0:LazuriKEYS_08.ogg
256,192,37800,128,0,37900:0:0:0:0:LazuriKEYS_11.ogg
475,192,38000,1,0,0:0:0:0:BeatKEYS_01.ogg
329,192,38000,128,0,38100:0:0:0:0:LazuriKEYS_12.ogg
182,192,38200,128,0,38300:0:0:0:0:LazuriKEYS_11.ogg
475,192,38400,1,0,0:0:0:0:BeatKEYS_01.ogg
329,192,38400,128,0,38500:0:0:0:0:LazuriKEYS_10.ogg
182,192,38500,128,0,38600:0:0:0:0:LazuriKEYS_10.ogg
329,192,38600,128,0,38700:0:0:0:0:LazuriKEYS_11.ogg
475,192,38800,1,0,0:0:0:0:BeatKEYS_01.ogg
182,192,38800,128,0,38900:0:0:0:0:LazuriKEYS_10.ogg
329,192,38900,128,0,39000:0:0:0:0:LazuriKEYS_10.ogg
182,192,39000,128,0,39100:0:0:0:0:LazuriKEYS_10.ogg
36,192,39100,128,0,39200:0:0:0:0:LazuriKEYS_09.ogg
475,192,39200,1,0,0:0:0:0:BeatKEYS_01.ogg
182,192,39300,128,0,39400:0:0:0:0:LazuriKEYS_08.ogg
36,192,39400,128,0,39500:0:0:0:0:LazuriKEYS_09.ogg
475,192,39600,1,0,0:0:0:0:BeatKEYS_01.ogg
182,192,39600,128,0,39700:0:0:0:0:LazuriKEYS_08.ogg
36,192,39700,128,0,39800:0:0:0:0:LazuriKEYS_08.ogg
182,192,39800,128,0,39900:0:0:0:0:LazuriKEYS_08.ogg
36,192,39900,128,0,40000:0:0:0:0:LazuriKEYS_08.ogg
475,192,40000,1,0,0:0:0:0:BeatKEYS_01.ogg
182,192,40000,128,0,40100:0:0:0:0:LazuriKEYS_10.ogg
329,192,40100,128,0,40200:0:0:0:0:LazuriKEYS_10.ogg
182,192,40200,128,0,40300:0:0:0:0:LazuriKEYS_11.ogg
475,192,40400,1,0,0:0:0:0:BeatKEYS_01.ogg
329,192,40400,128,0,40500:0:0:0:0:LazuriKEYS_10.ogg
182,192,40500,128,0,40600:0:0:0:0:LazuriKEYS_10.ogg
329,192,40600,128,0,40700:0:0:0:0:LazuriKEYS_10.ogg
36,192,40700,1,0,0:0:0:0:LazuriKEYS_18.ogg
475,192,40800,1,0,0:0:0:0:LazuriKEYS_18.ogg
109,192,40900,1,0,0:0:0:0:LazuriKEYS_18.ogg
402,192,41000,1,0,0:0:0:0:LazuriKEYS_19.ogg
182,192,41100,1,0,0:0:0:0:LazuriKEYS_19.ogg
329,192,41200,1,0,0:0:0:0:LazuriKEYS_20.ogg
109,192,41300,1,0,0:0:0:0:LazuriKEYS_20.ogg
402,192,41400,1,0,0:0:0:0:LazuriKEYS_19.ogg
36,192,41500,1,0,0:0:0:0:LazuriKEYS_19.ogg
329,192,41600,1,0,0:0:0:0:LazuriKEYS_25.ogg
475,192,41600,1,0,0:0:0:0:BeatKEYS_01.ogg
256,192,41700,1,0,0:0:0:0:LazuriKEYS_24.ogg
182,192,41800,1,0,0:0:0:0:LazuriKEYS_23.ogg
109,192,41900,1,0,0:0:0:0:LazuriKEYS_22.ogg
36,192,42000,1,0,0:0:0:0:LazuriKEYS_21.ogg
182,192,42100,1,0,0:0:0:0:LazuriKEYS_24.ogg
256,192,42200,1,0,0:0:0:0:LazuriKEYS_26.ogg
329,192,42300,1,0,0:0:0:0:LazuriKEYS_29.ogg
402,192,42400,1,0,0:0:0:0:LazuriKEYS_30.ogg
329,192,42500,1,0,0:0:0:0:LazuriKEYS_29.ogg
256,192,42600,1,0,0:0:0:0:LazuriKEYS_28.ogg
182,192,42700,1,0,0:0:0:0:LazuriKEYS_26.ogg
256,192,42800,1,0,0:0:0:0:LazuriKEYS_28.ogg
329,192,42900,1,0,0:0:0:0:LazuriKEYS_29.ogg
182,192,43000,1,0,0:0:0:0:LazuriKEYS_26.ogg
256,192,43100,1,0,0:0:0:0:LazuriKEYS_28.ogg
329,192,43200,1,0,0:0:0:0:LazuriKEYS_29.ogg
256,192,43300,1,0,0:0:0:0:LazuriKEYS_28.ogg
182,192,43400,1,0,0:0:0:0:LazuriKEYS_26.ogg
109,192,43500,1,0,0:0:0:0:LazuriKEYS_25.ogg
36,192,43600,1,0,0:0:0:0:LazuriKEYS_22.ogg
109,192,43700,1,0,0:0:0:0:LazuriKEYS_25.ogg
256,192,43800,1,0,0:0:0:0:LazuriKEYS_28.ogg
402,192,43900,1,0,0:0:0:0:LazuriKEYS_30.ogg
475,192,44000,1,0,0:0:0:0:LazuriKEYS_31.ogg
402,192,44100,1,0,0:0:0:0:LazuriKEYS_30.ogg
329,192,44200,1,0,0:0:0:0:LazuriKEYS_29.ogg
256,192,44300,1,0,0:0:0:0:LazuriKEYS_28.ogg
329,192,44400,1,0,0:0:0:0:LazuriKEYS_29.ogg
402,192,44500,1,0,0:0:0:0:LazuriKEYS_30.ogg
256,192,44600,1,0,0:0:0:0:LazuriKEYS_28.ogg
329,192,44700,1,0,0:0:0:0:LazuriKEYS_29.ogg
402,192,44800,1,0,0:0:0:0:LazuriKEYS_30.ogg
329,192,44900,1,0,0:0:0:0:LazuriKEYS_29.ogg
256,192,45000,1,0,0:0:0:0:LazuriKEYS_28.ogg
182,192,45100,1,0,0:0:0:0:LazuriKEYS_27.ogg
36,192,45200,1,0,0:0:0:0:LazuriKEYS_23.ogg
182,192,45300,1,0,0:0:0:0:LazuriKEYS_27.ogg
329,192,45400,1,0,0:0:0:0:LazuriKEYS_29.ogg
475,192,45500,1,0,0:0:0:0:LazuriKEYS_31.ogg
256,192,45600,1,0,0:0:0:0:LazuriKEYS_32.ogg
475,192,45700,1,0,0:0:0:0:LazuriKEYS_31.ogg
402,192,45800,1,0,0:0:0:0:LazuriKEYS_30.ogg
329,192,45900,1,0,0:0:0:0:LazuriKEYS_29.ogg
402,192,46000,1,0,0:0:0:0:LazuriKEYS_30.ogg
475,192,46100,1,0,0:0:0:0:LazuriKEYS_31.ogg
329,192,46200,1,0,0:0:0:0:LazuriKEYS_29.ogg
402,192,46300,1,0,0:0:0:0:LazuriKEYS_30.ogg
36,192,46400,1,0,0:0:0:0:LazuriKEYS_24.ogg
109,192,46500,1,0,0:0:0:0:LazuriKEYS_28.ogg
256,192,46600,1,0,0:0:0:0:LazuriKEYS_30.ogg
402,192,46700,1,0,0:0:0:0:LazuriKEYS_32.ogg
475,192,46800,1,0,0:0:0:0:LazuriKEYS_33.ogg
402,192,46900,1,0,0:0:0:0:LazuriKEYS_32.ogg
329,192,47000,1,0,0:0:0:0:LazuriKEYS_31.ogg
256,192,47100,1,0,0:0:0:0:LazuriKEYS_30.ogg
182,192,47200,1,0,0:0:0:0:LazuriKEYS_29.ogg
109,192,47300,1,0,0:0:0:0:LazuriKEYS_28.ogg
36,192,47400,1,0,0:0:0:0:LazuriKEYS_26.ogg
475,192,47500,1,0,0:0:0:0:LazuriKEYS_25.ogg
402,192,47600,1,0,0:0:0:0:LazuriKEYS_24.ogg
256,192,47700,1,0,0:0:0:0:LazuriKEYS_23.ogg
109,192,47800,1,0,0:0:0:0:LazuriKEYS_22.ogg
36,192,47900,1,0,0:0:0:0:LazuriKEYS_21.ogg
182,192,48000,1,0,0:0:0:0:LazuriKEYS_24.ogg
256,192,48100,1,0,0:0:0:0:LazuriKEYS_28.ogg
329,192,48200,1,0,0:0:0:0:LazuriKEYS_30.ogg
402,192,48300,1,0,0:0:0:0:LazuriKEYS_31.ogg
256,192,48400,1,0,0:0:0:0:LazuriKEYS_28.ogg
329,192,48500,1,0,0:0:0:0:LazuriKEYS_30.ogg
402,192,48600,1,0,0:0:0:0:LazuriKEYS_31.ogg
475,192,48700,1,0,0:0:0:0:LazuriKEYS_32.ogg
329,192,48800,1,0,0:0:0:0:LazuriKEYS_30.ogg
402,192,48900,1,0,0:0:0:0:LazuriKEYS_31.ogg
475,192,49000,1,0,0:0:0:0:LazuriKEYS_32.ogg
329,192,49100,1,0,0:0:0:0:LazuriKEYS_33.ogg
402,192,49200,1,0,0:0:0:0:LazuriKEYS_34.ogg
329,192,49300,1,0,0:0:0:0:LazuriKEYS_33.ogg
475,192,49400,1,0,0:0:0:0:LazuriKEYS_32.ogg
256,192,49500,1,0,0:0:0:0:LazuriKEYS_30.ogg
109,192,49600,1,0,0:0:0:0:LazuriKEYS_28.ogg
256,192,49700,1,0,0:0:0:0:LazuriKEYS_30.ogg
109,192,49800,1,0,0:0:0:0:LazuriKEYS_28.ogg
256,192,49900,1,0,0:0:0:0:LazuriKEYS_30.ogg
329,192,50000,1,0,0:0:0:0:LazuriKEYS_31.ogg
402,192,50100,1,0,0:0:0:0:LazuriKEYS_33.ogg
475,192,50200,1,0,0:0:0:0:LazuriKEYS_35.ogg
329,192,50300,1,0,0:0:0:0:LazuriKEYS_36.ogg
256,192,50400,1,0,0:0:0:0:LazuriKEYS_35.ogg
182,192,50500,1,0,0:0:0:0:LazuriKEYS_33.ogg
256,192,50600,1,0,0:0:0:0:LazuriKEYS_35.ogg
329,192,50700,1,0,0:0:0:0:LazuriKEYS_36.ogg
182,192,50800,1,0,0:0:0:0:LazuriKEYS_37.ogg
109,192,50900,1,0,0:0:0:0:LazuriKEYS_38.ogg
36,192,51000,1,0,0:0:0:0:LazuriKEYS_39.ogg
256,192,51100,1,0,0:0:0:0:LazuriKEYS_35.ogg
475,192,51200,1,0,0:0:0:0:BreakbeatsKEYS_01.ogg
36,192,51400,1,0,0:0:0:0:BreakbeatsKEYS_02.ogg
256,192,51600,1,0,0:0:0:0:BreakbeatsKEYS_03.ogg
402,192,51800,1,0,0:0:0:0:BreakbeatsKEYS_04.ogg
109,192,51900,1,0,0:0:0:0:BreakbeatsKEYS_05.ogg
402,192,52000,1,0,0:0:0:0:BreakbeatsKEYS_06.ogg
109,192,52100,1,0,0:0:0:0:BreakbeatsKEYS_07.ogg
402,192,52200,1,0,0:0:0:0:BreakbeatsKEYS_08.ogg
256,192,52400,1,0,0:0:0:0:BreakbeatsKEYS_09.ogg
402,192,52600,1,0,0:0:0:0:BreakbeatsKEYS_10.ogg
109,192,52700,1,0,0:0:0:0:BreakbeatsKEYS_11.ogg
402,192,52800,1,0,0:0:0:0:LazuriKEYS_30.ogg
475,192,52900,1,0,0:0:0:0:LazuriKEYS_31.ogg
402,192,53000,1,0,0:0:0:0:LazuriKEYS_30.ogg
329,192,53100,1,0,0:0:0:0:LazuriKEYS_29.ogg
256,192,53200,1,0,0:0:0:0:LazuriKEYS_28.ogg
182,192,53300,1,0,0:0:0:0:LazuriKEYS_26.ogg
109,192,53400,1,0,0:0:0:0:LazuriKEYS_25.ogg
36,192,53500,1,0,0:0:0:0:LazuriKEYS_24.ogg
475,192,53600,1,0,0:0:0:0:LazuriKEYS_23.ogg
402,192,53700,1,0,0:0:0:0:LazuriKEYS_22.ogg
329,192,53800,1,0,0:0:0:0:PianoKEYS_18.ogg
256,192,53900,1,0,0:0:0:0:PianoKEYS_16.ogg
182,192,54000,1,0,0:0:0:0:PianoKEYS_15.ogg
109,192,54100,1,0,0:0:0:0:PianoKEYS_14.ogg
36,192,54200,1,0,0:0:0:0:PianoKEYS_13.ogg
256,192,54300,1,0,0:0:0:0:PianoKEYS_17.ogg
36,192,54400,1,0,0:0:0:0:PianoKEYS_14.ogg
109,192,54500,1,0,0:0:0:0:PianoKEYS_18.ogg
182,192,54600,1,0,0:0:0:0:PianoKEYS_20.ogg
256,192,54700,1,0,0:0:0:0:PianoKEYS_24.ogg
109,192,54800,1,0,0:0:0:0:PianoKEYS_18.ogg
182,192,54900,1,0,0:0:0:0:PianoKEYS_20.ogg
256,192,55000,1,0,0:0:0:0:PianoKEYS_24.ogg
329,192,55100,1,0,0:0:0:0:PianoKEYS_28.ogg
182,192,55200,1,0,0:0:0:0:PianoKEYS_20.ogg
256,192,55300,1,0,0:0:0:0:PianoKEYS_24.ogg
329,192,55400,1,0,0:0:0:0:PianoKEYS_28.ogg
402,192,55500,1,0,0:0:0:0:PianoKEYS_30.ogg
256,192,55600,1,0,0:0:0:0:PianoKEYS_24.ogg
329,192,55700,1,0,0:0:0:0:PianoKEYS_28.ogg
402,192,55800,1,0,0:0:0:0:PianoKEYS_30.ogg
256,192,55900,1,0,0:0:0:0:PianoKEYS_24.ogg
36,192,56000,1,0,0:0:0:0:PianoKEYS_14.ogg
182,192,56100,1,0,0:0:0:0:PianoKEYS_18.ogg
329,192,56200,1,0,0:0:0:0:PianoKEYS_20.ogg
475,192,56300,1,0,0:0:0:0:PianoKEYS_24.ogg
402,192,56400,1,0,0:0:0:0:PianoKEYS_23.ogg
475,192,56500,1,0,0:0:0:0:PianoKEYS_24.ogg
402,192,56600,1,0,0:0:0:0:PianoKEYS_23.ogg
475,192,56700,1,0,0:0:0:0:PianoKEYS_24.ogg
402,192,56800,1,0,0:0:0:0:PianoKEYS_23.ogg
475,192,56900,1,0,0:0:0:0:PianoKEYS_24.ogg
256,192,57000,1,0,0:0:0:0:PianoKEYS_19.ogg
475,192,57100,1,0,0:0:0:0:PianoKEYS_24.ogg
109,192,57200,1,0,0:0:0:0:PianoKEYS_17.ogg
475,192,57300,1,0,0:0:0:0:PianoKEYS_24.ogg
256,192,57400,1,0,0:0:0:0:PianoKEYS_19.ogg
475,192,57500,1,0,0:0:0:0:PianoKEYS_24.ogg
36,192,57600,1,0,0:0:0:0:PianoKEYS_14.ogg
109,192,57700,1,0,0:0:0:0:PianoKEYS_17.ogg
182,192,57800,1,0,0:0:0:0:PianoKEYS_19.ogg
329,192,57900,1,0,0:0:0:0:PianoKEYS_24.ogg
109,192,58000,1,0,0:0:0:0:PianoKEYS_17.ogg
182,192,58100,1,0,0:0:0:0:PianoKEYS_19.ogg
329,192,58200,1,0,0:0:0:0:PianoKEYS_24.ogg
402,192,58300,1,0,0:0:0:0:PianoKEYS_27.ogg
182,192,58400,1,0,0:0:0:0:PianoKEYS_19.ogg
329,192,58500,1,0,0:0:0:0:PianoKEYS_24.ogg
402,192,58600,1,0,0:0:0:0:PianoKEYS_27.ogg
475,192,58700,1,0,0:0:0:0:PianoKEYS_29.ogg
329,192,58800,1,0,0:0:0:0:PianoKEYS_24.ogg
402,192,58900,1,0,0:0:0:0:PianoKEYS_27.ogg
475,192,59000,1,0,0:0:0:0:PianoKEYS_29.ogg
329,192,59100,1,0,0:0:0:0:PianoKEYS_24.ogg
36,192,59200,1,0,0:0:0:0:PianoKEYS_18.ogg
182,192,59300,1,0,0:0:0:0:PianoKEYS_20.ogg
256,192,59400,1,0,0:0:0:0:PianoKEYS_24.ogg
402,192,59500,1,0,0:0:0:0:PianoKEYS_28.ogg
329,192,59600,1,0,0:0:0:0:PianoKEYS_27.ogg
402,192,59700,1,0,0:0:0:0:PianoKEYS_28.ogg
329,192,59800,1,0,0:0:0:0:PianoKEYS_27.ogg
402,192,59900,1,0,0:0:0:0:PianoKEYS_28.ogg
329,192,60000,1,0,0:0:0:0:PianoKEYS_27.ogg
402,192,60100,1,0,0:0:0:0:PianoKEYS_28.ogg
256,192,60200,1,0,0:0:0:0:PianoKEYS_24.ogg
402,192,60300,1,0,0:0:0:0:PianoKEYS_28.ogg
182,192,60400,1,0,0:0:0:0:PianoKEYS_20.ogg
402,192,60500,1,0,0:0:0:0:PianoKEYS_28.ogg
256,192,60600,1,0,0:0:0:0:PianoKEYS_24.ogg
402,192,60700,1,0,0:0:0:0:PianoKEYS_28.ogg
36,192,60800,1,0,0:0:0:0:PianoKEYS_14.ogg
182,192,60900,1,0,0:0:0:0:PianoKEYS_18.ogg
256,192,61000,1,0,0:0:0:0:PianoKEYS_21.ogg
329,192,61100,1,0,0:0:0:0:PianoKEYS_24.ogg
109,192,61200,1,0,0:0:0:0:PianoKEYS_18.ogg
256,192,61300,1,0,0:0:0:0:PianoKEYS_21.ogg
329,192,61400,1,0,0:0:0:0:PianoKEYS_24.ogg
402,192,61500,1,0,0:0:0:0:PianoKEYS_27.ogg
182,192,61600,1,0,0:0:0:0:PianoKEYS_21.ogg
329,192,61700,1,0,0:0:0:0:PianoKEYS_24.ogg
402,192,61800,1,0,0:0:0:0:PianoKEYS_28.ogg
475,192,61900,1,0,0:0:0:0:PianoKEYS_31.ogg
329,192,62000,1,0,0:0:0:0:PianoKEYS_24.ogg
402,192,62100,1,0,0:0:0:0:PianoKEYS_28.ogg
475,192,62200,1,0,0:0:0:0:PianoKEYS_31.ogg
329,192,62300,1,0,0:0:0:0:PianoKEYS_24.ogg
182,192,62400,1,0,0:0:0:0:PianoKEYS_21.ogg
36,192,62500,1,0,0:0:0:0:PianoKEYS_28.ogg
109,192,62600,1,0,0:0:0:0:PianoKEYS_27.ogg
36,192,62700,1,0,0:0:0:0:PianoKEYS_28.ogg
182,192,62800,1,0,0:0:0:0:PianoKEYS_21.ogg
36,192,62900,1,0,0:0:0:0:PianoKEYS_28.ogg
182,192,63000,1,0,0:0:0:0:PianoKEYS_21.ogg
36,192,63100,1,0,0:0:0:0:PianoKEYS_28.ogg
182,192,63200,1,0,0:0:0:0:PianoKEYS_21.ogg
36,192,63300,1,0,0:0:0:0:PianoKEYS_28.ogg
256,192,63400,1,0,0:0:0:0:PianoKEYS_18.ogg
36,192,63500,1,0,0:0:0:0:PianoKEYS_28.ogg
329,192,63600,1,0,0:0:0:0:PianoKEYS_16.ogg
36,192,63700,1,0,0:0:0:0:PianoKEYS_28.ogg
402,192,63800,1,0,0:0:0:0:PianoKEYS_15.ogg
36,192,63900,1,0,0:0:0:0:PianoKEYS_28.ogg
475,192,64000,1,0,0:0:0:0:PianoKEYS_14.ogg
329,192,64100,1,0,0:0:0:0:PianoKEYS_18.ogg
182,192,64200,1,0,0:0:0:0:PianoKEYS_20.ogg
36,192,64300,1,0,0:0:0:0:PianoKEYS_24.ogg
109,192,64400,1,0,0:0:0:0:PianoKEYS_23.ogg
36,192,64500,1,0,0:0:0:0:PianoKEYS_24.ogg
109,192,64600,1,0,0:0:0:0:PianoKEYS_23.ogg
36,192,64700,1,0,0:0:0:0:PianoKEYS_24.ogg
475,192,64800,1,0,0:0:0:0:PianoKEYS_14.ogg
402,192,64900,1,0,0:0:0:0:PianoKEYS_17.ogg
256,192,65000,1,0,0:0:0:0:PianoKEYS_19.ogg
36,192,65100,1,0,0:0:0:0:PianoKEYS_24.ogg
475,192,65200,1,0,0:0:0:0:PianoKEYS_14.ogg
329,192,65300,1,0,0:0:0:0:PianoKEYS_19.ogg
256,192,65400,1,0,0:0:0:0:PianoKEYS_22.ogg
109,192,65500,1,0,0:0:0:0:PianoKEYS_27.ogg
36,192,65600,1,0,0:0:0:0:PianoKEYS_28.ogg
182,192,65700,1,0,0:0:0:0:PianoKEYS_18.ogg
256,192,65800,1,0,0:0:0:0:PianoKEYS_20.ogg
402,192,65900,1,0,0:0:0:0:PianoKEYS_24.ogg
36,192,66000,1,0,0:0:0:0:PianoKEYS_28.ogg
475,192,66100,1,0,0:0:0:0:PianoKEYS_27.ogg
36,192,66200,1,0,0:0:0:0:PianoKEYS_28.ogg
475,192,66300,1,0,0:0:0:0:PianoKEYS_27.ogg
36,192,66400,1,0,0:0:0:0:PianoKEYS_28.ogg
402,192,66500,1,0,0:0:0:0:PianoKEYS_24.ogg
475,192,66600,1,0,0:0:0:0:PianoKEYS_25.ogg
402,192,66700,1,0,0:0:0:0:PianoKEYS_24.ogg
329,192,66800,1,0,0:0:0:0:PianoKEYS_22.ogg
256,192,66900,1,0,0:0:0:0:PianoKEYS_20.ogg
182,192,67000,1,0,0:0:0:0:PianoKEYS_19.ogg
109,192,67100,1,0,0:0:0:0:PianoKEYS_17.ogg
36,192,67200,1,0,0:0:0:0:BeatKEYS_01.ogg
182,192,67200,128,0,67400:0:0:0:0:PianoKEYS_44.ogg
475,192,67400,1,0,0:0:0:0:TranceHHKEYS_01.ogg
36,192,67600,1,0,0:0:0:0:BeatKEYS_01.ogg
475,192,67800,1,0,0:0:0:0:TranceHHKEYS_01.ogg
109,192,67800,128,0,68000:0:0:0:0:PianoKEYS_41.ogg
36,192,68000,1,0,0:0:0:0:BeatKEYS_01.ogg
182,192,68000,128,0,68200:0:0:0:0:PianoKEYS_43.ogg
475,192,68200,1,0,0:0:0:0:TranceHHKEYS_01.ogg
256,192,68200,128,0,68400:0:0:0:0:PianoKEYS_46.ogg
36,192,68400,1,0,0:0:0:0:BeatKEYS_01.ogg
329,192,68400,128,0,68600:0:0:0:0:PianoKEYS_49.ogg
475,192,68600,1,0,0:0:0:0:TranceHHKEYS_01.ogg
182,192,68600,128,0,68800:0:0:0:0:PianoKEYS_44.ogg
36,192,68800,1,0,0:0:0:0:BeatKEYS_01.ogg
475,192,69000,1,0,0:0:0:0:TranceHHKEYS_01.ogg
36,192,69200,1,0,0:0:0:0:BeatKEYS_01.ogg
475,192,69400,1,0,0:0:0:0:TranceHHKEYS_01.ogg
109,192,69400,128,0,69600:0:0:0:0:PianoKEYS_41.ogg
36,192,69600,1,0,0:0:0:0:BeatKEYS_01.ogg
182,192,69600,128,0,69800:0:0:0:0:PianoKEYS_43.ogg
475,192,69800,1,0,0:0:0:0:TranceHHKEYS_01.ogg
256,192,69800,128,0,70000:0:0:0:0:PianoKEYS_46.ogg
36,192,70000,1,0,0:0:0:0:BeatKEYS_01.ogg
329,192,70000,128,0,70200:0:0:0:0:PianoKEYS_49.ogg
475,192,70200,1,0,0:0:0:0:TranceHHKEYS_01.ogg
182,192,70200,128,0,70400:0:0:0:0:PianoKEYS_44.ogg
36,192,70400,1,0,0:0:0:0:BeatKEYS_01.ogg
475,192,70600,1,0,0:0:0:0:TranceHHKEYS_01.ogg
36,192,70800,1,0,0:0:0:0:BeatKEYS_01.ogg
475,192,71000,1,0,0:0:0:0:TranceHHKEYS_01.ogg
182,192,71000,128,0,71200:0:0:0:0:PianoKEYS_43.ogg
36,192,71200,1,0,0:0:0:0:BeatKEYS_01.ogg
256,192,71200,128,0,71400:0:0:0:0:PianoKEYS_45.ogg
475,192,71400,1,0,0:0:0:0:TranceHHKEYS_01.ogg
329,192,71400,128,0,71600:0:0:0:0:PianoKEYS_50.ogg
36,192,71600,1,0,0:0:0:0:BeatKEYS_01.ogg
402,192,71600,128,0,71800:0:0:0:0:PianoKEYS_55.ogg
475,192,71800,1,0,0:0:0:0:TranceHHKEYS_01.ogg
256,192,71900,1,0,0:0:0:0:PianoKEYS_54.ogg
402,192,72000,1,0,0:0:0:0:PianoKEYS_55.ogg
36,192,72000,1,0,0:0:0:0:BeatKEYS_01.ogg
475,192,72200,1,0,0:0:0:0:TranceHHKEYS_01.ogg
182,192,72300,1,0,0:0:0:0:PianoKEYS_52.ogg
329,192,72400,1,0,0:0:0:0:PianoKEYS_53.ogg
36,192,72400,1,0,0:0:0:0:BeatKEYS_01.ogg
475,192,72600,1,0,0:0:0:0:TranceHHKEYS_01.ogg
109,192,72700,1,0,0:0:0:0:PianoKEYS_50.ogg
256,192,72800,1,0,0:0:0:0:PianoKEYS_51.ogg
36,192,72800,1,0,0:0:0:0:BeatKEYS_01.ogg
475,192,73000,1,0,0:0:0:0:TranceHHKEYS_01.ogg
329,192,73100,1,0,0:0:0:0:PianoKEYS_48.ogg
182,192,73200,1,0,0:0:0:0:PianoKEYS_42.ogg
36,192,73200,1,0,0:0:0:0:BeatKEYS_01.ogg
475,192,73400,1,0,0:0:0:0:TranceHHKEYS_01.ogg
36,192,73600,1,0,0:0:0:0:BeatKEYS_01.ogg
329,192,73600,128,0,73800:0:0:0:0:PianoKEYS_44.ogg
475,192,73800,1,0,0:0:0:0:TranceHHKEYS_01.ogg
36,192,74000,1,0,0:0:0:0:BeatKEYS_01.ogg
475,192,74200,1,0,0:0:0:0:TranceHHKEYS_01.ogg
402,192,74200,128,0,74400:0:0:0:0:PianoKEYS_41.ogg
36,192,74400,1,0,0:0:0:0:BeatKEYS_01.ogg
329,192,74400,128,0,74600:0:0:0:0:PianoKEYS_43.ogg
475,192,74600,1,0,0:0:0:0:TranceHHKEYS_01.ogg
256,192,74600,128,0,74800:0:0:0:0:PianoKEYS_46.ogg
36,192,74800,1,0,0:0:0:0:BeatKEYS_01.ogg
182,192,74800,128,0,75000:0:0:0:0:PianoKEYS_49.ogg
475,192,75000,1,0,0:0:0:0:TranceHHKEYS_01.ogg
329,192,75000,128,0,75200:0:0:0:0:PianoKEYS_44.ogg
36,192,75200,1,0,0:0:0:0:BeatKEYS_01.ogg
475,192,75400,1,0,0:0:0:0:TranceHHKEYS_01.ogg
36,192,75600,1,0,0:0:0:0:BeatKEYS_01.ogg
475,192,75800,1,0,0:0:0:0:TranceHHKEYS_01.ogg
402,192,75800,128,0,76000:0:0:0:0:PianoKEYS_41.ogg
36,192,76000,1,0,0:0:0:0:BeatKEYS_01.ogg
329,192,76000,128,0,76200:0:0:0:0:PianoKEYS_43.ogg
475,192,76200,1,0,0:0:0:0:TranceHHKEYS_01.ogg
256,192,76200,128,0,76400:0:0:0:0:PianoKEYS_46.ogg
36,192,76400,1,0,0:0:0:0:BeatKEYS_01.ogg
182,192,76400,128,0,76600:0:0:0:0:PianoKEYS_49.ogg
475,192,76600,1,0,0:0:0:0:TranceHHKEYS_01.ogg
329,192,76600,128,0,76800:0:0:0:0:PianoKEYS_44.ogg
36,192,76800,1,0,0:0:0:0:BeatKEYS_01.ogg
475,192,77000,1,0,0:0:0:0:TranceHHKEYS_01.ogg
36,192,77200,1,0,0:0:0:0:BeatKEYS_01.ogg
475,192,77400,1,0,0:0:0:0:TranceHHKEYS_01.ogg
329,192,77400,128,0,77600:0:0:0:0:PianoKEYS_43.ogg
36,192,77600,1,0,0:0:0:0:BeatKEYS_01.ogg
256,192,77600,128,0,77800:0:0:0:0:PianoKEYS_45.ogg
475,192,77800,1,0,0:0:0:0:TranceHHKEYS_01.ogg
182,192,77800,128,0,78000:0:0:0:0:PianoKEYS_50.ogg
36,192,78000,1,0,0:0:0:0:BeatKEYS_01.ogg
109,192,78000,128,0,78200:0:0:0:0:PianoKEYS_55.ogg
475,192,78200,1,0,0:0:0:0:TranceHHKEYS_01.ogg
256,192,78300,1,0,0:0:0:0:PianoKEYS_54.ogg
109,192,78400,1,0,0:0:0:0:PianoKEYS_55.ogg
36,192,78400,1,0,0:0:0:0:BeatKEYS_01.ogg
475,192,78600,1,0,0:0:0:0:TranceHHKEYS_01.ogg
329,192,78700,1,0,0:0:0:0:PianoKEYS_52.ogg
182,192,78800,1,0,0:0:0:0:PianoKEYS_53.ogg
36,192,78800,1,0,0:0:0:0:BeatKEYS_01.ogg
475,192,79000,1,0,0:0:0:0:TranceHHKEYS_01.ogg
402,192,79100,1,0,0:0:0:0:PianoKEYS_50.ogg
256,192,79200,1,0,0:0:0:0:PianoKEYS_51.ogg
36,192,79200,1,0,0:0:0:0:BeatKEYS_01.ogg
475,192,79400,1,0,0:0:0:0:TranceHHKEYS_01.ogg
182,192,79500,1,0,0:0:0:0:PianoKEYS_48.ogg
329,192,79600,1,0,0:0:0:0:PianoKEYS_42.ogg
36,192,79600,1,0,0:0:0:0:BeatKEYS_01.ogg
475,192,79800,1,0,0:0:0:0:TranceHHKEYS_01.ogg
36,192,80000,1,0,0:0:0:0:BeatKEYS_01.ogg
256,192,80000,128,0,80100:0:0:0:0:LazuriKEYS_13.ogg
475,192,80100,128,0,80200:0:0:0:0:LazuriKEYS_13.ogg
256,192,80200,128,0,80300:0:0:0:0:LazuriKEYS_14.ogg
36,192,80400,1,0,0:0:0:0:BeatKEYS_01.ogg
475,192,80400,128,0,80500:0:0:0:0:LazuriKEYS_13.ogg
256,192,80500,128,0,80600:0:0:0:0:LazuriKEYS_13.ogg
475,192,80600,128,0,80700:0:0:0:0:LazuriKEYS_13.ogg
109,192,80700,128,0,80800:0:0:0:0:LazuriKEYS_11.ogg
402,192,80700,128,0,80800:0:0:0:0:LazuriKEYS_16.ogg
36,192,80800,1,0,0:0:0:0:BeatKEYS_01.ogg
329,192,80900,128,0,81000:0:0:0:0:LazuriKEYS_15.ogg
109,192,81000,128,0,81100:0:0:0:0:LazuriKEYS_11.ogg
402,192,81000,128,0,81100:0:0:0:0:LazuriKEYS_16.ogg
36,192,81200,1,0,0:0:0:0:BeatKEYS_01.ogg
329,192,81200,128,0,81300:0:0:0:0:LazuriKEYS_15.ogg
182,192,81300,128,0,81400:0:0:0:0:LazuriKEYS_15.ogg
329,192,81400,128,0,81500:0:0:0:0:LazuriKEYS_15.ogg
182,192,81500,128,0,81600:0:0:0:0:LazuriKEYS_15.ogg
36,192,81600,1,0,0:0:0:0:BeatKEYS_01.ogg
475,192,81600,128,0,81700:0:0:0:0:LazuriKEYS_13.ogg
256,192,81700,128,0,81800:0:0:0:0:LazuriKEYS_13.ogg
475,192,81800,128,0,81900:0:0:0:0:LazuriKEYS_14.ogg
36,192,82000,1,0,0:0:0:0:BeatKEYS_01.ogg
256,192,82000,128,0,82100:0:0:0:0:LazuriKEYS_13.ogg
475,192,82100,128,0,82200:0:0:0:0:LazuriKEYS_13.ogg
256,192,82200,128,0,82300:0:0:0:0:LazuriKEYS_13.ogg
109,192,82300,128,0,82400:0:0:0:0:LazuriKEYS_09.ogg
329,192,82300,128,0,82400:0:0:0:0:LazuriKEYS_02.ogg
36,192,82400,1,0,0:0:0:0:BeatKEYS_01.ogg
182,192,82500,128,0,82600:0:0:0:0:LazuriKEYS_08.ogg
256,192,82600,128,0,82700:0:0:0:0:LazuriKEYS_11.ogg
402,192,82600,128,0,82700:0:0:0:0:LazuriKEYS_04.ogg
36,192,82800,1,0,0:0:0:0:BeatKEYS_01.ogg
329,192,82800,128,0,82900:0:0:0:0:LazuriKEYS_12.ogg
475,192,82800,128,0,82900:0:0:0:0:LazuriKEYS_09.ogg
256,192,83000,128,0,83100:0:0:0:0:LazuriKEYS_11.ogg
402,192,83000,128,0,83100:0:0:0:0:LazuriKEYS_04.ogg
475,192,83200,1,0,0:0:0:0:BeatKEYS_01.ogg
109,192,83200,128,0,83300:0:0:0:0:LazuriKEYS_10.ogg
329,192,83300,128,0,83400:0:0:0:0:LazuriKEYS_10.ogg
109,192,83400,128,0,83500:0:0:0:0:LazuriKEYS_11.ogg
475,192,83600,1,0,0:0:0:0:BeatKEYS_01.ogg
329,192,83600,128,0,83700:0:0:0:0:LazuriKEYS_10.ogg
109,192,83700,128,0,83800:0:0:0:0:LazuriKEYS_10.ogg
329,192,83800,128,0,83900:0:0:0:0:LazuriKEYS_10.ogg
402,192,83900,128,0,84000:0:0:0:0:LazuriKEYS_09.ogg
36,192,83900,128,0,84000:0:0:0:0:LazuriKEYS_04.ogg
475,192,84000,1,0,0:0:0:0:BeatKEYS_01.ogg
329,192,84100,128,0,84200:0:0:0:0:LazuriKEYS_08.ogg
402,192,84200,128,0,84300:0:0:0:0:LazuriKEYS_09.ogg
36,192,84200,128,0,84300:0:0:0:0:LazuriKEYS_04.ogg
475,192,84400,1,0,0:0:0:0:BeatKEYS_01.ogg
329,192,84400,128,0,84500:0:0:0:0:LazuriKEYS_08.ogg
182,192,84500,128,0,84600:0:0:0:0:LazuriKEYS_08.ogg
329,192,84600,128,0,84700:0:0:0:0:LazuriKEYS_08.ogg
182,192,84700,128,0,84800:0:0:0:0:LazuriKEYS_08.ogg
475,192,84800,1,0,0:0:0:0:BeatKEYS_01.ogg
329,192,84800,128,0,84900:0:0:0:0:LazuriKEYS_10.ogg
109,192,84900,128,0,85000:0:0:0:0:LazuriKEYS_10.ogg
329,192,85000,128,0,85100:0:0:0:0:LazuriKEYS_11.ogg
475,192,85200,1,0,0:0:0:0:BeatKEYS_01.ogg
109,192,85200,128,0,85300:0:0:0:0:LazuriKEYS_10.ogg
329,192,85300,128,0,85400:0:0:0:0:LazuriKEYS_10.ogg
109,192,85400,128,0,85500:0:0:0:0:LazuriKEYS_10.ogg
256,192,85500,128,0,85600:0:0:0:0:LazuriKEYS_41.ogg
402,192,85500,128,0,85600:0:0:0:0:LazuriKEYS_02.ogg
475,192,85600,1,0,0:0:0:0:BeatKEYS_01.ogg
182,192,85700,128,0,85800:0:0:0:0:LazuriKEYS_40.ogg
109,192,85800,128,0,85900:0:0:0:0:LazuriKEYS_04.ogg
256,192,85800,128,0,85900:0:0:0:0:LazuriKEYS_02.ogg
475,192,86000,1,0,0:0:0:0:BeatKEYS_01.ogg
329,192,86000,128,0,86100:0:0:0:0:LazuriKEYS_41.ogg
36,192,86000,128,0,86100:0:0:0:0:LazuriKEYS_07.ogg
109,192,86200,128,0,86300:0:0:0:0:LazuriKEYS_04.ogg
256,192,86200,128,0,86300:0:0:0:0:LazuriKEYS_02.ogg
36,192,86400,1,0,0:0:0:0:BeatKEYS_01.ogg
475,192,86400,128,0,86500:0:0:0:0:LazuriKEYS_13.ogg
182,192,86500,128,0,86600:0:0:0:0:LazuriKEYS_13.ogg
475,192,86600,128,0,86700:0:0:0:0:LazuriKEYS_14.ogg
36,192,86800,1,0,0:0:0:0:BeatKEYS_01.ogg
182,192,86800,128,0,86900:0:0:0:0:LazuriKEYS_13.ogg
475,192,86900,128,0,87000:0:0:0:0:LazuriKEYS_13.ogg
182,192,87000,128,0,87100:0:0:0:0:LazuriKEYS_13.ogg
109,192,87100,128,0,87200:0:0:0:0:LazuriKEYS_16.ogg
402,192,87100,128,0,87200:0:0:0:0:LazuriKEYS_11.ogg
36,192,87200,1,0,0:0:0:0:BeatKEYS_01.ogg
329,192,87300,128,0,87400:0:0:0:0:LazuriKEYS_15.ogg
109,192,87400,128,0,87500:0:0:0:0:LazuriKEYS_16.ogg
402,192,87400,128,0,87500:0:0:0:0:LazuriKEYS_11.ogg
36,192,87600,1,0,0:0:0:0:BeatKEYS_01.ogg
329,192,87600,128,0,87700:0:0:0:0:LazuriKEYS_15.ogg
256,192,87700,128,0,87800:0:0:0:0:LazuriKEYS_15.ogg
329,192,87800,128,0,87900:0:0:0:0:LazuriKEYS_15.ogg
256,192,87900,128,0,88000:0:0:0:0:LazuriKEYS_15.ogg
36,192,88000,1,0,0:0:0:0:BeatKEYS_01.ogg
182,192,88000,128,0,88100:0:0:0:0:LazuriKEYS_13.ogg
475,192,88100,128,0,88200:0:0:0:0:LazuriKEYS_13.ogg
182,192,88200,128,0,88300:0:0:0:0:LazuriKEYS_14.ogg
36,192,88400,1,0,0:0:0:0:BeatKEYS_01.ogg
475,192,88400,128,0,88500:0:0:0:0:LazuriKEYS_13.ogg
182,192,88500,128,0,88600:0:0:0:0:LazuriKEYS_13.ogg
475,192,88600,128,0,88700:0:0:0:0:LazuriKEYS_13.ogg
109,192,88700,128,0,88800:0:0:0:0:LazuriKEYS_02.ogg
256,192,88700,128,0,88800:0:0:0:0:LazuriKEYS_09.ogg
36,192,88800,1,0,0:0:0:0:BeatKEYS_01.ogg
182,192,88900,128,0,89000:0:0:0:0:LazuriKEYS_08.ogg
256,192,89000,128,0,89100:0:0:0:0:LazuriKEYS_04.ogg
329,192,89000,128,0,89100:0:0:0:0:LazuriKEYS_11.ogg
36,192,89200,1,0,0:0:0:0:BeatKEYS_01.ogg
402,192,89200,128,0,89300:0:0:0:0:LazuriKEYS_09.ogg
475,192,89200,128,0,89300:0:0:0:0:LazuriKEYS_12.ogg
256,192,89400,128,0,89500:0:0:0:0:LazuriKEYS_04.ogg
329,192,89400,128,0,89500:0:0:0:0:LazuriKEYS_11.ogg
475,192,89600,1,0,0:0:0:0:BeatKEYS_01.ogg
109,192,89600,128,0,89700:0:0:0:0:LazuriKEYS_10.ogg
402,192,89700,128,0,89800:0:0:0:0:LazuriKEYS_10.ogg
109,192,89800,128,0,89900:0:0:0:0:LazuriKEYS_11.ogg
475,192,90000,1,0,0:0:0:0:BeatKEYS_01.ogg
402,192,90000,128,0,90100:0:0:0:0:LazuriKEYS_10.ogg
109,192,90100,128,0,90200:0:0:0:0:LazuriKEYS_10.ogg
402,192,90200,128,0,90300:0:0:0:0:LazuriKEYS_10.ogg
329,192,90300,128,0,90400:0:0:0:0:LazuriKEYS_09.ogg
36,192,90300,128,0,90400:0:0:0:0:LazuriKEYS_04.ogg
475,192,90400,1,0,0:0:0:0:BeatKEYS_01.ogg
182,192,90500,128,0,90600:0:0:0:0:LazuriKEYS_08.ogg
329,192,90600,128,0,90700:0:0:0:0:LazuriKEYS_09.ogg
36,192,90600,128,0,90700:0:0:0:0:LazuriKEYS_04.ogg
475,192,90800,1,0,0:0:0:0:BeatKEYS_01.ogg
182,192,90800,128,0,90900:0:0:0:0:LazuriKEYS_08.ogg
256,192,90900,128,0,91000:0:0:0:0:LazuriKEYS_08.ogg
182,192,91000,128,0,91100:0:0:0:0:LazuriKEYS_08.ogg
256,192,91100,128,0,91200:0:0:0:0:LazuriKEYS_08.ogg
475,192,91200,1,0,0:0:0:0:BeatKEYS_01.ogg
402,192,91200,128,0,91300:0:0:0:0:LazuriKEYS_10.ogg
109,192,91300,128,0,91400:0:0:0:0:LazuriKEYS_10.ogg
402,192,91400,128,0,91500:0:0:0:0:LazuriKEYS_11.ogg
475,192,91600,1,0,0:0:0:0:BeatKEYS_01.ogg
109,192,91600,128,0,91700:0:0:0:0:LazuriKEYS_10.ogg
402,192,91700,128,0,91800:0:0:0:0:LazuriKEYS_10.ogg
109,192,91800,128,0,91900:0:0:0:0:LazuriKEYS_10.ogg
329,192,91900,1,0,0:0:0:0:LazuriKEYS_18.ogg
182,192,92000,1,0,0:0:0:0:LazuriKEYS_18.ogg
402,192,92100,1,0,0:0:0:0:LazuriKEYS_18.ogg
109,192,92200,1,0,0:0:0:0:LazuriKEYS_19.ogg
475,192,92300,1,0,0:0:0:0:LazuriKEYS_19.ogg
36,192,92400,1,0,0:0:0:0:LazuriKEYS_20.ogg
402,192,92500,1,0,0:0:0:0:LazuriKEYS_20.ogg
109,192,92600,1,0,0:0:0:0:LazuriKEYS_19.ogg
329,192,92700,1,0,0:0:0:0:LazuriKEYS_19.ogg
182,192,92800,1,0,0:0:0:0:PianoKEYS_63.ogg
109,192,92900,1,0,0:0:0:0:PianoKEYS_57.ogg
402,192,93000,1,0,0:0:0:0:PianoKEYS_64.ogg
109,192,93100,1,0,0:0:0:0:PianoKEYS_57.ogg
402,192,93200,1,0,0:0:0:0:PianoKEYS_64.ogg
109,192,93300,1,0,0:0:0:0:PianoKEYS_57.ogg
402,192,93400,1,0,0:0:0:0:PianoKEYS_64.ogg
109,192,93500,1,0,0:0:0:0:PianoKEYS_57.ogg
109,192,93700,1,0,0:0:0:0:PianoKEYS_57.ogg
475,192,93800,128,0,93900:0:0:0:0:PianoKEYS_64.ogg
402,192,93900,128,0,94000:0:0:0:0:PianoKEYS_63.ogg
329,192,94000,128,0,94100:0:0:0:0:PianoKEYS_61.ogg
182,192,94100,128,0,94200:0:0:0:0:PianoKEYS_60.ogg
109,192,94200,128,0,94300:0:0:0:0:PianoKEYS_59.ogg
36,192,94300,128,0,94400:0:0:0:0:PianoKEYS_58.ogg
256,192,94400,1,0,0:0:0:0:PianoKEYS_71.ogg
182,192,94500,1,0,0:0:0:0:PianoKEYS_64.ogg
475,192,94600,1,0,0:0:0:0:PianoKEYS_72.ogg
182,192,94700,1,0,0:0:0:0:PianoKEYS_64.ogg
475,192,94800,1,0,0:0:0:0:PianoKEYS_72.ogg
182,192,94900,1,0,0:0:0:0:PianoKEYS_64.ogg
475,192,95000,1,0,0:0:0:0:PianoKEYS_72.ogg
182,192,95100,1,0,0:0:0:0:PianoKEYS_64.ogg
182,192,95300,1,0,0:0:0:0:PianoKEYS_64.ogg
36,192,95400,128,0,95500:0:0:0:0:PianoKEYS_72.ogg
109,192,95500,128,0,95600:0:0:0:0:PianoKEYS_71.ogg
182,192,95600,128,0,95700:0:0:0:0:PianoKEYS_69.ogg
329,192,95700,128,0,95800:0:0:0:0:PianoKEYS_68.ogg
402,192,95800,128,0,95900:0:0:0:0:PianoKEYS_67.ogg
475,192,95900,128,0,96000:0:0:0:0:PianoKEYS_65.ogg
182,192,96000,1,0,0:0:0:0:PianoKEYS_63.ogg
109,192,96100,1,0,0:0:0:0:PianoKEYS_57.ogg
402,192,96200,1,0,0:0:0:0:PianoKEYS_64.ogg
109,192,96300,1,0,0:0:0:0:PianoKEYS_57.ogg
402,192,96400,1,0,0:0:0:0:PianoKEYS_64.ogg
109,192,96500,1,0,0:0:0:0:PianoKEYS_57.ogg
402,192,96600,1,0,0:0:0:0:PianoKEYS_64.ogg
109,192,96700,1,0,0:0:0:0:PianoKEYS_57.ogg
109,192,96900,1,0,0:0:0:0:PianoKEYS_57.ogg
475,192,97000,128,0,97100:0:0:0:0:PianoKEYS_64.ogg
402,192,97100,128,0,97200:0:0:0:0:PianoKEYS_63.ogg
329,192,97200,128,0,97300:0:0:0:0:PianoKEYS_61.ogg
182,192,97300,128,0,97400:0:0:0:0:PianoKEYS_60.ogg
109,192,97400,128,0,97500:0:0:0:0:PianoKEYS_59.ogg
36,192,97500,128,0,97600:0:0:0:0:PianoKEYS_58.ogg
256,192,97600,1,0,0:0:0:0:PianoKEYS_71.ogg
182,192,97700,1,0,0:0:0:0:PianoKEYS_64.ogg
475,192,97800,1,0,0:0:0:0:PianoKEYS_72.ogg
182,192,97900,1,0,0:0:0:0:PianoKEYS_64.ogg
475,192,98000,1,0,0:0:0:0:PianoKEYS_72.ogg
182,192,98100,1,0,0:0:0:0:PianoKEYS_64.ogg
475,192,98200,1,0,0:0:0:0:PianoKEYS_72.ogg
182,192,98300,1,0,0:0:0:0:PianoKEYS_64.ogg
182,192,98500,1,0,0:0:0:0:PianoKEYS_64.ogg
36,192,98600,128,0,98700:0:0:0:0:PianoKEYS_72.ogg
109,192,98700,128,0,98800:0:0:0:0:PianoKEYS_71.ogg
182,192,98800,128,0,98900:0:0:0:0:PianoKEYS_69.ogg
329,192,98900,128,0,99000:0:0:0:0:PianoKEYS_68.ogg
402,192,99000,128,0,99100:0:0:0:0:PianoKEYS_67.ogg
475,192,99100,128,0,99200:0:0:0:0:PianoKEYS_65.ogg
182,192,99200,1,0,0:0:0:0:PianoKEYS_63.ogg
109,192,99300,1,0,0:0:0:0:PianoKEYS_57.ogg
402,192,99400,1,0,0:0:0:0:PianoKEYS_64.ogg
109,192,99500,1,0,0:0:0:0:PianoKEYS_57.ogg
402,192,99600,1,0,0:0:0:0:PianoKEYS_64.ogg
109,192,99700,1,0,0:0:0:0:PianoKEYS_57.ogg
402,192,99800,1,0,0:0:0:0:PianoKEYS_64.ogg
109,192,99900,1,0,0:0:0:0:PianoKEYS_57.ogg
402,192,100100,1,0,0:0:0:0:PianoKEYS_64.ogg
109,192,100200,1,0,0:0:0:0:PianoKEYS_57.ogg
402,192,100300,1,0,0:0:0:0:PianoKEYS_64.ogg
475,192,100500,1,0,0:0:0:0:PianoKEYS_72.ogg
329,192,100600,1,0,0:0:0:0:PianoKEYS_64.ogg
475,192,100700,1,0,0:0:0:0:PianoKEYS_72.ogg
402,192,100900,1,0,0:0:0:0:PianoKEYS_71.ogg
256,192,101000,1,0,0:0:0:0:PianoKEYS_63.ogg
402,192,101100,1,0,0:0:0:0:PianoKEYS_71.ogg
329,192,101300,1,0,0:0:0:0:PianoKEYS_70.ogg
182,192,101400,1,0,0:0:0:0:PianoKEYS_62.ogg
329,192,101500,1,0,0:0:0:0:PianoKEYS_70.ogg
256,192,101700,1,0,0:0:0:0:PianoKEYS_69.ogg
109,192,101800,1,0,0:0:0:0:PianoKEYS_61.ogg
256,192,101900,1,0,0:0:0:0:PianoKEYS_69.ogg
182,192,102100,1,0,0:0:0:0:PianoKEYS_68.ogg
36,192,102200,1,0,0:0:0:0:PianoKEYS_60.ogg
182,192,102300,1,0,0:0:0:0:PianoKEYS_68.ogg
329,192,102500,1,0,0:0:0:0:PianoKEYS_67.ogg
475,192,102600,1,0,0:0:0:0:PianoKEYS_59.ogg
329,192,102700,1,0,0:0:0:0:PianoKEYS_67.ogg
256,192,102900,1,0,0:0:0:0:PianoKEYS_66.ogg
402,192,103000,1,0,0:0:0:0:PianoKEYS_76.ogg
256,192,103100,1,0,0:0:0:0:PianoKEYS_66.ogg
182,192,103300,1,0,0:0:0:0:PianoKEYS_65.ogg
329,192,103400,1,0,0:0:0:0:PianoKEYS_58.ogg
182,192,103500,1,0,0:0:0:0:PianoKEYS_65.ogg
109,192,103700,1,0,0:0:0:0:PianoKEYS_63.ogg
256,192,103800,1,0,0:0:0:0:PianoKEYS_56.ogg
109,192,103900,1,0,0:0:0:0:PianoKEYS_63.ogg
402,192,104000,1,0,0:0:0:0:BeatKEYS_01.ogg
36,192,104000,1,0,0:0:0:0:ChordKEYS_21.ogg
475,192,104000,1,0,0:0:0:0:StringsKEYS_01.ogg
109,192,104400,1,0,0:0:0:0:ChordKEYS_22.ogg
329,192,104400,1,0,0:0:0:0:StringsKEYS_02.ogg
182,192,104800,1,0,0:0:0:0:ChordKEYS_23.ogg
256,192,104800,1,0,0:0:0:0:BeatKEYS_01.ogg
402,192,104800,1,0,0:0:0:0:StringsKEYS_03.ogg
36,192,105200,1,0,0:0:0:0:ChordKEYS_24.ogg
475,192,105200,1,0,0:0:0:0:StringsKEYS_04.ogg
329,192,105600,1,0,0:0:0:0:LazuriKEYS_25.ogg
475,192,105600,1,0,0:0:0:0:BeatKEYS_01.ogg
256,192,105700,1,0,0:0:0:0:LazuriKEYS_24.ogg
182,192,105800,1,0,0:0:0:0:LazuriKEYS_23.ogg
109,192,105900,1,0,0:0:0:0:LazuriKEYS_22.ogg
36,192,106000,1,0,0:0:0:0:LazuriKEYS_21.ogg
256,192,106100,1,0,0:0:0:0:LazuriKEYS_24.ogg
329,192,106200,1,0,0:0:0:0:LazuriKEYS_26.ogg
402,192,106300,1,0,0:0:0:0:LazuriKEYS_29.ogg
475,192,106400,1,0,0:0:0:0:LazuriKEYS_30.ogg
402,192,106500,1,0,0:0:0:0:LazuriKEYS_29.ogg
329,192,106600,1,0,0:0:0:0:LazuriKEYS_28.ogg
256,192,106700,1,0,0:0:0:0:LazuriKEYS_26.ogg
329,192,106800,1,0,0:0:0:0:LazuriKEYS_28.ogg
402,192,106900,1,0,0:0:0:0:LazuriKEYS_29.ogg
256,192,107000,1,0,0:0:0:0:LazuriKEYS_26.ogg
329,192,107100,1,0,0:0:0:0:LazuriKEYS_28.ogg
402,192,107200,1,0,0:0:0:0:LazuriKEYS_29.ogg
36,192,107200,1,0,0:0:0:0:BeatKEYS_01.ogg
329,192,107300,1,0,0:0:0:0:LazuriKEYS_28.ogg
256,192,107400,1,0,0:0:0:0:LazuriKEYS_26.ogg
109,192,107500,1,0,0:0:0:0:LazuriKEYS_25.ogg
36,192,107600,1,0,0:0:0:0:LazuriKEYS_22.ogg
109,192,107700,1,0,0:0:0:0:LazuriKEYS_25.ogg
256,192,107800,1,0,0:0:0:0:LazuriKEYS_28.ogg
402,192,107900,1,0,0:0:0:0:LazuriKEYS_30.ogg
475,192,108000,1,0,0:0:0:0:LazuriKEYS_31.ogg
402,192,108100,1,0,0:0:0:0:LazuriKEYS_30.ogg
329,192,108200,1,0,0:0:0:0:LazuriKEYS_29.ogg
256,192,108300,1,0,0:0:0:0:LazuriKEYS_28.ogg
329,192,108400,1,0,0:0:0:0:LazuriKEYS_29.ogg
402,192,108500,1,0,0:0:0:0:LazuriKEYS_30.ogg
256,192,108600,1,0,0:0:0:0:LazuriKEYS_28.ogg
329,192,108700,1,0,0:0:0:0:LazuriKEYS_29.ogg
109,192,108800,1,0,0:0:0:0:BeatKEYS_01.ogg
402,192,108800,1,0,0:0:0:0:LazuriKEYS_30.ogg
329,192,108900,1,0,0:0:0:0:LazuriKEYS_29.ogg
256,192,109000,1,0,0:0:0:0:LazuriKEYS_28.ogg
182,192,109100,1,0,0:0:0:0:LazuriKEYS_27.ogg
36,192,109200,1,0,0:0:0:0:LazuriKEYS_23.ogg
182,192,109300,1,0,0:0:0:0:LazuriKEYS_27.ogg
329,192,109400,1,0,0:0:0:0:LazuriKEYS_29.ogg
402,192,109500,1,0,0:0:0:0:LazuriKEYS_31.ogg
475,192,109600,1,0,0:0:0:0:LazuriKEYS_32.ogg
329,192,109700,1,0,0:0:0:0:LazuriKEYS_31.ogg
182,192,109800,1,0,0:0:0:0:LazuriKEYS_30.ogg
36,192,109900,1,0,0:0:0:0:LazuriKEYS_29.ogg
256,192,110000,1,0,0:0:0:0:LazuriKEYS_30.ogg
402,192,110100,1,0,0:0:0:0:LazuriKEYS_31.ogg
182,192,110200,1,0,0:0:0:0:LazuriKEYS_29.ogg
329,192,110300,1,0,0:0:0:0:LazuriKEYS_30.ogg
402,192,110400,1,0,0:0:0:0:BeatKEYS_01.ogg
36,192,110400,1,0,0:0:0:0:LazuriKEYS_24.ogg
182,192,110500,1,0,0:0:0:0:LazuriKEYS_28.ogg
329,192,110600,1,0,0:0:0:0:LazuriKEYS_30.ogg
402,192,110700,1,0,0:0:0:0:LazuriKEYS_32.ogg
475,192,110800,1,0,0:0:0:0:LazuriKEYS_33.ogg
402,192,110900,1,0,0:0:0:0:LazuriKEYS_32.ogg
329,192,111000,1,0,0:0:0:0:LazuriKEYS_31.ogg
256,192,111100,1,0,0:0:0:0:LazuriKEYS_30.ogg
182,192,111200,1,0,0:0:0:0:LazuriKEYS_29.ogg
109,192,111300,1,0,0:0:0:0:LazuriKEYS_28.ogg
36,192,111400,1,0,0:0:0:0:LazuriKEYS_26.ogg
475,192,111500,1,0,0:0:0:0:LazuriKEYS_25.ogg
402,192,111600,1,0,0:0:0:0:LazuriKEYS_24.ogg
329,192,111700,1,0,0:0:0:0:LazuriKEYS_23.ogg
256,192,111800,1,0,0:0:0:0:LazuriKEYS_22.ogg
182,192,111900,1,0,0:0:0:0:LazuriKEYS_21.ogg
36,192,112000,1,0,0:0:0:0:LazuriKEYS_24.ogg
475,192,112000,1,0,0:0:0:0:BeatKEYS_01.ogg
109,192,112100,1,0,0:0:0:0:LazuriKEYS_28.ogg
182,192,112200,1,0,0:0:0:0:LazuriKEYS_30.ogg
256,192,112300,1,0,0:0:0:0:LazuriKEYS_31.ogg
109,192,112400,1,0,0:0:0:0:LazuriKEYS_28.ogg
182,192,112500,1,0,0:0:0:0:LazuriKEYS_30.ogg
256,192,112600,1,0,0:0:0:0:LazuriKEYS_31.ogg
329,192,112700,1,0,0:0:0:0:LazuriKEYS_32.ogg
182,192,112800,1,0,0:0:0:0:LazuriKEYS_30.ogg
256,192,112900,1,0,0:0:0:0:LazuriKEYS_31.ogg
329,192,113000,1,0,0:0:0:0:LazuriKEYS_32.ogg
402,192,113100,1,0,0:0:0:0:LazuriKEYS_33.ogg
475,192,113200,1,0,0:0:0:0:LazuriKEYS_34.ogg
402,192,113300,1,0,0:0:0:0:LazuriKEYS_33.ogg
329,192,113400,1,0,0:0:0:0:LazuriKEYS_32.ogg
182,192,113500,1,0,0:0:0:0:LazuriKEYS_30.ogg
36,192,113600,1,0,0:0:0:0:LazuriKEYS_28.ogg
475,192,113600,1,0,0:0:0:0:BeatKEYS_01.ogg
182,192,113700,1,0,0:0:0:0:LazuriKEYS_30.ogg
36,192,113800,1,0,0:0:0:0:LazuriKEYS_28.ogg
182,192,113900,1,0,0:0:0:0:LazuriKEYS_30.ogg
36,192,114000,1,0,0:0:0:0:LazuriKEYS_31.ogg
109,192,114100,1,0,0:0:0:0:LazuriKEYS_33.ogg
182,192,114200,1,0,0:0:0:0:LazuriKEYS_35.ogg
256,192,114300,1,0,0:0:0:0:LazuriKEYS_36.ogg
182,192,114400,1,0,0:0:0:0:LazuriKEYS_35.ogg
109,192,114500,1,0,0:0:0:0:LazuriKEYS_33.ogg
182,192,114600,1,0,0:0:0:0:LazuriKEYS_35.ogg
256,192,114700,1,0,0:0:0:0:LazuriKEYS_36.ogg
329,192,114800,1,0,0:0:0:0:LazuriKEYS_37.ogg
402,192,114900,1,0,0:0:0:0:LazuriKEYS_38.ogg
475,192,115000,1,0,0:0:0:0:LazuriKEYS_39.ogg
182,192,115100,1,0,0:0:0:0:LazuriKEYS_35.ogg
36,192,115200,1,0,0:0:0:0:BeatKEYS_01.ogg
475,192,115200,128,0,115300:0:0:0:0:PianoKEYS_39.ogg
329,192,115300,128,0,115400:0:0:0:0:PianoKEYS_35.ogg
256,192,115400,128,0,115500:0:0:0:0:PianoKEYS_29.ogg
182,192,115500,128,0,115600:0:0:0:0:PianoKEYS_27.ogg
402,192,115600,128,0,115700:0:0:0:0:PianoKEYS_37.ogg
256,192,115700,128,0,115800:0:0:0:0:PianoKEYS_32.ogg
182,192,115800,128,0,115900:0:0:0:0:PianoKEYS_27.ogg
109,192,115900,128,0,116000:0:0:0:0:PianoKEYS_24.ogg
475,192,116000,128,0,116100:0:0:0:0:PianoKEYS_35.ogg
329,192,116100,128,0,116200:0:0:0:0:PianoKEYS_29.ogg
182,192,116200,128,0,116300:0:0:0:0:PianoKEYS_24.ogg
36,192,116300,128,0,116400:0:0:0:0:PianoKEYS_22.ogg
402,192,116400,128,0,116500:0:0:0:0:PianoKEYS_33.ogg
329,192,116500,128,0,116600:0:0:0:0:PianoKEYS_29.ogg
182,192,116600,128,0,116700:0:0:0:0:PianoKEYS_27.ogg
109,192,116700,128,0,116800:0:0:0:0:PianoKEYS_24.ogg
256,192,116800,1,0,0:0:0:0:LazuriKEYS_30.ogg
36,192,116800,1,0,0:0:0:0:BeatKEYS_01.ogg
329,192,116900,1,0,0:0:0:0:LazuriKEYS_31.ogg
256,192,117000,1,0,0:0:0:0:LazuriKEYS_30.ogg
182,192,117100,1,0,0:0:0:0:LazuriKEYS_29.ogg
109,192,117200,1,0,0:0:0:0:LazuriKEYS_28.ogg
36,192,117300,1,0,0:0:0:0:LazuriKEYS_26.ogg
109,192,117400,1,0,0:0:0:0:LazuriKEYS_25.ogg
182,192,117500,1,0,0:0:0:0:LazuriKEYS_24.ogg
256,192,117600,1,0,0:0:0:0:LazuriKEYS_23.ogg
329,192,117700,1,0,0:0:0:0:LazuriKEYS_22.ogg
402,192,117800,1,0,0:0:0:0:PianoKEYS_18.ogg
475,192,117900,1,0,0:0:0:0:PianoKEYS_16.ogg
402,192,118000,1,0,0:0:0:0:PianoKEYS_15.ogg
36,192,118000,1,0,0:0:0:0:BeatKEYS_01.ogg
182,192,118100,1,0,0:0:0:0:BeatKEYS_01.ogg
329,192,118100,1,0,0:0:0:0:PianoKEYS_14.ogg
256,192,118200,1,0,0:0:0:0:PianoKEYS_13.ogg
36,192,118200,1,0,0:0:0:0:BeatKEYS_01.ogg
182,192,118300,1,0,0:0:0:0:BeatKEYS_01.ogg
402,192,118300,1,0,0:0:0:0:PianoKEYS_17.ogg
256,192,118400,1,0,0:0:0:0:LazuriTKEYS_08.ogg
36,192,118400,1,0,0:0:0:0:EffectsKEYS_02.ogg
402,192,118500,1,0,0:0:0:0:LazuriTKEYS_02.ogg
329,192,118600,1,0,0:0:0:0:LazuriTKEYS_04.ogg
256,192,118700,1,0,0:0:0:0:LazuriTKEYS_08.ogg
402,192,118800,1,0,0:0:0:0:BeatKEYS_01.ogg
475,192,118800,1,0,0:0:0:0:LazuriTKEYS_11.ogg
109,192,118900,1,0,0:0:0:0:BeatKEYS_01.ogg
182,192,118900,1,0,0:0:0:0:LazuriTKEYS_11.ogg
402,192,119000,1,0,0:0:0:0:BeatKEYS_01.ogg
475,192,119000,1,0,0:0:0:0:LazuriTKEYS_11.ogg
36,192,119100,1,0,0:0:0:0:LazuriTKEYS_01.ogg
109,192,119200,1,0,0:0:0:0:LazuriTKEYS_02.ogg
182,192,119300,1,0,0:0:0:0:LazuriTKEYS_04.ogg
256,192,119400,1,0,0:0:0:0:LazuriTKEYS_08.ogg
402,192,119500,1,0,0:0:0:0:LazuriTKEYS_11.ogg
475,192,119600,1,0,0:0:0:0:LazuriTKEYS_13.ogg
402,192,119700,1,0,0:0:0:0:LazuriTKEYS_11.ogg
329,192,119800,1,0,0:0:0:0:LazuriTKEYS_10.ogg
182,192,119900,1,0,0:0:0:0:LazuriTKEYS_07.ogg
256,192,120000,1,0,0:0:0:0:LazuriTKEYS_08.ogg
109,192,120100,1,0,0:0:0:0:LazuriTKEYS_02.ogg
182,192,120200,1,0,0:0:0:0:LazuriTKEYS_04.ogg
256,192,120300,1,0,0:0:0:0:LazuriTKEYS_08.ogg
109,192,120400,1,0,0:0:0:0:BeatKEYS_01.ogg
36,192,120400,1,0,0:0:0:0:LazuriTKEYS_11.ogg
329,192,120500,1,0,0:0:0:0:LazuriTKEYS_11.ogg
402,192,120500,1,0,0:0:0:0:BeatKEYS_01.ogg
109,192,120600,1,0,0:0:0:0:BeatKEYS_01.ogg
36,192,120600,1,0,0:0:0:0:LazuriTKEYS_11.ogg
475,192,120700,1,0,0:0:0:0:LazuriTKEYS_01.ogg
402,192,120800,1,0,0:0:0:0:LazuriTKEYS_02.ogg
329,192,120900,1,0,0:0:0:0:LazuriTKEYS_04.ogg
256,192,121000,1,0,0:0:0:0:LazuriTKEYS_08.ogg
109,192,121100,1,0,0:0:0:0:LazuriTKEYS_11.ogg
36,192,121200,1,0,0:0:0:0:LazuriTKEYS_13.ogg
109,192,121300,1,0,0:0:0:0:LazuriTKEYS_11.ogg
182,192,121400,1,0,0:0:0:0:LazuriTKEYS_10.ogg
329,192,121500,1,0,0:0:0:0:LazuriTKEYS_07.ogg
256,192,121600,1,0,0:0:0:0:LazuriTKEYS_08.ogg
402,192,121700,1,0,0:0:0:0:LazuriTKEYS_02.ogg
329,192,121800,1,0,0:0:0:0:LazuriTKEYS_04.ogg
256,192,121900,1,0,0:0:0:0:LazuriTKEYS_08.ogg
402,192,122000,1,0,0:0:0:0:BeatKEYS_01.ogg
475,192,122000,1,0,0:0:0:0:LazuriTKEYS_11.ogg
109,192,122100,1,0,0:0:0:0:BeatKEYS_01.ogg
182,192,122100,1,0,0:0:0:0:LazuriTKEYS_11.ogg
402,192,122200,1,0,0:0:0:0:BeatKEYS_01.ogg
475,192,122200,1,0,0:0:0:0:LazuriTKEYS_11.ogg
36,192,122300,1,0,0:0:0:0:LazuriTKEYS_01.ogg
109,192,122400,1,0,0:0:0:0:LazuriTKEYS_02.ogg
182,192,122500,1,0,0:0:0:0:LazuriTKEYS_04.ogg
256,192,122600,1,0,0:0:0:0:LazuriTKEYS_08.ogg
402,192,122700,1,0,0:0:0:0:LazuriTKEYS_11.ogg
475,192,122800,1,0,0:0:0:0:LazuriTKEYS_13.ogg
402,192,122900,1,0,0:0:0:0:LazuriTKEYS_11.ogg
329,192,123000,1,0,0:0:0:0:LazuriTKEYS_10.ogg
182,192,123100,1,0,0:0:0:0:LazuriTKEYS_07.ogg
256,192,123200,1,0,0:0:0:0:LazuriTKEYS_08.ogg
109,192,123300,1,0,0:0:0:0:LazuriTKEYS_02.ogg
182,192,123400,1,0,0:0:0:0:LazuriTKEYS_04.ogg
256,192,123500,1,0,0:0:0:0:LazuriTKEYS_08.ogg
109,192,123600,1,0,0:0:0:0:BeatKEYS_01.ogg
36,192,123600,1,0,0:0:0:0:LazuriTKEYS_11.ogg
329,192,123700,1,0,0:0:0:0:LazuriTKEYS_11.ogg
402,192,123700,1,0,0:0:0:0:BeatKEYS_01.ogg
109,192,123800,1,0,0:0:0:0:BeatKEYS_01.ogg
36,192,123800,1,0,0:0:0:0:LazuriTKEYS_11.ogg
475,192,123900,1,0,0:0:0:0:LazuriTKEYS_01.ogg
402,192,124000,1,0,0:0:0:0:LazuriTKEYS_02.ogg
329,192,124100,1,0,0:0:0:0:LazuriTKEYS_04.ogg
256,192,124200,1,0,0:0:0:0:LazuriTKEYS_08.ogg
109,192,124300,1,0,0:0:0:0:LazuriTKEYS_11.ogg
36,192,124400,1,0,0:0:0:0:LazuriTKEYS_13.ogg
109,192,124500,1,0,0:0:0:0:LazuriTKEYS_11.ogg
182,192,124600,1,0,0:0:0:0:LazuriTKEYS_10.ogg
329,192,124700,1,0,0:0:0:0:LazuriTKEYS_07.ogg
256,192,124800,1,0,0:0:0:0:LazuriTKEYS_08.ogg
109,192,124900,1,0,0:0:0:0:LazuriTKEYS_04.ogg
256,192,125000,1,0,0:0:0:0:LazuriTKEYS_08.ogg
402,192,125100,1,0,0:0:0:0:LazuriTKEYS_11.ogg
475,192,125200,1,0,0:0:0:0:LazuriTKEYS_13.ogg
329,192,125300,1,0,0:0:0:0:LazuriTKEYS_11.ogg
182,192,125400,1,0,0:0:0:0:LazuriTKEYS_10.ogg
36,192,125500,1,0,0:0:0:0:LazuriTKEYS_07.ogg
256,192,125600,1,0,0:0:0:0:LazuriTKEYS_08.ogg
109,192,125700,1,0,0:0:0:0:LazuriTKEYS_04.ogg
256,192,125800,1,0,0:0:0:0:LazuriTKEYS_08.ogg
402,192,125900,1,0,0:0:0:0:LazuriTKEYS_11.ogg
475,192,126000,1,0,0:0:0:0:LazuriTKEYS_13.ogg
329,192,126100,1,0,0:0:0:0:LazuriTKEYS_11.ogg
182,192,126200,1,0,0:0:0:0:LazuriTKEYS_10.ogg
36,192,126300,1,0,0:0:0:0:LazuriTKEYS_07.ogg
256,192,126400,1,0,0:0:0:0:LazuriTKEYS_08.ogg
109,192,126500,1,0,0:0:0:0:LazuriTKEYS_04.ogg
256,192,126600,1,0,0:0:0:0:LazuriTKEYS_08.ogg
402,192,126700,1,0,0:0:0:0:LazuriTKEYS_11.ogg
475,192,126800,1,0,0:0:0:0:LazuriTKEYS_13.ogg
329,192,126900,1,0,0:0:0:0:LazuriTKEYS_11.ogg
182,192,127000,1,0,0:0:0:0:LazuriTKEYS_10.ogg
36,192,127100,1,0,0:0:0:0:LazuriTKEYS_07.ogg
475,192,127200,1,0,0:0:0:0:LazuriTKEYS_13.ogg
329,192,127300,1,0,0:0:0:0:LazuriTKEYS_11.ogg
182,192,127400,1,0,0:0:0:0:LazuriTKEYS_10.ogg
36,192,127500,1,0,0:0:0:0:LazuriTKEYS_07.ogg
475,192,127600,1,0,0:0:0:0:LazuriTKEYS_13.ogg
329,192,127700,1,0,0:0:0:0:LazuriTKEYS_11.ogg
182,192,127800,1,0,0:0:0:0:LazuriTKEYS_10.ogg
36,192,127900,1,0,0:0:0:0:LazuriTKEYS_07.ogg
475,192,128000,128,0,128100:0:0:0:0:PianoKEYS_33.ogg
329,192,128100,128,0,128200:0:0:0:0:PianoKEYS_30.ogg
256,192,128200,128,0,128300:0:0:0:0:PianoKEYS_28.ogg
109,192,128300,128,0,128400:0:0:0:0:PianoKEYS_24.ogg
402,192,128400,128,0,128500:0:0:0:0:PianoKEYS_30.ogg
256,192,128500,128,0,128600:0:0:0:0:PianoKEYS_28.ogg
182,192,128600,128,0,128700:0:0:0:0:PianoKEYS_24.ogg
36,192,128700,128,0,128800:0:0:0:0:PianoKEYS_20.ogg
329,192,128800,128,0,128900:0:0:0:0:PianoKEYS_28.ogg
182,192,128900,128,0,129000:0:0:0:0:PianoKEYS_24.ogg
109,192,129000,128,0,129100:0:0:0:0:PianoKEYS_20.ogg
36,192,129100,128,0,129200:0:0:0:0:PianoKEYS_18.ogg
256,192,129200,128,0,129300:0:0:0:0:PianoKEYS_24.ogg
182,192,129300,128,0,129400:0:0:0:0:PianoKEYS_20.ogg
109,192,129400,128,0,129500:0:0:0:0:PianoKEYS_18.ogg
36,192,129500,128,0,129600:0:0:0:0:PianoKEYS_14.ogg
475,192,129600,128,0,129700:0:0:0:0:PianoKEYS_20.ogg
402,192,129700,128,0,129800:0:0:0:0:PianoKEYS_18.ogg
329,192,129800,128,0,129900:0:0:0:0:PianoKEYS_14.ogg
256,192,129900,128,0,130000:0:0:0:0:PianoKEYS_12.ogg
402,192,130000,128,0,130100:0:0:0:0:PianoKEYS_18.ogg
329,192,130100,128,0,130200:0:0:0:0:PianoKEYS_14.ogg
256,192,130200,128,0,130300:0:0:0:0:PianoKEYS_12.ogg
182,192,130300,128,0,130400:0:0:0:0:PianoKEYS_10.ogg
329,192,130400,128,0,130500:0:0:0:0:PianoKEYS_14.ogg
256,192,130500,128,0,130600:0:0:0:0:PianoKEYS_12.ogg
182,192,130600,128,0,130700:0:0:0:0:PianoKEYS_10.ogg
109,192,130700,128,0,130800:0:0:0:0:PianoKEYS_06.ogg
256,192,130800,128,0,130900:0:0:0:0:PianoKEYS_12.ogg
182,192,130900,128,0,131000:0:0:0:0:PianoKEYS_10.ogg
109,192,131000,128,0,131100:0:0:0:0:PianoKEYS_06.ogg
36,192,131100,128,0,131200:0:0:0:0:PianoKEYS_04.ogg
475,192,131200,128,0,131300:0:0:0:0:PianoKEYS_10.ogg
329,192,131300,128,0,131400:0:0:0:0:PianoKEYS_06.ogg
256,192,131400,128,0,131500:0:0:0:0:PianoKEYS_04.ogg
109,192,131500,128,0,131600:0:0:0:0:PianoKEYS_03.ogg
402,192,131600,128,0,131700:0:0:0:0:PianoKEYS_06.ogg
256,192,131700,128,0,131800:0:0:0:0:PianoKEYS_04.ogg
182,192,131800,128,0,131900:0:0:0:0:PianoKEYS_03.ogg
36,192,131900,128,0,132000:0:0:0:0:PianoKEYS_02.ogg
329,192,132000,128,0,132100:0:0:0:0:PianoKEYS_04.ogg
182,192,132100,128,0,132200:0:0:0:0:PianoKEYS_03.ogg
109,192,132200,128,0,132300:0:0:0:0:PianoKEYS_02.ogg
36,192,132300,128,0,132400:0:0:0:0:PianoKEYS_01.ogg
256,192,132400,1,0,0:0:0:0:PianoKEYS_03.ogg
182,192,132500,1,0,0:0:0:0:PianoKEYS_02.ogg
109,192,132600,1,0,0:0:0:0:PianoKEYS_01.ogg
182,192,132700,1,0,0:0:0:0:PianoKEYS_02.ogg
256,192,132800,1,0,0:0:0:0:PianoKEYS_73.ogg
402,192,132800,1,0,0:0:0:0:StringsKEYS_06.ogg
36,192,132800,1,0,0:0:0:0:BeatKEYS_01.ogg
109,192,133800,1,0,0:0:0:0:BeatKEYS_01.ogg
329,192,133800,1,0,0:0:0:0:PianoKEYS_74.ogg
475,192,133800,1,0,0:0:0:0:StringsKEYS_07.ogg
36,192,135000,128,0,136000:0:0:0:0:PianoKEYS_75.ogg
