osu file format v9

[General]
AudioFilename: My name is MP3.mp3
AudioLeadIn: 0
PreviewTime: 66958
Countdown: 0
SampleSet: Soft
StackLeniency: 0.3
Mode: 0
LetterboxInBreaks: 0

[Editor]
DistanceSpacing: 1
BeatDivisor: 4
GridSize: 4

[Metadata]
Title:Shiokaze no Harmony (TV Size)
Artist:Shirahamazaka Koukou Gasshou-Bu
Creator:Andrea
Version:Hard
Source:TARI TARI
Tags:Ending P.A. Works xxheroxx osuplayer111

[Difficulty]
HPDrainRate:7
CircleSize:4
OverallDifficulty:7
ApproachRate:8
SliderMultiplier:1.6
SliderTickRate:1

[Events]
//Background and Video events
0,0,"BG.jpg"
Video,11200,"Video.avi"
//Break Periods
//Storyboard Layer 0 (Background)
//Storyboard Layer 1 (Fail)
//Storyboard Layer 2 (Pass)
//Storyboard Layer 3 (Foreground)
//Storyboard Sound Samples
//Background Colour Transformations
3,100,0,128,255

[TimingPoints]
12850,413.793103448276,4,2,1,80,1,0
66643,-100,4,2,1,50,0,0
67470,-100,4,2,1,80,0,1
80608,-100,4,2,1,80,0,0
80712,-100,4,2,1,80,0,1
93953,-100,4,2,1,80,0,0
95505,-100,4,2,1,5,0,0

[Colours]
Combo1 : 128,0,128
Combo2 : 170,170,85
Combo3 : 0,172,255
Combo4 : 128,0,0

[HitObjects]
188,312,12849,2,0,B|216:272|256:272|296:272|324:312,1,160,4|8
256,352,13470,2,0,B|256:192,1,160
216,124,14091,1,8
296,124,14298,1,0
136,124,14712,5,0
96,192,14918,1,8
136,260,15125,1,2
376,260,15539,1,2
416,192,15746,1,8
376,124,15953,1,0
336,56,16160,6,0,B|176:56,1,160,2|8
176,56,16781,1,0
176,328,17194,1,0
256,328,17401,1,8
336,328,17608,1,0
256,192,18022,1,0
216,260,18229,1,8
296,260,18436,1,2
216,124,18849,5,0
296,124,19056,1,8
256,56,19263,1,8
256,56,19367,1,8
256,56,19470,1,4
48,344,19884,5,8
48,344,20091,1,0
464,344,20505,1,0
464,344,20712,1,8
464,344,20918,1,0
204,344,21332,5,0
256,284,21539,1,8
308,344,21746,2,0,B|352:276|352:276|352:196,1,160,0|8
324,120,22367,2,0,B|295:79|255:79|215:79|187:119,2,160,8|4|8
256,164,23401,1,2
408,120,23815,5,2
444,192,24022,1,8
408,264,24229,2,0,B|344:264|304:316,1,120,4|8
304,315,24643,2,0,B|222:315,1,80,2|8
144,316,25056,1,4
40,192,25470,1,2
88,128,25677,1,8
104,108,25781,1,8
120,88,25884,1,0
176,28,26091,6,0,B|256:28|256:28|320:80,1,160,4|8
364,144,26712,2,0,B|404:144|404:144|436:120,1,80
464,192,27125,1,0
364,240,27332,2,0,B|404:240|404:240|436:264,1,80,8|0
300,352,27953,1,0
256,284,28160,1,8
212,352,28367,1,0
168,284,28574,2,0,B|84:284|16:236,1,160,0|8
168,100,29401,6,0,B|84:100|16:148,1,160,0|8
17,146,30022,1,0
176,192,30436,1,0
256,192,30643,1,8
392,112,31056,1,0
460,152,31263,1,0
460,232,31470,1,8
392,272,31677,6,0,B|308:272|256:344,1,160
176,344,32298,1,8
116,292,32505,1,0
60,236,32712,2,0,B|60:156|120:92,1,160,0|8
52,48,33332,2,0,B|116:108|196:108,1,160
256,52,33953,1,8
315,108,34160,2,0,B|395:108|460:48,1,160
460,48,34781,1,8
391,91,34987,2,0,B|452:156|452:236,1,160
396,292,35608,6,0,B|352:292|324:324,1,80,8|0
256,360,36022,2,0,B|176:360|116:288,1,160,0|8
40,308,36643,2,0,B|120:308|178:238,1,160
112,192,37263,1,8
177,145,37470,6,0,B|120:76|40:76,1,160,4|0
40,75,38091,1,8
40,75,38298,1,4
471,75,38712,1,0
471,75,38918,1,8
256,344,39332,1,4
312,192,39746,6,0,B|356:120,1,80,8|0
256,132,40160,2,0,B|256:52,1,80
200,192,40574,2,0,B|156:120,1,80,8|0
152,284,41194,1,0
216,336,41401,1,8
296,336,41608,1,0
360,284,41815,2,0,B|360:200|304:136,1,160,0|8
152,284,42643,6,0,B|152:200|208:136,1,160,0|8
256,76,43263,2,0,B|416:76,1,160
496,76,43884,1,8
496,156,44091,1,0
416,156,44298,1,0
256,344,44712,1,8
96,156,45125,6,0,B|168:156|168:156|200:128|200:72,1,160,0|8
256,20,45746,1,0
312,76,45953,2,0,B|312:128|344:156|344:156|416:156,1,160,2|8
416,236,46574,2,0,B|416:280|384:312,1,80,0|2
296,348,46987,2,0,B|256:360|216:348,1,80,0|8
124,308,47401,2,0,B|96:280|96:236,1,80,0|2
256,44,48022,1,8
256,256,48436,5,0
192,208,48643,1,0
220,180,48746,1,0
256,164,48850,1,8
292,180,48953,1,8
320,208,49056,1,0
400,208,49263,1,4
256,348,49677,1,8
256,348,49884,1,0
112,208,50298,6,0,B|112:164|76:132,1,80,0|8
72,56,50712,2,0,B|116:56|148:92,1,80,0|4
224,84,51125,1,8
252,84,51229,1,8
280,84,51332,1,8
308,84,51436,1,8
336,84,51539,1,8
364,84,51643,1,8
392,84,51746,1,8
472,84,51953,2,0,B|472:128|440:156,1,80,0|8
472,300,52367,6,0,B|472:256|440:228,1,80,0|4
256,340,52987,1,8
256,340,53194,1,0
72,228,53608,1,0
72,228,53815,1,8
256,116,54229,6,0,B|320:116|364:160,1,120
364,160,54643,2,0,B|420:104,1,80,8|0
484,152,55056,2,0,B|484:216|440:264,1,120
442,261,55470,2,0,B|360:262,1,80,8|0
280,264,55884,2,0,B|200:264|140:336,1,160,0|8
60,332,56505,1,0
60,172,56918,6,0,B|104:172|128:136,1,80,0|8
184,80,57332,2,0,B|256:44|256:44|328:80,1,160,4|8
384,136,57953,2,0,B|408:172|452:172,1,80,0|4
324,296,58574,5,0
256,340,58781,1,8
256,340,58884,1,8
256,340,58987,2,0,B|172:340,1,80,0|4
124,280,59401,1,0
68,224,59608,1,8
124,168,59815,6,0,B|208:168|256:92,1,160
308,32,60436,1,8
388,32,60643,2,0,B|440:92|440:92|440:172,1,160
444,252,61263,1,8
380,300,61470,2,0,B|320:300|320:300|292:324|292:324|228:324,1,160
148,324,62091,1,8
96,264,62298,1,0
40,208,62505,6,0,B|40:148|40:148|72:96,1,120,2|0
71,96,62918,2,0,B|115:97|144:68,1,80,8|0
224,64,63332,2,0,B|288:64|332:108,1,120,2|0
332,108,63746,2,0,B|416:108,1,80,8|0
492,108,64160,1,4
256,348,64574,1,8
20,108,64987,5,0
72,168,65194,1,0
124,108,65401,1,8
72,48,65608,1,4
440,48,66022,1,8
440,48,66229,1,8
256,192,66643,2,0,B|256:156,16,20,2|0|0|0|0|0|0|0|0|0|0|0|0|0|0|0|4
256,352,67884,5,8
320,304,68091,2,0,B|400:304|464:240,1,160
400,192,68712,1,8
464,144,68918,2,0,B|400:80|320:80,1,160
256,128,69539,1,8
192,80,69746,2,0,B|112:80|48:144,1,160
112,192,70367,1,8
49,242,70574,1,0
112,292,70781,6,0,B|192:292|192:292|256:340,1,160,2|8
336,340,71401,1,0
416,340,71608,2,0,B|464:276|464:276|464:196,1,160,2|8
460,116,72229,1,0
400,60,72436,2,0,B|320:60|264:132,1,160,2|8
264,212,73056,1,0
192,176,73263,6,0,B|148:176|120:208,1,80,2|0
120,288,73677,1,8
200,288,73884,1,8
216,312,73987,1,8
232,336,74091,2,4,B|312:336|372:264,1,160,4|8
372,184,74712,1,0
372,104,74918,6,0,B|328:104|284:64|284:64|220:64,1,160,0|8
144,64,75539,1,0
76,108,75746,2,0,B|76:188|148:244,1,160,0|8
200,308,76367,1,0
256,252,76574,1,0
312,308,76781,1,0
340,308,76884,1,0
368,308,76987,2,0,B|412:308|440:272,1,80,8|0
436,196,77401,6,0,B|352:196|296:128,1,160,4|8
216,128,78022,2,0,B|160:196|76:196,1,160
74,276,78643,1,8
132,328,78850,2,0,B|192:328|232:268,1,120,4|8
230,269,79263,1,0
296,316,79470,1,0
360,268,79677,1,4
296,220,79884,1,0
232,172,80091,1,0
296,124,80298,5,8
320,108,80401,1,8
344,92,80505,1,0
408,48,80712,2,0,B|456:112|456:112|456:192,1,160,4|8
456,272,81332,1,0
316,352,81746,5,0
256,296,81953,1,8
196,352,82160,2,0,B|112:352|64:272,1,160
60,192,82781,1,8
64,112,82987,2,0,B|112:32|196:32,1,160
256,88,83608,1,8
316,32,83815,6,0,B|360:32|388:60,1,80,0|4
392,140,84229,1,8
452,192,84436,1,8
392,244,84643,2,0,B|308:244|256:320,1,160,4|0
176,320,85263,1,8
96,320,85470,1,0
60,248,85677,1,4
140,248,85884,1,8
104,176,86091,1,8
24,176,86298,1,4
120,48,86712,5,8
144,64,86815,1,8
168,80,86918,2,0,B|248:80,1,80,4|0
328,80,87332,2,0,B|408:80|468:148,1,160,4|8
400,192,87953,1,0
468,236,88160,2,0,B|408:304|328:304,1,160,0|8
256,340,88781,1,0
184,304,88987,2,0,B|104:304|44:236,1,160,4|8
184,80,89815,6,0,B|104:80|44:148,1,160,0|8
44,147,90436,1,4
328,80,90850,1,0
328,80,91056,2,0,B|408:80|468:148,1,160,8|0
468,228,91677,1,0
448,248,91781,1,8
428,268,91884,2,0,B|384:268|360:304,1,80,8|0
296,352,92298,1,4
216,352,92505,1,4
256,32,93125,5,2
180,172,93539,1,8
256,192,93746,1,0
332,172,93953,1,4
256,32,94367,5,8
148,296,94781,1,2
216,340,94987,1,0
296,340,95194,1,8
364,296,95401,1,4
256,192,95505,12,0,98918
