osu file format v14

[General]
AudioFilename: nonnonmad.mp3
AudioLeadIn: 0
PreviewTime: 82310
Countdown: 0
SampleSet: Normal
StackLeniency: 0.7
Mode: 1
LetterboxInBreaks: 0
WidescreenStoryboard: 0

[Editor]
DistanceSpacing: 1
BeatDivisor: 4
GridSize: 4
TimelineZoom: 1.8

[Metadata]
Title:Rotter Tarmi Ren-chon
TitleUnicode:Rotter Tarmiれんちょん
Artist:Shiraai
ArtistUnicode:しらあい
Creator:Charlotte
Version:Muzukashii
Source:太鼓の達人
Tags:Taiko no Tatsujin Rotter Tarmination のんのんびより Non Non Biyori Nofool
BeatmapID:1176225
BeatmapSetID:547939

[Difficulty]
HPDrainRate:6
CircleSize:6
OverallDifficulty:5
ApproachRate:5
SliderMultiplier:1.4
SliderTickRate:1

[Events]
//Background and Video events
0,0,"baby.jpg",0,0
//Break Periods
//Storyboard Layer 0 (Background)
//Storyboard Layer 1 (Fail)
//Storyboard Layer 2 (Pass)
//Storyboard Layer 3 (Foreground)
//Storyboard Sound Samples

[TimingPoints]
110,300,4,1,0,85,1,0
81710,300,4,1,0,85,1,8
82310,300,3,1,0,85,1,0
96710,300,4,1,0,85,1,1
106310,-66.6666666666667,4,1,0,85,0,1
107510,-50,4,1,0,85,0,0
108710,-100,4,1,0,65,0,0
109310,-100,4,1,0,55,0,0
109910,-100,4,1,0,45,0,0
110510,-100,4,1,0,35,0,0
111110,-100,4,1,0,25,0,0
111710,-100,4,1,0,15,0,0

[HitObjects]
256,192,110,5,0,0:0:0:0:
256,192,410,1,8,0:0:0:0:
256,192,560,1,8,0:0:0:0:
256,192,710,1,0,0:0:0:0:
256,192,1010,1,8,0:0:0:0:
256,192,1310,1,8,0:0:0:0:
256,192,1460,1,0,0:0:0:0:
256,192,1610,1,8,0:0:0:0:
256,192,1760,1,8,0:0:0:0:
256,192,1910,1,0,0:0:0:0:
256,192,2210,1,8,0:0:0:0:
156,292,2510,2,0,P|216:268|356:308,1,210
256,192,3110,1,0,0:0:0:0:
256,192,3410,1,0,0:0:0:0:
256,192,3560,1,8,0:0:0:0:
256,192,3710,1,0,0:0:0:0:
256,192,4010,1,8,0:0:0:0:
256,192,4310,1,0,0:0:0:0:
256,192,4610,1,0,0:0:0:0:
256,192,4760,1,8,0:0:0:0:
256,192,4910,1,0,0:0:0:0:
256,192,5210,1,0,0:0:0:0:
256,192,5360,1,0,0:0:0:0:
256,192,5510,1,8,0:0:0:0:
256,192,5810,1,8,0:0:0:0:
256,192,5960,1,0,0:0:0:0:
256,192,6110,1,8,0:0:0:0:
256,192,6410,1,0,0:0:0:0:
256,192,6560,1,8,0:0:0:0:
256,192,6710,1,0,0:0:0:0:
256,192,6860,1,0,0:0:0:0:
256,192,7010,1,8,0:0:0:0:
256,192,7310,1,8,0:0:0:0:
256,192,7460,1,8,0:0:0:0:
256,192,7610,1,0,0:0:0:0:
256,192,7760,1,0,0:0:0:0:
256,192,7910,1,8,0:0:0:0:
256,192,8060,1,0,0:0:0:0:
256,192,8210,1,8,0:0:0:0:
256,192,8510,1,0,0:0:0:0:
256,192,8660,1,8,0:0:0:0:
256,192,8810,1,0,0:0:0:0:
256,192,8960,1,0,0:0:0:0:
256,192,9110,1,8,0:0:0:0:
256,192,9410,1,8,0:0:0:0:
256,192,9560,1,0,0:0:0:0:
256,192,9860,1,0,0:0:0:0:
256,192,10010,1,8,0:0:0:0:
256,192,10610,2,0,L|328:192,12,70
256,192,12710,1,4,0:0:0:0:
256,192,13010,1,8,0:0:0:0:
256,192,13160,1,8,0:0:0:0:
256,192,13310,1,0,0:0:0:0:
256,192,13610,1,8,0:0:0:0:
256,192,13910,1,0,0:0:0:0:
256,192,14060,1,8,0:0:0:0:
256,192,14210,1,0,0:0:0:0:
256,192,14360,1,0,0:0:0:0:
256,192,14510,1,8,0:0:0:0:
256,192,14810,1,8,0:0:0:0:
256,192,14960,1,0,0:0:0:0:
256,192,15110,1,8,0:0:0:0:
256,192,15410,1,8,0:0:0:0:
256,192,15560,1,0,0:0:0:0:
256,192,15710,1,8,0:0:0:0:
256,192,15860,1,8,0:0:0:0:
256,192,16010,1,0,0:0:0:0:
256,192,16160,1,8,0:0:0:0:
256,192,16310,1,4,0:0:0:0:
256,192,16610,1,4,0:0:0:0:
256,192,16760,1,4,0:0:0:0:
256,192,17060,1,4,0:0:0:0:
256,192,17210,1,4,0:0:0:0:
256,192,17510,1,0,0:0:0:0:
256,192,17810,1,8,0:0:0:0:
256,192,17960,1,8,0:0:0:0:
256,192,18110,1,0,0:0:0:0:
256,192,18410,1,8,0:0:0:0:
256,192,18710,1,0,0:0:0:0:
256,192,18860,1,8,0:0:0:0:
256,192,19010,1,0,0:0:0:0:
256,192,19160,1,0,0:0:0:0:
256,192,19310,1,8,0:0:0:0:
256,192,19610,1,8,0:0:0:0:
256,192,19910,1,0,0:0:0:0:
256,192,20060,1,0,0:0:0:0:
256,192,20210,1,8,0:0:0:0:
256,192,20360,1,0,0:0:0:0:
256,192,20510,1,8,0:0:0:0:
256,192,20660,1,8,0:0:0:0:
256,192,20810,1,0,0:0:0:0:
256,192,20960,1,8,0:0:0:0:
256,192,21110,1,4,0:0:0:0:
256,192,21410,1,4,0:0:0:0:
256,192,21560,1,4,0:0:0:0:
256,192,21860,1,4,0:0:0:0:
256,192,22010,1,4,0:0:0:0:
256,192,22310,1,0,0:0:0:0:
256,192,22460,1,8,0:0:0:0:
256,192,22760,1,8,0:0:0:0:
256,192,22910,1,0,0:0:0:0:
256,192,23060,1,8,0:0:0:0:
256,192,23360,1,8,0:0:0:0:
256,192,23510,1,0,0:0:0:0:
256,192,23660,1,8,0:0:0:0:
256,192,23960,1,8,0:0:0:0:
256,192,24110,1,0,0:0:0:0:
256,192,24260,1,8,0:0:0:0:
256,192,24410,1,8,0:0:0:0:
256,192,24560,1,0,0:0:0:0:
256,192,24860,1,0,0:0:0:0:
256,192,25010,1,8,0:0:0:0:
256,192,25310,1,0,0:0:0:0:
256,192,25610,1,8,0:0:0:0:
256,192,25910,1,8,0:0:0:0:
256,192,26060,1,8,0:0:0:0:
256,192,26210,1,0,0:0:0:0:
256,192,26360,1,0,0:0:0:0:
256,192,26510,1,8,0:0:0:0:
256,192,26810,1,0,0:0:0:0:
256,192,26960,1,8,0:0:0:0:
256,192,27260,1,8,0:0:0:0:
256,192,27410,1,0,0:0:0:0:
256,192,27560,1,8,0:0:0:0:
256,192,27860,1,8,0:0:0:0:
256,192,28010,1,0,0:0:0:0:
256,192,28160,1,8,0:0:0:0:
256,192,28460,1,8,0:0:0:0:
256,192,28610,1,0,0:0:0:0:
256,192,28760,1,8,0:0:0:0:
256,192,28910,1,0,0:0:0:0:
256,192,29060,1,0,0:0:0:0:
256,192,29210,1,8,0:0:0:0:
256,192,29510,1,8,0:0:0:0:
256,192,29660,1,0,0:0:0:0:
256,192,29810,1,8,0:0:0:0:
256,192,29960,1,8,0:0:0:0:
256,192,30110,1,0,0:0:0:0:
256,192,30260,1,0,0:0:0:0:
256,192,30410,1,8,0:0:0:0:
256,192,30710,1,0,0:0:0:0:
256,192,30860,1,0,0:0:0:0:
256,192,31010,1,8,0:0:0:0:
256,192,31310,1,0,0:0:0:0:
256,192,31910,1,4,0:0:0:0:
256,192,32210,1,8,0:0:0:0:
256,192,32360,1,8,0:0:0:0:
256,192,32510,1,0,0:0:0:0:
256,192,32810,1,8,0:0:0:0:
256,192,33110,1,0,0:0:0:0:
256,192,33410,1,8,0:0:0:0:
256,192,33560,1,0,0:0:0:0:
256,192,33860,1,8,0:0:0:0:
256,192,34010,1,8,0:0:0:0:
256,192,34160,1,8,0:0:0:0:
256,192,34310,1,8,0:0:0:0:
256,192,34610,1,0,0:0:0:0:
256,192,34760,1,8,0:0:0:0:
256,192,34910,1,0,0:0:0:0:
256,192,35060,1,0,0:0:0:0:
256,192,35210,1,8,0:0:0:0:
256,192,35510,2,0,L|332:192,6,70
256,192,36710,1,0,0:0:0:0:
256,192,37010,1,8,0:0:0:0:
256,192,37310,1,0,0:0:0:0:
256,192,37460,1,8,0:0:0:0:
256,192,37610,1,0,0:0:0:0:
256,192,37910,1,0,0:0:0:0:
256,192,38060,1,8,0:0:0:0:
256,192,38360,1,0,0:0:0:0:
256,192,38510,1,8,0:0:0:0:
256,192,38810,1,8,0:0:0:0:
256,192,38960,1,8,0:0:0:0:
256,192,39110,1,0,0:0:0:0:
256,192,39410,1,8,0:0:0:0:
256,192,39560,1,8,0:0:0:0:
256,192,39710,1,0,0:0:0:0:
256,192,39860,1,8,0:0:0:0:
256,192,40010,1,0,0:0:0:0:
256,192,40310,1,0,0:0:0:0:
256,192,40460,1,0,0:0:0:0:
256,192,40610,1,8,0:0:0:0:
256,192,40910,1,0,0:0:0:0:
256,192,41060,1,0,0:0:0:0:
256,192,41210,1,8,0:0:0:0:
256,192,41510,1,0,0:0:0:0:
256,192,41810,1,0,0:0:0:0:
256,192,41960,1,8,0:0:0:0:
256,192,42260,1,8,0:0:0:0:
256,192,42410,1,0,0:0:0:0:
256,192,42560,1,8,0:0:0:0:
256,192,42860,1,8,0:0:0:0:
256,192,43010,1,0,0:0:0:0:
256,192,43310,1,0,0:0:0:0:
256,192,43460,1,8,0:0:0:0:
256,192,43610,1,8,0:0:0:0:
256,192,43760,1,8,0:0:0:0:
256,192,43910,1,0,0:0:0:0:
256,192,44210,1,8,0:0:0:0:
256,192,44510,1,0,0:0:0:0:
256,192,44660,1,8,0:0:0:0:
256,192,44810,1,0,0:0:0:0:
256,192,45110,2,0,L|484:192,1,210
256,192,45710,2,0,L|480:192,1,210
256,192,46310,1,0,0:0:0:0:
256,192,46460,1,0,0:0:0:0:
256,192,46610,1,8,0:0:0:0:
256,192,46760,1,0,0:0:0:0:
256,192,47060,1,8,0:0:0:0:
256,192,47210,1,0,0:0:0:0:
256,192,47360,1,8,0:0:0:0:
256,192,47510,1,0,0:0:0:0:
256,192,47660,1,0,0:0:0:0:
256,192,47810,1,8,0:0:0:0:
256,192,47960,1,8,0:0:0:0:
256,192,48110,1,0,0:0:0:0:
256,192,48410,1,8,0:0:0:0:
256,192,48710,1,0,0:0:0:0:
256,192,49010,1,8,0:0:0:0:
256,192,49160,1,8,0:0:0:0:
256,192,49310,1,0,0:0:0:0:
256,192,49610,1,8,0:0:0:0:
256,192,49760,1,8,0:0:0:0:
256,192,49910,12,0,50960,0:0:0:0:
256,192,51110,5,0,0:0:0:0:
256,192,51410,1,8,0:0:0:0:
256,192,51710,1,0,0:0:0:0:
256,192,51860,1,8,0:0:0:0:
256,192,52160,1,8,0:0:0:0:
256,192,52310,1,0,0:0:0:0:
256,192,52460,1,8,0:0:0:0:
256,192,52610,1,8,0:0:0:0:
256,192,52910,1,8,0:0:0:0:
256,192,53060,1,0,0:0:0:0:
256,192,53210,1,8,0:0:0:0:
256,192,53510,1,0,0:0:0:0:
256,192,53810,1,8,0:0:0:0:
256,192,54110,1,0,0:0:0:0:
256,192,54260,1,8,0:0:0:0:
256,192,54560,1,8,0:0:0:0:
256,192,54710,1,0,0:0:0:0:
256,192,54860,1,8,0:0:0:0:
256,192,55010,1,8,0:0:0:0:
256,192,55310,1,8,0:0:0:0:
256,192,55460,1,0,0:0:0:0:
256,192,55610,1,8,0:0:0:0:
256,192,55910,1,0,0:0:0:0:
256,192,56210,1,8,0:0:0:0:
256,192,56360,1,8,0:0:0:0:
256,192,56510,1,0,0:0:0:0:
256,192,56660,1,8,0:0:0:0:
256,192,56960,1,8,0:0:0:0:
256,192,57110,1,0,0:0:0:0:
256,192,57260,1,8,0:0:0:0:
256,192,57410,1,8,0:0:0:0:
256,192,57710,1,8,0:0:0:0:
256,192,57860,1,0,0:0:0:0:
256,192,58010,1,8,0:0:0:0:
256,192,58310,1,0,0:0:0:0:
256,192,58610,1,8,0:0:0:0:
256,192,58760,1,8,0:0:0:0:
256,192,58910,1,0,0:0:0:0:
256,192,59060,1,8,0:0:0:0:
256,192,59360,1,8,0:0:0:0:
256,192,59510,1,0,0:0:0:0:
256,192,60410,1,8,0:0:0:0:
256,192,60710,1,0,0:0:0:0:
256,192,60860,1,0,0:0:0:0:
256,192,61010,1,8,0:0:0:0:
256,192,61160,1,0,0:0:0:0:
256,192,61460,1,0,0:0:0:0:
256,192,61610,1,8,0:0:0:0:
256,192,61910,1,8,0:0:0:0:
256,192,62210,1,0,0:0:0:0:
256,192,62360,1,8,0:0:0:0:
256,192,62660,1,8,0:0:0:0:
256,192,62810,1,0,0:0:0:0:
256,192,63110,1,0,0:0:0:0:
256,192,63260,1,0,0:0:0:0:
256,192,63410,1,8,0:0:0:0:
256,192,63560,1,8,0:0:0:0:
256,192,63710,1,0,0:0:0:0:
256,192,64010,1,8,0:0:0:0:
256,192,64310,1,8,0:0:0:0:
256,192,64460,1,0,0:0:0:0:
256,192,64610,1,8,0:0:0:0:
256,192,64760,1,8,0:0:0:0:
256,192,64910,1,0,0:0:0:0:
256,192,65060,1,0,0:0:0:0:
256,192,65210,1,8,0:0:0:0:
256,192,65510,1,0,0:0:0:0:
256,192,65810,1,8,0:0:0:0:
256,192,65960,1,8,0:0:0:0:
256,192,66110,1,0,0:0:0:0:
256,192,66410,1,0,0:0:0:0:
256,192,66560,1,8,0:0:0:0:
256,192,66710,1,0,0:0:0:0:
256,192,67010,1,8,0:0:0:0:
256,192,67160,1,8,0:0:0:0:
256,192,67460,1,0,0:0:0:0:
256,192,67610,1,8,0:0:0:0:
256,192,67910,1,0,0:0:0:0:
256,192,68210,1,8,0:0:0:0:
256,192,68360,1,8,0:0:0:0:
256,192,68660,1,0,0:0:0:0:
256,192,68810,1,8,0:0:0:0:
256,192,68960,1,0,0:0:0:0:
256,192,69110,12,0,70160,0:0:0:0:
256,192,70310,5,0,0:0:0:0:
256,192,70610,1,8,0:0:0:0:
256,192,70760,1,8,0:0:0:0:
256,192,70910,1,0,0:0:0:0:
256,192,71060,1,0,0:0:0:0:
256,192,71135,1,0,0:0:0:0:
256,192,71210,1,0,0:0:0:0:
256,192,71360,1,0,0:0:0:0:
256,192,71510,1,8,0:0:0:0:
256,192,71810,1,8,0:0:0:0:
256,192,71960,1,8,0:0:0:0:
256,192,72260,1,8,0:0:0:0:
256,192,72410,1,0,0:0:0:0:
256,192,72560,1,8,0:0:0:0:
256,192,72710,1,0,0:0:0:0:
256,192,72860,1,0,0:0:0:0:
256,192,72935,1,0,0:0:0:0:
256,192,73010,1,0,0:0:0:0:
256,192,73160,1,8,0:0:0:0:
256,192,73310,1,0,0:0:0:0:
256,192,73460,1,8,0:0:0:0:
256,192,73610,1,0,0:0:0:0:
256,192,73910,1,0,0:0:0:0:
256,192,74210,1,8,0:0:0:0:
256,192,74360,1,8,0:0:0:0:
256,192,74660,1,8,0:0:0:0:
256,192,74810,1,0,0:0:0:0:
256,192,74960,1,8,0:0:0:0:
256,192,75110,1,0,0:0:0:0:
256,192,75260,1,0,0:0:0:0:
256,192,75335,1,0,0:0:0:0:
256,192,75410,1,0,0:0:0:0:
256,192,75560,1,8,0:0:0:0:
256,192,75710,1,0,0:0:0:0:
256,192,75860,1,8,0:0:0:0:
256,192,76010,1,0,0:0:0:0:
256,192,76310,1,0,0:0:0:0:
256,192,76460,1,0,0:0:0:0:
256,192,76610,1,8,0:0:0:0:
256,192,76760,1,0,0:0:0:0:
256,192,76910,1,8,0:0:0:0:
256,192,77060,1,0,0:0:0:0:
256,192,77210,1,8,0:0:0:0:
256,192,77510,1,0,0:0:0:0:
256,192,77660,1,0,0:0:0:0:
256,192,77810,1,8,0:0:0:0:
256,192,77960,1,0,0:0:0:0:
256,192,78110,1,8,0:0:0:0:
256,192,78260,1,8,0:0:0:0:
256,192,78410,1,0,0:0:0:0:
256,192,78710,1,0,0:0:0:0:
256,192,79010,1,8,0:0:0:0:
256,192,79160,1,0,0:0:0:0:
256,192,79310,1,8,0:0:0:0:
256,192,79460,1,8,0:0:0:0:
256,192,79610,1,0,0:0:0:0:
256,192,79910,1,0,0:0:0:0:
256,192,80210,1,8,0:0:0:0:
256,192,80360,1,0,0:0:0:0:
256,192,80510,1,8,0:0:0:0:
256,192,80810,1,0,0:0:0:0:
256,192,80960,1,8,0:0:0:0:
256,192,81110,1,4,0:0:0:0:
256,192,81335,1,4,0:0:0:0:
256,192,81560,1,4,0:0:0:0:
256,192,81785,1,12,0:0:0:0:
256,192,82310,1,0,0:0:0:0:
256,192,82610,1,0,0:0:0:0:
256,192,82760,1,8,0:0:0:0:
256,192,83210,1,0,0:0:0:0:
256,192,83510,1,0,0:0:0:0:
256,192,83660,1,8,0:0:0:0:
256,192,84110,1,0,0:0:0:0:
256,192,84410,1,0,0:0:0:0:
256,192,84560,1,8,0:0:0:0:
256,192,84860,1,0,0:0:0:0:
256,192,85010,1,8,0:0:0:0:
256,192,85310,1,0,0:0:0:0:
256,192,85460,1,12,0:0:0:0:
256,192,85910,1,0,0:0:0:0:
256,192,86210,1,0,0:0:0:0:
256,192,86360,1,8,0:0:0:0:
256,192,86810,1,0,0:0:0:0:
256,192,87110,1,0,0:0:0:0:
256,192,87260,1,8,0:0:0:0:
256,192,87710,1,0,0:0:0:0:
256,192,88010,1,0,0:0:0:0:
256,192,88160,1,8,0:0:0:0:
256,192,88460,1,0,0:0:0:0:
256,192,88610,1,8,0:0:0:0:
256,192,88910,1,0,0:0:0:0:
256,192,89060,1,12,0:0:0:0:
256,192,89210,1,12,0:0:0:0:
256,192,89360,1,12,0:0:0:0:
256,192,89510,1,0,0:0:0:0:
256,192,89810,1,0,0:0:0:0:
256,192,89960,1,8,0:0:0:0:
256,192,90260,1,8,0:0:0:0:
256,192,90410,1,0,0:0:0:0:
256,192,90560,1,0,0:0:0:0:
256,192,90710,1,0,0:0:0:0:
256,192,90860,1,8,0:0:0:0:
256,192,91160,1,8,0:0:0:0:
256,192,91310,1,0,0:0:0:0:
256,192,91610,1,0,0:0:0:0:
256,192,91760,1,8,0:0:0:0:
256,192,92060,1,8,0:0:0:0:
256,192,92210,1,0,0:0:0:0:
256,192,92510,1,0,0:0:0:0:
256,192,92660,1,12,0:0:0:0:
256,192,93110,1,0,0:0:0:0:
256,192,93410,1,0,0:0:0:0:
256,192,93560,1,8,0:0:0:0:
256,192,94010,1,0,0:0:0:0:
256,192,94160,1,0,0:0:0:0:
256,192,94310,1,0,0:0:0:0:
256,192,94460,1,8,0:0:0:0:
256,192,94760,1,8,0:0:0:0:
256,192,94910,12,0,95960,0:0:0:0:
256,192,96110,5,0,0:0:0:0:
256,192,96260,1,8,0:0:0:0:
256,192,96410,1,8,0:0:0:0:
256,192,96560,1,8,0:0:0:0:
256,192,96710,1,4,0:0:0:0:
256,192,97010,1,8,0:0:0:0:
256,192,97310,1,8,0:0:0:0:
256,192,97460,1,0,0:0:0:0:
256,192,97610,1,8,0:0:0:0:
256,192,97910,1,0,0:0:0:0:
256,192,98060,1,0,0:0:0:0:
256,192,98210,1,0,0:0:0:0:
256,192,98360,1,8,0:0:0:0:
256,192,98510,1,0,0:0:0:0:
256,192,98810,1,8,0:0:0:0:
256,192,99110,1,0,0:0:0:0:
256,192,99410,1,8,0:0:0:0:
256,192,99560,1,0,0:0:0:0:
256,192,99710,1,8,0:0:0:0:
256,192,99860,1,8,0:0:0:0:
256,192,100010,1,0,0:0:0:0:
256,192,100310,1,0,0:0:0:0:
256,192,100610,1,8,0:0:0:0:
256,192,100760,1,8,0:0:0:0:
256,192,100910,1,0,0:0:0:0:
256,192,101060,1,0,0:0:0:0:
256,192,101210,1,8,0:0:0:0:
256,192,101510,1,0,0:0:0:0:
256,192,101585,1,0,0:0:0:0:
256,192,101660,1,0,0:0:0:0:
256,192,101810,1,8,0:0:0:0:
256,192,101960,1,8,0:0:0:0:
256,192,102110,1,0,0:0:0:0:
256,192,102185,1,0,0:0:0:0:
256,192,102260,1,0,0:0:0:0:
256,192,102410,1,8,0:0:0:0:
256,192,102560,1,8,0:0:0:0:
256,192,102710,1,4,0:0:0:0:
256,192,103010,1,4,0:0:0:0:
256,192,103310,1,4,0:0:0:0:
256,192,103610,1,4,0:0:0:0:
256,192,103910,1,0,0:0:0:0:
256,192,103985,1,0,0:0:0:0:
256,192,104060,1,0,0:0:0:0:
256,192,104210,1,8,0:0:0:0:
256,192,104510,1,0,0:0:0:0:
256,192,104585,1,0,0:0:0:0:
256,192,104660,1,0,0:0:0:0:
256,192,104810,1,8,0:0:0:0:
256,192,105110,2,0,L|256:232,15,35
256,192,106310,12,0,107435,0:0:0:0:
256,192,107510,12,0,111710,0:0:0:0:
