osu file format v14

[General]
AudioFilename: Kizuna no Yukue feat. Shiomiya Shiori.mp3
AudioLeadIn: 0
PreviewTime: 57439
Countdown: 0
SampleSet: Soft
StackLeniency: 0.7
Mode: 0
LetterboxInBreaks: 1
WidescreenStoryboard: 0

[Editor]
DistanceSpacing: 1
BeatDivisor: 4
GridSize: 4
TimelineZoom: 1.7

[Metadata]
Title:Kizuna no Yukue feat. Shiomiya Shiori
TitleUnicode:キズナノユクエ feat. 汐宮 栞
Artist:Shiomiya Shiori starring Hanazawa Kana
ArtistUnicode:汐宮 栞 starring 花澤香菜
Creator:Bearizm
Version:Normal
Source:神のみぞ知るセカイ 女神篇
Tags:Kami Nomi zo Shiru Sekai Megami-hen The World God Only Knows: Godesses ED Ending Momochikun Nardoxyribonucleic
BeatmapID:766775
BeatmapSetID:347422

[Difficulty]
HPDrainRate:3
CircleSize:3.5
OverallDifficulty:4
ApproachRate:4
SliderMultiplier:1.1
SliderTickRate:1

[Events]
//Background and Video events
0,0,"Shiori.jpg",0,0
//Break Periods
2,43044,48010
2,83584,95037
2,166287,177740
//Storyboard Layer 0 (Background)
//Storyboard Layer 1 (Fail)
//Storyboard Layer 2 (Pass)
//Storyboard Layer 3 (Foreground)
//Storyboard Sound Samples

[TimingPoints]
695,405.405405405405,4,2,1,100,1,0
10210,405.405405405405,4,2,1,70,1,8
10412,405.405405405405,4,2,1,100,1,0
29871,-100,4,2,1,60,0,0
49330,-100,4,2,1,50,0,0
52574,-100,4,2,1,60,0,0
55817,-100,4,2,1,70,0,0
57439,-100,4,2,1,80,0,1
83384,-100,4,2,1,60,0,0
96357,-100,4,2,1,60,0,0
109330,-100,4,2,1,50,0,0
119060,-100,4,2,1,60,0,0
122303,-100,4,2,1,70,0,0
123925,-100,4,2,1,80,0,1
149871,-100,4,2,1,80,0,0
165682,-100,4,2,2,80,0,0
166087,-100,4,2,1,80,0,0
179060,-100,4,2,1,50,0,0
188790,-100,4,2,1,60,0,0
189803,-100,4,2,1,70,0,0
192033,-100,4,2,1,90,0,1
204905,-100,4,2,1,90,0,0
205006,-100,4,2,1,100,0,1
217979,-100,4,2,2,90,0,0

[Colours]
Combo1 : 0,234,117
Combo2 : 128,255,255
Combo3 : 255,128,128
Combo4 : 0,157,157
Combo5 : 192,192,192

[HitObjects]
124,304,10210,6,0,L|116:192,1,110,4|8,1:0|0:0,0:0:0:0:
136,144,10817,2,0,P|188:124|240:136,1,110,8|8,0:1|0:1,0:0:0:0:
340,264,11830,5,8,0:0:0:0:
392,168,12236,1,8,0:0:0:0:
452,260,12641,2,0,L|436:368,1,110,8|8,0:0|0:0,0:0:0:0:
323,372,13452,6,0,L|339:264,1,110,4|8,1:0|0:0,0:0:0:0:
304,220,14060,2,0,P|248:232|200:216,1,110,8|8,0:1|0:1,0:0:0:0:
216,52,15074,5,8,0:0:0:0:
216,52,15276,2,0,L|324:68,1,110,4|8,0:0|0:1,0:0:0:0:
372,40,15884,2,0,P|384:100|412:144,1,110,12|8,0:0|0:0,0:0:0:0:
452,176,16493,1,0,1:0:0:0:
496,276,16898,6,0,B|440:272|440:272|388:288|388:288|332:284,1,165,2|2,0:0|0:0,0:0:0:0:
244,348,17911,1,0,0:0:0:0:
156,284,18317,2,0,B|140:232|156:180|156:180|212:172|246:114,1,220,2|2,0:0|0:0,0:0:0:0:
144,72,19533,2,0,L|136:16,2,55
40,104,20344,6,0,L|28:216,1,110,2|0,0:0|0:0,0:0:0:0:
120,272,21155,2,0,L|132:328,1,55,2|0,0:0|0:0,0:0:0:0:
180,352,21560,2,0,P|236:352|280:324,1,110,2|0,0:0|0:0,0:0:0:0:
356,244,22371,2,0,P|412:256|452:292,1,110,2|0,0:0|0:0,0:0:0:0:
480,336,22979,1,0,0:0:0:0:
508,228,23384,6,0,L|496:116,1,110,2|0,0:0|0:0,0:0:0:0:
500,64,23993,2,0,P|448:84|396:68,1,110,2|0,0:0|0:0,0:0:0:0:
296,108,24803,2,0,B|184:96|184:96|132:108,1,165,2|0,0:0|0:0,0:0:0:0:
88,136,25614,2,0,P|72:188|80:244,1,110,2|2,0:0|0:0,0:0:0:0:
160,320,26425,1,0,0:0:0:0:
160,320,26628,6,0,B|204:320|236:300|236:300|268:324|320:320,1,165,2|2,0:0|0:0,0:0:0:0:
404,252,27641,1,2,0:0:0:0:
300,212,28047,2,0,B|276:160|292:108|292:108|244:72|184:92,1,220,2|0,0:0|0:0,0:0:0:0:
132,72,29060,2,0,L|140:16,2,55,0|8|0,1:0|0:0|1:0,0:0:0:0:
40,128,29871,6,0,B|56:236|56:236|48:292,1,165,12|2,0:0|0:0,0:0:0:0:
148,336,30884,2,0,L|155:280,1,55,8|0,0:0|1:0,0:0:0:0:
200,248,31290,2,0,P|184:196|200:140,2,110,8|8|2,0:0|0:0|0:0,0:0:0:0:
296,304,32506,2,0,L|348:320,2,55,8|0|2,0:0|1:0|0:0,0:0:0:0:
285,195,33317,6,8,P|341:192|384:162,1,110,2|0,0:0|0:0,0:0:0:0:
396,52,34128,2,0,L|340:44,1,55,8|0,0:0|1:0,0:0:0:0:
292,72,34533,2,0,L|180:84,2,110,10|8|2,0:0|0:0|0:0,0:0:0:0:
364,156,35749,2,0,L|420:148,2,55,8|0|0,0:0|1:0|0:0,0:0:0:0:
332,200,36357,6,0,P|276:188|224:200,1,110,8|0,0:0|1:0,0:0:0:0:
176,224,36966,1,2,0:0:0:0:
176,332,37371,1,8,0:0:0:0:
284,348,37776,2,0,L|444:308,1,165,8|0,0:0|1:0,0:0:0:0:
500,304,38587,2,0,P|516:252|504:196,1,110,2|8,0:0|0:0,0:0:0:0:
480,148,39195,1,0,1:0:0:0:
394,78,39601,5,8,0:0:0:0:
304,140,40006,1,0,1:0:0:0:
304,140,40209,2,0,L|192:132,1,110,2|8,0:0|0:0,0:0:0:0:
88,168,41020,2,0,P|72:220|88:272,1,110,12|8,0:0|0:0,0:0:0:0:
180,332,41830,1,2,0:0:0:0:
180,332,42033,2,0,B|232:316|232:316|292:320,1,110,8|0,0:0|1:0,0:0:0:0:
396,332,42844,5,4,0:0:0:0:
396,332,49330,6,0,B|412:220|412:220|400:168,1,165,8|8,0:0|0:0,0:0:0:0:
372,120,50141,2,0,B|316:128|316:128|264:120,1,110,0|0,1:0|1:0,0:0:0:0:
212,104,50749,1,8,0:0:0:0:
104,128,51155,2,0,P|84:180|92:236,1,110,8|8,0:0|0:0,0:0:0:0:
124,276,51763,2,0,B|180:268|180:268|232:280,1,110,0|0,1:0|1:0,0:0:0:0:
336,320,52574,6,0,L|444:300,1,110,12|0,0:0|1:0,0:0:0:0:
436,192,53384,2,0,L|328:212,1,110,0|0,1:0|1:0,0:0:0:0:
276,196,53993,1,8,0:0:0:0:
276,196,54195,6,0,P|250:147|246:93,1,110,0|0,1:0|1:0,0:0:0:0:
324,36,55006,2,0,B|380:44|380:44|436:32,1,110,0|0,1:0|1:0,0:0:0:0:
484,44,55614,1,8,0:0:0:0:
484,44,55817,6,0,P|501:95|495:150,1,110,0|0,1:0|1:0,0:0:0:0:
420,232,56628,2,0,L|364:240,1,55,8|0,0:0|1:0,0:0:0:0:
312,248,57033,1,0,1:0:0:0:
220,308,57439,6,0,B|164:300|164:300|112:308|112:308|56:300,1,165,12|8,0:0|0:0,0:0:0:0:
4,204,58452,2,0,L|12:148,1,55,8|0,0:0|1:0,0:0:0:0:
60,124,58857,2,0,L|48:12,2,110,12|8|8,0:0|0:0|0:0,0:0:0:0:
152,184,60074,2,0,P|181:184|212:176,1,55,8|0,0:0|1:0,0:0:0:0:
292,108,60682,6,0,L|400:128,1,110,12|0,0:0|1:0,0:0:0:0:
444,160,61290,2,0,P|456:216|448:268,1,110,8|8,0:0|0:0,0:0:0:0:
348,312,62101,2,0,B|240:292|240:292|184:304,1,165,12|0,0:0|1:0,0:0:0:0:
132,288,62911,2,0,P|108:236|112:184,1,110,8|8,0:0|0:0,0:0:0:0:
132,132,63520,1,0,1:0:0:0:
240,160,63925,6,0,L|236:272,1,110,12|0,0:0|1:0,0:0:0:0:
260,320,64533,2,0,P|316:336|368:324,2,110,8|8|12,0:0|0:0|0:0,0:0:0:0:
148,324,65749,2,0,L|88:332,1,55,8|0,0:0|1:0,0:0:0:0:
40,340,66155,2,0,B|56:232|56:232|48:172,1,165,8|0,0:0|1:0,0:0:0:0:
88,72,67168,6,0,P|144:60|196:76,1,110,12|0,0:0|1:0,0:0:0:0:
236,108,67776,2,0,B|292:120|292:120|344:112,1,110,8|8,0:0|0:0,0:0:0:0:
456,112,68587,2,0,L|468:0,2,110,12|8|8,0:0|0:0|0:0,0:0:0:0:
492,152,69601,2,0,L|500:264,1,110,0|0,1:0|1:0,0:0:0:0:
432,348,70411,6,0,B|388:336|352:344|352:344|312:320|304:276,1,165,12|8,0:0|0:0,0:0:0:0:
336,172,71425,2,0,L|328:116,1,55,8|0,0:0|1:0,0:0:0:0:
296,72,71830,2,0,P|240:60|192:76,2,110,12|8|8,0:0|0:0|0:0,0:0:0:0:
404,60,73047,2,0,L|460:48,1,55,8|0,0:0|1:0,0:0:0:0:
508,144,73655,5,12,0:0:0:0:
508,144,73857,2,0,L|500:256,1,110,8|8,0:0|0:0,0:0:0:0:
408,316,74668,2,0,L|352:320,1,55,8|0,0:0|1:0,0:0:0:0:
304,344,75074,2,0,B|296:288|296:288|304:236|304:236|296:180,1,165,12|0,0:0|1:0,0:0:0:0:
280,128,75884,2,0,P|204:92|136:128,1,165,8|0,0:0|1:0,0:0:0:0:
64,208,76898,6,0,B|72:264|72:264|64:316,1,110,12|0,0:0|1:0,0:0:0:0:
81,369,77506,2,0,L|193:361,1,110,8|8,0:0|0:0,0:0:0:0:
264,280,78317,2,0,P|276:224|264:172,1,110,12|8,0:0|0:0,0:0:0:0:
240,124,78925,1,0,1:0:0:0:
240,124,79128,2,0,P|320:148|376:100,1,165,8|0,0:0|1:0,0:0:0:0:
468,36,80141,6,0,P|488:88|480:144,1,110,12|0,0:0|1:0,0:0:0:0:
456,188,80749,1,8,0:0:0:0:
468,296,81155,1,8,0:0:0:0:
388,372,81560,2,0,B|332:364|332:364|280:372|280:372|224:364,1,165,12|0,0:0|1:0,0:0:0:0:
176,336,82371,1,8,0:0:0:0:
176,336,82574,2,0,P|169:278|186:228,1,110,0|0,1:0|1:0,0:0:0:0:
268,160,83384,5,2,0:0:0:0:
308,120,96357,6,0,B|304:176|304:176|312:232|312:232|308:288,1,165,12|2,0:0|0:0,0:0:0:0:
412,324,97371,2,0,L|416:268,1,55,8|0,0:0|1:0,0:0:0:0:
464,240,97776,2,0,L|456:128,2,110,8|8|8,0:0|0:0|0:0,0:0:0:0:
360,276,98993,2,0,L|304:268,2,55,8|0|2,0:0|1:0|0:0,0:0:0:0:
300,368,99803,6,0,L|192:352,1,110,2|0,0:0|0:0,0:0:0:0:
96,300,100614,2,0,P|92:272|96:244,1,55,8|0,0:0|1:0,0:0:0:0:
128,200,101020,2,0,P|72:212|24:196,2,110,10|8|2,0:0|0:0|0:0,0:0:0:0:
208,124,102236,2,0,L|200:68,2,55,8|0|2,0:0|1:0|0:0,0:0:0:0:
260,148,102844,6,0,L|256:260,1,110,8|0,0:0|1:0,0:0:0:0:
300,296,103452,1,2,0:0:0:0:
408,296,103857,1,8,0:0:0:0:
476,208,104263,2,0,L|456:44,1,165,8|0,0:0|1:0,0:0:0:0:
408,20,105074,2,0,P|352:12|300:28,1,110,2|8,0:0|0:0,0:0:0:0:
256,56,105682,1,0,1:0:0:0:
180,136,106087,6,0,B|124:144|124:144|72:136,1,110,8|0,0:0|1:0,0:0:0:0:
16,144,106695,2,0,B|8:200|8:200|16:252,1,110,2|8,0:0|0:0,0:0:0:0:
104,320,107506,2,0,L|212:304,1,110,12|8,0:0|0:0,0:0:0:0:
324,308,108317,1,2,0:0:0:0:
324,308,108520,2,0,P|344:256|340:200,1,110,8|0,0:0|1:0,0:0:0:0:
268,120,109330,6,0,P|348:144|404:92,1,165,12|8,0:0|0:0,0:0:0:0:
428,44,110141,2,0,L|452:208,1,165,0|8,1:0|0:0,0:0:0:0:
392,300,111155,2,0,P|336:312|284:300,1,110,8|8,0:0|0:0,0:0:0:0:
244,264,111763,2,0,L|136:288,1,110,0|0,1:0|0:0,0:0:0:0:
64,372,112574,6,0,B|76:316|76:316|64:208,1,165,8|8,0:0|0:0,0:0:0:0:
28,168,113384,2,0,P|112:184|168:132,1,165,0|8,1:0|0:0,0:0:0:0:
257,72,114398,2,0,P|277:124|267:181,1,110,8|8,0:0|0:0,0:0:0:0:
240,224,115006,2,0,L|252:336,1,110,2|2,1:2|0:0,0:0:0:0:
360,348,115817,6,0,P|408:276|376:212,1,165,10|8,0:0|0:0,0:0:0:0:
340,172,116628,2,0,B|448:186|448:186|504:176,1,165,0|8,1:0|0:0,0:0:0:0:
504,68,117641,2,0,B|449:80|449:80|393:71,1,110,8|8,0:0|0:0,0:0:0:0:
340,60,118249,1,0,1:0:0:0:
244,116,118655,1,0,1:0:0:0:
232,224,119060,6,0,L|244:336,1,110,12|0,0:0|1:0,0:0:0:0:
352,352,119871,2,0,L|340:240,1,110,0|0,1:0|1:0,0:0:0:0:
360,192,120479,1,8,0:0:0:0:
360,192,120682,6,0,P|416:208|464:188,1,110,0|0,1:0|1:0,0:0:0:0:
460,80,121493,2,0,L|352:64,1,110,0|0,1:0|1:0,0:0:0:0:
304,88,122101,1,8,0:0:0:0:
304,88,122303,6,0,L|192:96,1,110,0|0,1:0|1:0,0:0:0:0:
96,144,123114,2,0,L|88:204,1,55,8|0,0:0|1:0,0:0:0:0:
80,252,123520,1,0,1:0:0:0:
148,340,123925,6,0,P|228:360|296:320,1,165,12|8,0:0|0:0,0:0:0:0:
340,220,124939,2,0,L|332:164,1,55,8|0,0:0|1:0,0:0:0:0:
372,128,125344,2,0,L|376:16,2,110,12|8|8,0:0|0:0|0:0,0:0:0:0:
264,148,126560,2,0,L|208:140,1,55,8|0,0:0|1:0,0:0:0:0:
104,176,127168,6,0,P|80:228|112:328,1,165,12|8,0:0|0:0,0:0:0:0:
187,248,128182,2,0,L|243:240,1,55,8|0,0:0|1:0,0:0:0:0:
288,268,128587,2,0,B|400:280|400:280|452:268,1,165,12|0,0:0|1:0,0:0:0:0:
488,228,129398,2,0,P|496:172|476:120,1,110,8|8,0:0|0:0,0:0:0:0:
440,84,130006,1,0,1:0:0:0:
340,132,130411,6,0,L|356:240,1,110,12|0,0:0|1:0,0:0:0:0:
364,296,131020,1,8,0:0:0:0:
276,360,131425,1,8,0:0:0:0:
168,332,131830,2,0,P|136:288|136:232,1,110,12|8,0:0|0:0,0:0:0:0:
164,188,132439,1,0,1:0:0:0:
164,188,132641,2,0,B|172:104|172:104|152:24,1,165,8|0,0:0|1:0,0:0:0:0:
45,50,133655,6,0,P|29:102|41:158,1,110,12|0,0:0|1:0,0:0:0:0:
77,194,134263,2,0,L|189:186,1,110,8|8,0:0|0:0,0:0:0:0:
284,136,135074,2,0,B|280:192|280:192|292:248|292:248|288:300,1,165,12|0,0:0|1:0,0:0:0:0:
252,340,135884,1,8,0:0:0:0:
252,340,136087,2,0,P|196:352|144:344,1,110,0|0,1:0|1:0,0:0:0:0:
72,264,136898,6,0,B|44:224|52:184|52:184|96:168|108:128,1,165,12|8,0:0|0:0,0:0:0:0:
204,76,137911,2,0,L|260:68,1,55,8|0,0:0|1:0,0:0:0:0:
304,100,138317,2,0,L|416:108,2,110,12|8|8,0:0|0:0|0:0,0:0:0:0:
228,180,139533,2,0,P|224:208|228:240,1,55,8|0,0:0|1:0,0:0:0:0:
292,324,140141,5,12,0:0:0:0:
292,324,140344,2,0,B|348:316|348:316|404:324,2,110,8|8|8,0:0|0:0|0:0,0:0:0:0:
236,228,141560,2,0,B|180:236|180:236|72:220,1,165,12|0,0:0|1:0,0:0:0:0:
32,184,142371,2,0,P|12:132|20:80,1,110,8|8,0:0|0:0,0:0:0:0:
48,32,142979,1,0,1:0:0:0:
112,121,143384,6,0,B|168:128|168:128|220:116,1,110,12|0,0:0|1:0,0:0:0:0:
276,120,143993,2,0,P|296:172|292:228,1,110,8|8,0:0|0:0,0:0:0:0:
244,324,144803,2,0,B|300:328|300:328|352:316|352:316|408:320,1,165,12|0,0:0|1:0,0:0:0:0:
456,292,145614,2,0,P|476:240|468:188,1,110,8|8,0:0|0:0,0:0:0:0:
440,140,146222,1,0,1:0:0:0:
336,108,146628,6,0,P|280:116|232:96,1,110,12|0,0:0|1:0,0:0:0:0:
188,64,147236,2,0,L|172:172,1,110,8|8,0:0|0:0,0:0:0:0:
103,259,148047,2,0,P|183:283|254:245,1,165,12|0,0:0|1:0,0:0:0:0:
288,204,148857,1,8,0:0:0:0:
288,204,149060,2,0,L|300:316,1,110,0|0,1:0|1:0,0:0:0:0:
408,340,149871,6,0,L|396:228,1,110,4|0,1:2|1:0,0:0:0:0:
288,204,150682,2,0,L|304:96,1,110,0|0,1:0|1:0,0:0:0:0:
276,48,151290,2,0,P|224:68|172:48,1,110,8|8,0:0|0:0,0:0:0:0:
132,16,151898,1,0,1:0:0:0:
30,59,152303,2,0,P|10:111|22:163,1,110,0|0,1:0|1:0,0:0:0:0:
124,204,153114,6,0,L|112:316,1,110,4|0,1:2|1:0,0:0:0:0:
212,360,153925,2,0,L|224:248,1,110,0|0,1:0|1:0,0:0:0:0:
243,199,154533,2,0,P|295:179|347:187,1,110,8|8,0:0|0:0,0:0:0:0:
391,219,155141,1,0,1:0:0:0:
490,265,155547,2,0,P|498:209|482:157,1,110,0|0,1:0|1:0,0:0:0:0:
408,80,156357,6,0,L|296:76,1,110,4|0,1:2|1:0,0:0:0:0:
200,28,157168,1,0,1:0:0:0:
108,84,157574,1,0,1:0:0:0:
108,84,157776,2,0,L|116:196,1,110,8|8,0:0|0:0,0:0:0:0:
120,248,158384,1,0,1:0:0:0:
213,305,158790,2,0,L|209:361,2,55,0|8|0,1:0|0:0|1:0,0:0:0:0:
272,212,159601,6,0,P|324:196|376:212,1,110,4|0,1:2|1:0,0:0:0:0:
460,284,160411,1,0,1:0:0:0:
500,184,160817,1,0,1:0:0:0:
448,88,161222,2,0,L|460:32,2,55,0|8|0,1:0|0:0|1:0,0:0:0:0:
356,148,162033,2,0,L|368:260,1,110,0|0,1:0|1:0,0:0:0:0:
332,300,162641,1,8,0:0:0:0:
332,300,162844,6,0,L|324:360,2,55,0|8|8,1:0|0:0|0:0,0:0:0:0:
248,228,163655,2,0,L|244:172,2,55,8|0|0,0:0|1:0|1:0,0:0:0:0:
188,320,164466,1,0,1:0:0:0:
80,312,164871,1,8,0:0:0:0:
28,216,165276,2,0,L|32:160,1,55,0|8,1:0|0:0,0:0:0:0:
36,108,165682,1,4,1:2:0:0:
124,40,166087,5,2,0:0:0:0:
124,40,179060,5,8,0:0:0:0:
48,120,179466,2,0,B|64:228|64:228|52:284,1,165,8|8,0:1|0:0,0:0:0:0:
28,332,180276,1,8,0:1:0:0:
28,332,180479,2,0,B|84:328|84:328|136:344|136:344|192:340,1,165,8|8,0:0|0:1,0:0:0:0:
256,252,181493,2,0,P|260:224|256:196,2,55,0|8|8,0:0|0:0|0:1,0:0:0:0:
320,340,182303,5,8,0:0:0:0:
320,340,182506,2,0,L|432:328,2,110,2|2|8,0:0|0:0|0:0,0:0:0:0:
228,280,183722,2,0,L|116:272,1,110,8|8,0:0|0:0,0:0:0:0:
68,288,184330,1,8,0:1:0:0:
68,288,184533,2,0,P|24:216|48:144,1,165,2|8,0:0|0:1,0:0:0:0:
152,104,185547,6,0,B|208:112|208:112|260:104,1,110,8|8,0:0|0:1,0:0:0:0:
312,84,186155,2,0,L|420:100,2,110,2|8|8,0:0|0:0|0:0,0:0:0:0:
232,160,187371,1,8,0:0:0:0:
232,160,187574,2,0,P|220:216|236:264,1,110,8|0,0:1|0:0,0:0:0:0:
268,308,188182,1,8,0:0:0:0:
268,308,188384,1,8,0:1:0:0:
372,344,188790,6,0,L|428:340,1,55,2|0,0:0|0:0,0:0:0:0:
500,260,189398,2,0,P|512:204|492:156,1,110,2|2,0:0|1:2,0:0:0:0:
452,120,190006,1,2,1:2:0:0:
452,120,190209,1,2,1:2:0:0:
452,120,191628,2,0,L|396:124,1,55,0|0,1:0|0:0,0:0:0:0:
352,96,192033,6,0,B|348:152|348:152|360:204|360:204|356:264,1,165,12|8,0:0|0:0,0:0:0:0:
268,324,193047,2,0,L|212:320,1,55,8|0,0:0|1:0,0:0:0:0:
156,316,193452,1,12,0:0:0:0:
64,256,193857,1,8,0:0:0:0:
128,168,194263,1,8,0:0:0:0:
220,228,194668,2,0,P|238:170|226:117,1,110,8|2,0:0|0:0,0:0:0:0:
201,74,195276,6,0,P|281:98|337:50,1,165,12|8,0:0|0:0,0:0:0:0:
444,23,196290,1,8,0:0:0:0:
496,120,196695,2,0,L|488:232,1,110,12|8,0:0|0:0,0:0:0:0:
456,276,197303,1,0,1:0:0:0:
456,276,197506,2,0,P|400:284|352:260,1,110,8|8,0:0|0:0,0:0:0:0:
316,220,198114,2,0,L|260:228,1,55,0|2,1:0|0:0,0:0:0:0:
212,204,198520,6,0,P|224:260|216:312,1,110,12|0,0:0|1:0,0:0:0:0:
176,348,199128,1,8,0:0:0:0:
65,351,199533,1,8,0:0:0:0:
8,256,199939,2,0,L|20:144,1,110,12|8,0:0|0:0,0:0:0:0:
56,108,200547,1,0,1:0:0:0:
56,108,200749,2,0,P|132:144|184:96,1,165,8|0,0:0|1:0,0:0:0:0:
236,76,201560,1,2,0:0:0:0:
236,76,201763,6,0,P|256:128|260:184,1,110,12|0,0:0|1:0,0:0:0:0:
252,236,202371,1,8,0:0:0:0:
336,308,202776,2,0,L|392:300,1,55,8|0,0:0|1:0,0:0:0:0:
421,254,203182,2,0,B|401:146|401:146|405:90,1,165,12|0,0:0|1:0,0:0:0:0:
380,48,203993,1,8,0:0:0:0:
380,48,204195,2,0,B|324:44|324:44|268:54,1,110,0|0,1:0|1:0,0:0:0:0:
208,144,205006,6,0,L|216:256,1,110,12|0,0:0|1:0,0:0:0:0:
252,292,205614,2,0,P|308:284|360:300,1,110,8|8,0:0|0:0,0:0:0:0:
408,324,206222,1,0,1:0:0:0:
408,324,206425,2,0,B|428:216,1,110,12|8,0:0|0:0,0:0:0:0:
444,164,207033,1,0,1:0:0:0:
440,56,207439,1,0,1:0:0:0:
340,12,207844,1,0,1:0:0:0:
268,96,208249,5,4,1:2:0:0:
268,96,208452,2,0,L|284:204,2,110,8|8|8,0:0|0:0|0:0,0:0:0:0:
228,60,209466,1,0,1:0:0:0:
228,60,209668,2,0,P|145:39|76:77,1,165,12|0,0:0|1:0,0:0:0:0:
52,124,210479,2,0,B|56:180|56:180|44:232|44:232|48:288,1,165,8|0,0:0|1:0,0:0:0:0:
84,328,211290,1,8,0:0:0:0:
84,328,211493,6,0,P|140:340|188:324,1,110,4|0,1:2|1:0,0:0:0:0:
236,300,212101,1,8,0:0:0:0:
344,280,212506,2,0,L|396:296,1,55,8|0,0:0|1:0,0:0:0:0:
452,292,212911,2,0,P|464:236|448:184,1,110,12|8,0:0|0:0,0:0:0:0:
420,140,213520,2,0,P|424:84|452:36,2,110,0|0|0,1:0|1:0|1:0,0:0:0:0:
384,184,214533,1,8,0:0:0:0:
384,184,214736,22,0,L|272:172,1,110,4|0,1:2|1:0,0:0:0:0:
236,132,215344,2,0,B|184:148|184:148|128:144,1,110,8|8,0:0|0:0,0:0:0:0:
100,252,216155,2,0,P|182:237|239:287,1,165,12|0,0:0|1:0,0:0:0:0:
264,336,216966,1,8,0:0:0:0:
264,336,217168,2,0,B|320:324|320:324|376:332,1,110,0|0,1:0|1:0,0:0:0:0:
454,259,217979,53,12,0:0:0:0:
