osu file format v14

[General]
AudioFilename: Kizuna no Yukue feat. Shiomiya Shiori.mp3
AudioLeadIn: 0
PreviewTime: 57439
Countdown: 0
SampleSet: Normal
StackLeniency: 0.7
Mode: 1
LetterboxInBreaks: 0
WidescreenStoryboard: 0

[Editor]
DistanceSpacing: 1.4
BeatDivisor: 4
GridSize: 32
TimelineZoom: 1.2

[Metadata]
Title:Kizuna no Yukue feat. Shiomiya Shiori
TitleUnicode:キズナノユクエ feat. 汐宮 栞
Artist:Shiomiya Shiori starring Hanazawa Kana
ArtistUnicode:汐宮 栞 starring 花澤香菜
Creator:Bearizm
Version:Nardo's Oni
Source:神のみぞ知るセカイ 女神篇
Tags:Kami Nomi zo Shiru Sekai Megami-hen The World God Only Knows: Godesses ED Ending Momochikun Nardoxyribonucleic
BeatmapID:770170
BeatmapSetID:347422

[Difficulty]
HPDrainRate:5
CircleSize:5
OverallDifficulty:5
ApproachRate:7
SliderMultiplier:1.4
SliderTickRate:1

[Events]
//Background and Video events
0,0,"Nardo.jpg",0,0
//Break Periods
//Storyboard Layer 0 (Background)
//Storyboard Layer 1 (Fail)
//Storyboard Layer 2 (Pass)
//Storyboard Layer 3 (Foreground)
//Storyboard Sound Samples

[TimingPoints]
695,405.405405405405,4,1,0,40,1,0
695,-111.111111111111,4,1,0,40,0,0
10210,405.405405405405,4,1,0,70,1,8
10412,405.405405405405,4,1,0,40,1,0
29871,-100,4,1,0,75,0,0
42844,-100,4,1,0,55,0,0
49330,-100,4,1,0,65,0,0
52574,-100,4,1,0,70,0,0
57439,-100,4,1,0,80,0,1
83384,-100,4,1,0,50,0,0
96357,-100,4,1,0,75,0,0
109330,-100,4,1,0,65,0,0
119060,-100,4,1,0,70,0,0
123925,-100,4,1,0,80,0,1
149871,-100,4,1,0,80,0,0
166087,-100,4,1,0,50,0,0
179060,-100,4,1,0,65,0,0
189601,-100,4,1,0,75,0,0
190411,-100,4,1,0,65,0,0
192033,-90.9090909090909,4,1,0,90,0,1
217979,-90.9090909090909,4,1,0,50,0,0
218182,-92.5925925925926,4,1,0,50,0,0
218384,-94.3396226415094,4,1,0,50,0,0
218587,-96.1538461538461,4,1,0,50,0,0
218993,-100,4,1,0,50,0,0

[HitObjects]
256,192,695,5,0,0:0:0:0:
256,192,1303,1,8,0:0:0:0:
256,192,1911,1,8,0:0:0:0:
256,192,2113,1,0,0:0:0:0:
256,192,3938,1,0,0:0:0:0:
256,192,4546,1,8,0:0:0:0:
256,192,5154,1,0,0:0:0:0:
256,192,5357,1,0,0:0:0:0:
256,192,7181,1,0,0:0:0:0:
256,192,7789,1,8,0:0:0:0:
256,192,8397,1,0,0:0:0:0:
256,192,8600,1,8,0:0:0:0:
256,192,9411,1,0,0:0:0:0:
256,192,10210,1,4,0:0:0:0:
256,192,10614,1,0,0:0:0:0:
256,192,10817,1,8,0:0:0:0:
256,192,11020,1,0,0:0:0:0:
256,192,11222,1,12,0:0:0:0:
256,192,11628,1,8,0:0:0:0:
256,192,11830,1,0,0:0:0:0:
256,192,12033,1,8,0:0:0:0:
256,192,12236,1,0,0:0:0:0:
256,192,12439,1,8,0:0:0:0:
256,192,12641,1,0,0:0:0:0:
256,192,12844,1,8,0:0:0:0:
256,192,13047,1,0,0:0:0:0:
256,192,13249,1,8,0:0:0:0:
256,192,13452,1,4,0:0:0:0:
256,192,13857,1,0,0:0:0:0:
256,192,14060,1,8,0:0:0:0:
256,192,14263,1,0,0:0:0:0:
256,192,14466,1,12,0:0:0:0:
256,192,14871,1,8,0:0:0:0:
256,192,15074,1,0,0:0:0:0:
256,192,15276,1,4,0:0:0:0:
256,192,15682,1,0,0:0:0:0:
256,192,15884,1,12,0:0:0:0:
256,192,16290,1,0,0:0:0:0:
256,192,16493,1,8,0:0:0:0:
256,192,16898,1,0,0:0:0:0:
256,192,17506,1,8,0:0:0:0:
256,192,17911,1,0,0:0:0:0:
256,192,18317,1,0,0:0:0:0:
256,192,19533,1,0,0:0:0:0:
256,192,19736,1,0,0:0:0:0:
256,192,19939,1,8,0:0:0:0:
256,192,20344,1,8,0:0:0:0:
256,192,21155,1,8,0:0:0:0:
256,192,21357,1,0,0:0:0:0:
256,192,21560,1,0,0:0:0:0:
256,192,22776,1,0,0:0:0:0:
256,192,22979,1,0,0:0:0:0:
256,192,23182,1,8,0:0:0:0:
256,192,23384,1,0,0:0:0:0:
256,192,23790,1,0,0:0:0:0:
256,192,23993,1,8,0:0:0:0:
256,192,24398,1,8,0:0:0:0:
256,192,24803,1,0,0:0:0:0:
256,192,25614,1,0,0:0:0:0:
256,192,26425,1,0,0:0:0:0:
256,192,26628,1,8,0:0:0:0:
256,192,27033,1,8,0:0:0:0:
256,192,27236,1,8,0:0:0:0:
256,192,27641,1,0,0:0:0:0:
256,192,28047,1,8,0:0:0:0:
256,192,28857,1,0,0:0:0:0:
256,192,28959,1,0,0:0:0:0:
256,192,29060,1,8,0:0:0:0:
256,192,29263,1,0,0:0:0:0:
256,192,29466,1,8,0:0:0:0:
256,192,29871,1,4,0:0:0:0:
256,192,30276,1,8,0:0:0:0:
256,192,30479,1,8,0:0:0:0:
256,192,30580,1,8,0:0:0:0:
256,192,30682,1,0,0:0:0:0:
256,192,30884,1,0,0:0:0:0:
256,192,31087,1,8,0:0:0:0:
256,192,31290,1,0,0:0:0:0:
256,192,31695,1,0,0:0:0:0:
256,192,31898,1,8,0:0:0:0:
256,192,32101,1,8,0:0:0:0:
256,192,32202,1,8,0:0:0:0:
256,192,32303,1,0,0:0:0:0:
256,192,32405,1,8,0:0:0:0:
256,192,32506,1,0,0:0:0:0:
256,192,32709,1,8,0:0:0:0:
256,192,32911,1,8,0:0:0:0:
256,192,33114,1,0,0:0:0:0:
256,192,33520,1,8,0:0:0:0:
256,192,33824,1,8,0:0:0:0:
256,192,33925,1,0,0:0:0:0:
256,192,34128,1,0,0:0:0:0:
256,192,34330,1,8,0:0:0:0:
256,192,34533,1,4,0:0:0:0:
256,192,34939,1,0,0:0:0:0:
256,192,35040,1,0,0:0:0:0:
256,192,35141,1,8,0:0:0:0:
256,192,35344,1,8,0:0:0:0:
256,192,35445,1,0,0:0:0:0:
256,192,35648,1,0,0:0:0:0:
256,192,35749,1,0,0:0:0:0:
256,192,35952,1,8,0:0:0:0:
256,192,36155,1,0,0:0:0:0:
256,192,36256,1,0,0:0:0:0:
256,192,36357,1,0,0:0:0:0:
256,192,36560,1,0,0:0:0:0:
256,192,36763,1,8,0:0:0:0:
256,192,36966,1,0,0:0:0:0:
256,192,37067,1,8,0:0:0:0:
256,192,37168,1,0,0:0:0:0:
256,192,37371,1,8,0:0:0:0:
256,192,37574,1,8,0:0:0:0:
256,192,37776,1,0,0:0:0:0:
256,192,38182,1,0,0:0:0:0:
256,192,38384,1,8,0:0:0:0:
256,192,38587,1,0,0:0:0:0:
256,192,38790,1,8,0:0:0:0:
256,192,38891,1,0,0:0:0:0:
256,192,38993,1,0,0:0:0:0:
256,192,39094,1,0,0:0:0:0:
256,192,39195,1,8,0:0:0:0:
256,192,39398,1,0,0:0:0:0:
256,192,39601,1,8,0:0:0:0:
256,192,40006,1,8,0:0:0:0:
256,192,40209,1,0,0:0:0:0:
256,192,40310,1,8,0:0:0:0:
256,192,40513,1,8,0:0:0:0:
256,192,40614,1,0,0:0:0:0:
256,192,40817,1,8,0:0:0:0:
256,192,41020,1,4,0:0:0:0:
256,192,41425,1,0,0:0:0:0:
256,192,41628,1,8,0:0:0:0:
256,192,41729,1,8,0:0:0:0:
256,192,41830,1,0,0:0:0:0:
256,192,42033,1,4,0:0:0:0:
256,192,42236,1,0,0:0:0:0:
256,192,42337,1,0,0:0:0:0:
256,192,42439,1,8,0:0:0:0:
256,192,42540,1,8,0:0:0:0:
256,192,42641,1,0,0:0:0:0:
256,192,42844,1,0,0:0:0:0:
256,192,43857,1,0,0:0:0:0:
256,192,44263,1,8,0:0:0:0:
256,192,44668,1,8,0:0:0:0:
256,192,45074,1,0,0:0:0:0:
256,192,45276,1,0,0:0:0:0:
256,192,46087,1,0,0:0:0:0:
256,192,47101,1,0,0:0:0:0:
256,192,47506,1,8,0:0:0:0:
256,192,47911,1,8,0:0:0:0:
256,192,48114,1,0,0:0:0:0:
256,192,48317,1,0,0:0:0:0:
256,192,49330,1,0,0:0:0:0:
256,192,49939,1,0,0:0:0:0:
256,192,50040,1,0,0:0:0:0:
256,192,50141,1,8,0:0:0:0:
256,192,50344,1,8,0:0:0:0:
256,192,50547,1,0,0:0:0:0:
256,192,50749,1,8,0:0:0:0:
256,192,51155,1,8,0:0:0:0:
256,192,51357,1,0,0:0:0:0:
256,192,51560,1,0,0:0:0:0:
256,192,51661,1,0,0:0:0:0:
256,192,51763,1,8,0:0:0:0:
256,192,51966,1,0,0:0:0:0:
256,192,52168,1,8,0:0:0:0:
256,192,52371,1,0,0:0:0:0:
256,192,52574,1,4,0:0:0:0:
256,192,52979,1,8,0:0:0:0:
256,192,53182,1,0,0:0:0:0:
256,192,53283,1,0,0:0:0:0:
256,192,53384,1,0,0:0:0:0:
256,192,53587,1,0,0:0:0:0:
256,192,53790,1,8,0:0:0:0:
256,192,53993,1,0,0:0:0:0:
256,192,54094,1,0,0:0:0:0:
256,192,54195,1,8,0:0:0:0:
256,192,54398,1,0,0:0:0:0:
256,192,54601,1,8,0:0:0:0:
256,192,54803,1,8,0:0:0:0:
256,192,54905,1,0,0:0:0:0:
256,192,55006,1,8,0:0:0:0:
256,192,55209,1,0,0:0:0:0:
256,192,55411,1,8,0:0:0:0:
256,192,55614,1,0,0:0:0:0:
256,192,55716,1,0,0:0:0:0:
256,192,55817,1,8,0:0:0:0:
256,192,55918,1,8,0:0:0:0:
256,192,56020,1,0,0:0:0:0:
256,192,56222,1,8,0:0:0:0:
256,192,56425,1,0,0:0:0:0:
256,192,56628,1,0,0:0:0:0:
256,192,56729,1,8,0:0:0:0:
256,192,56830,1,8,0:0:0:0:
256,192,56932,1,8,0:0:0:0:
256,192,57033,1,8,0:0:0:0:
256,192,57439,1,4,0:0:0:0:
256,192,57844,1,8,0:0:0:0:
256,192,58047,1,0,0:0:0:0:
256,192,58148,1,0,0:0:0:0:
256,192,58249,1,8,0:0:0:0:
256,192,58452,1,0,0:0:0:0:
256,192,58655,1,8,0:0:0:0:
256,192,58857,1,0,0:0:0:0:
256,192,58959,1,0,0:0:0:0:
256,192,59060,1,0,0:0:0:0:
256,192,59263,1,0,0:0:0:0:
256,192,59466,1,8,0:0:0:0:
256,192,59668,1,8,0:0:0:0:
256,192,59770,1,0,0:0:0:0:
256,192,59871,1,8,0:0:0:0:
256,192,59972,1,8,0:0:0:0:
256,192,60074,1,0,0:0:0:0:
256,192,60276,1,8,0:0:0:0:
256,192,60682,1,0,0:0:0:0:
256,192,61087,1,8,0:0:0:0:
256,192,61290,1,0,0:0:0:0:
256,192,61391,1,0,0:0:0:0:
256,192,61493,1,8,0:0:0:0:
256,192,61695,1,0,0:0:0:0:
256,192,61898,1,8,0:0:0:0:
256,192,62101,1,8,0:0:0:0:
256,192,62506,1,0,0:0:0:0:
256,192,62709,1,8,0:0:0:0:
256,192,62911,1,0,0:0:0:0:
256,192,63013,1,0,0:0:0:0:
256,192,63114,1,0,0:0:0:0:
256,192,63317,1,0,0:0:0:0:
256,192,63520,1,8,0:0:0:0:
256,192,63722,1,8,0:0:0:0:
256,192,63824,1,8,0:0:0:0:
256,192,63925,1,0,0:0:0:0:
256,192,64128,1,8,0:0:0:0:
256,192,64533,1,0,0:0:0:0:
256,192,64634,1,0,0:0:0:0:
256,192,64736,1,8,0:0:0:0:
256,192,64837,1,8,0:0:0:0:
256,192,64939,1,0,0:0:0:0:
256,192,65141,1,8,0:0:0:0:
256,192,65344,1,0,0:0:0:0:
256,192,65749,1,0,0:0:0:0:
256,192,65851,1,0,0:0:0:0:
256,192,65952,1,8,0:0:0:0:
256,192,66155,1,8,0:0:0:0:
256,192,66357,1,0,0:0:0:0:
256,192,66459,1,8,0:0:0:0:
256,192,66560,1,0,0:0:0:0:
256,192,66763,1,8,0:0:0:0:
256,192,66966,1,0,0:0:0:0:
256,192,67168,1,8,0:0:0:0:
256,192,67371,1,8,0:0:0:0:
256,192,67574,1,0,0:0:0:0:
256,192,67776,1,8,0:0:0:0:
256,192,67878,1,0,0:0:0:0:
256,192,67979,1,8,0:0:0:0:
256,192,68080,1,8,0:0:0:0:
256,192,68182,1,0,0:0:0:0:
256,192,68384,1,8,0:0:0:0:
256,192,68587,1,4,0:0:0:0:
256,192,68993,1,0,0:0:0:0:
256,192,69195,1,8,0:0:0:0:
256,192,69398,1,8,0:0:0:0:
256,192,69499,1,0,0:0:0:0:
256,192,69601,1,8,0:0:0:0:
256,192,69803,1,0,0:0:0:0:
256,192,70006,1,8,0:0:0:0:
256,192,70411,1,4,0:0:0:0:
256,192,70817,1,8,0:0:0:0:
256,192,71020,1,0,0:0:0:0:
256,192,71222,1,8,0:0:0:0:
256,192,71324,1,8,0:0:0:0:
256,192,71425,1,0,0:0:0:0:
256,192,71628,1,8,0:0:0:0:
256,192,71830,1,0,0:0:0:0:
256,192,71932,1,0,0:0:0:0:
256,192,72033,1,0,0:0:0:0:
256,192,72236,1,0,0:0:0:0:
256,192,72439,1,8,0:0:0:0:
256,192,72641,1,0,0:0:0:0:
256,192,72743,1,0,0:0:0:0:
256,192,72844,1,8,0:0:0:0:
256,192,72945,1,8,0:0:0:0:
256,192,73047,1,0,0:0:0:0:
256,192,73249,1,8,0:0:0:0:
256,192,73655,1,8,0:0:0:0:
256,192,73857,1,0,0:0:0:0:
256,192,74060,1,8,0:0:0:0:
256,192,74263,1,0,0:0:0:0:
256,192,74364,1,0,0:0:0:0:
256,192,74466,1,0,0:0:0:0:
256,192,74668,1,0,0:0:0:0:
256,192,74871,1,8,0:0:0:0:
256,192,75074,1,8,0:0:0:0:
256,192,75479,1,0,0:0:0:0:
256,192,75682,1,8,0:0:0:0:
256,192,75884,1,0,0:0:0:0:
256,192,75986,1,0,0:0:0:0:
256,192,76087,1,0,0:0:0:0:
256,192,76290,1,0,0:0:0:0:
256,192,76493,1,8,0:0:0:0:
256,192,76695,1,0,0:0:0:0:
256,192,76797,1,0,0:0:0:0:
256,192,76898,1,8,0:0:0:0:
256,192,77101,1,8,0:0:0:0:
256,192,77303,1,0,0:0:0:0:
256,192,77506,1,8,0:0:0:0:
256,192,77607,1,0,0:0:0:0:
256,192,77709,1,8,0:0:0:0:
256,192,77810,1,8,0:0:0:0:
256,192,77911,1,0,0:0:0:0:
256,192,78114,1,8,0:0:0:0:
256,192,78317,1,0,0:0:0:0:
256,192,78722,1,0,0:0:0:0:
256,192,78824,1,0,0:0:0:0:
256,192,78925,1,8,0:0:0:0:
256,192,79128,1,8,0:0:0:0:
256,192,79330,1,0,0:0:0:0:
256,192,79432,1,8,0:0:0:0:
256,192,79533,1,0,0:0:0:0:
256,192,79634,1,0,0:0:0:0:
256,192,79736,1,8,0:0:0:0:
256,192,79939,1,0,0:0:0:0:
256,192,80040,1,0,0:0:0:0:
256,192,80141,1,8,0:0:0:0:
256,192,80344,1,8,0:0:0:0:
256,192,80547,1,0,0:0:0:0:
256,192,80749,1,0,0:0:0:0:
256,192,80851,1,0,0:0:0:0:
256,192,80952,1,8,0:0:0:0:
256,192,81053,1,8,0:0:0:0:
256,192,81155,1,0,0:0:0:0:
256,192,81357,1,8,0:0:0:0:
256,192,81560,1,0,0:0:0:0:
256,192,81966,1,0,0:0:0:0:
256,192,82067,1,8,0:0:0:0:
256,192,82168,1,8,0:0:0:0:
256,192,82371,1,8,0:0:0:0:
256,192,82472,1,0,0:0:0:0:
256,192,82574,1,8,0:0:0:0:
256,192,82776,1,0,0:0:0:0:
256,192,82979,1,8,0:0:0:0:
256,192,83182,1,0,0:0:0:0:
256,192,83283,1,0,0:0:0:0:
256,192,83384,1,0,0:0:0:0:
256,192,83587,1,0,0:0:0:0:
256,192,83790,1,0,0:0:0:0:
256,192,83993,1,8,0:0:0:0:
256,192,84398,1,0,0:0:0:0:
256,192,84803,1,8,0:0:0:0:
256,192,86425,1,0,0:0:0:0:
256,192,86526,1,0,0:0:0:0:
256,192,86628,1,8,0:0:0:0:
256,192,86830,1,0,0:0:0:0:
256,192,87033,1,0,0:0:0:0:
256,192,87236,1,8,0:0:0:0:
256,192,87641,1,0,0:0:0:0:
256,192,88047,1,8,0:0:0:0:
256,192,89668,1,0,0:0:0:0:
256,192,89770,1,0,0:0:0:0:
256,192,89871,1,0,0:0:0:0:
256,192,90074,1,0,0:0:0:0:
256,192,90276,1,0,0:0:0:0:
256,192,90479,1,8,0:0:0:0:
256,192,90884,1,0,0:0:0:0:
256,192,91290,1,8,0:0:0:0:
256,192,93114,1,0,0:0:0:0:
256,192,93317,1,8,0:0:0:0:
256,192,93520,1,8,0:0:0:0:
256,192,93722,1,0,0:0:0:0:
256,192,93925,1,8,0:0:0:0:
256,192,94128,1,0,0:0:0:0:
256,192,94330,1,8,0:0:0:0:
256,192,94533,1,0,0:0:0:0:
256,192,94736,1,0,0:0:0:0:
256,192,94939,1,8,0:0:0:0:
256,192,95141,1,8,0:0:0:0:
256,192,95344,1,0,0:0:0:0:
256,192,95547,1,8,0:0:0:0:
256,192,95749,1,0,0:0:0:0:
256,192,95952,1,8,0:0:0:0:
256,192,96357,1,4,0:0:0:0:
256,192,96763,1,8,0:0:0:0:
256,192,96966,1,8,0:0:0:0:
256,192,97067,1,8,0:0:0:0:
256,192,97168,1,0,0:0:0:0:
256,192,97371,1,0,0:0:0:0:
256,192,97574,1,8,0:0:0:0:
256,192,97776,1,0,0:0:0:0:
256,192,98182,1,0,0:0:0:0:
256,192,98384,1,8,0:0:0:0:
256,192,98587,1,8,0:0:0:0:
256,192,98689,1,8,0:0:0:0:
256,192,98790,1,0,0:0:0:0:
256,192,98891,1,8,0:0:0:0:
256,192,98993,1,0,0:0:0:0:
256,192,99195,1,8,0:0:0:0:
256,192,99398,1,8,0:0:0:0:
256,192,99601,1,0,0:0:0:0:
256,192,99803,1,8,0:0:0:0:
256,192,100006,1,0,0:0:0:0:
256,192,100310,1,8,0:0:0:0:
256,192,100411,1,0,0:0:0:0:
256,192,100513,1,8,0:0:0:0:
256,192,100614,1,0,0:0:0:0:
256,192,100817,1,8,0:0:0:0:
256,192,101020,1,4,0:0:0:0:
256,192,101425,1,0,0:0:0:0:
256,192,101526,1,0,0:0:0:0:
256,192,101628,1,8,0:0:0:0:
256,192,101830,1,0,0:0:0:0:
256,192,101932,1,8,0:0:0:0:
256,192,102033,1,8,0:0:0:0:
256,192,102236,1,0,0:0:0:0:
256,192,102439,1,8,0:0:0:0:
256,192,102641,1,0,0:0:0:0:
256,192,102743,1,0,0:0:0:0:
256,192,102844,1,0,0:0:0:0:
256,192,103047,1,0,0:0:0:0:
256,192,103249,1,8,0:0:0:0:
256,192,103452,1,0,0:0:0:0:
256,192,103553,1,8,0:0:0:0:
256,192,103655,1,0,0:0:0:0:
256,192,103857,1,8,0:0:0:0:
256,192,104060,1,8,0:0:0:0:
256,192,104263,1,0,0:0:0:0:
256,192,104668,1,0,0:0:0:0:
256,192,104871,1,8,0:0:0:0:
256,192,105074,1,0,0:0:0:0:
256,192,105175,1,0,0:0:0:0:
256,192,105276,1,8,0:0:0:0:
256,192,105378,1,0,0:0:0:0:
256,192,105479,1,0,0:0:0:0:
256,192,105580,1,0,0:0:0:0:
256,192,105682,1,8,0:0:0:0:
256,192,105884,1,0,0:0:0:0:
256,192,105986,1,0,0:0:0:0:
256,192,106087,1,8,0:0:0:0:
256,192,106493,1,8,0:0:0:0:
256,192,106695,1,0,0:0:0:0:
256,192,106797,1,0,0:0:0:0:
256,192,106898,1,8,0:0:0:0:
256,192,106999,1,8,0:0:0:0:
256,192,107101,1,0,0:0:0:0:
256,192,107303,1,8,0:0:0:0:
256,192,107506,1,4,0:0:0:0:
256,192,107911,1,0,0:0:0:0:
256,192,108114,1,8,0:0:0:0:
256,192,108216,1,0,0:0:0:0:
256,192,108317,1,0,0:0:0:0:
256,192,108520,1,12,0:0:0:0:
256,192,108722,1,0,0:0:0:0:
256,192,108925,1,8,0:0:0:0:
256,192,109128,1,8,0:0:0:0:
256,192,109229,1,8,0:0:0:0:
256,192,109330,1,0,0:0:0:0:
256,192,110040,1,0,0:0:0:0:
256,192,110141,1,8,0:0:0:0:
256,192,110344,1,0,0:0:0:0:
256,192,110749,1,8,0:0:0:0:
256,192,110952,1,8,0:0:0:0:
256,192,111053,1,8,0:0:0:0:
256,192,111155,1,0,0:0:0:0:
256,192,111560,1,0,0:0:0:0:
256,192,111661,1,0,0:0:0:0:
256,192,111763,1,8,0:0:0:0:
256,192,112371,1,8,0:0:0:0:
256,192,112472,1,8,0:0:0:0:
256,192,112574,1,0,0:0:0:0:
256,192,113182,1,0,0:0:0:0:
256,192,113283,1,0,0:0:0:0:
256,192,113384,1,8,0:0:0:0:
256,192,113587,1,0,0:0:0:0:
256,192,113993,1,8,0:0:0:0:
256,192,114398,1,8,0:0:0:0:
256,192,114601,1,0,0:0:0:0:
256,192,114803,1,0,0:0:0:0:
256,192,114905,1,0,0:0:0:0:
256,192,115006,1,8,0:0:0:0:
256,192,115817,1,0,0:0:0:0:
256,192,116425,1,0,0:0:0:0:
256,192,116526,1,0,0:0:0:0:
256,192,116628,1,8,0:0:0:0:
256,192,116830,1,0,0:0:0:0:
256,192,117033,1,0,0:0:0:0:
256,192,117236,1,8,0:0:0:0:
256,192,117641,1,0,0:0:0:0:
256,192,117844,1,0,0:0:0:0:
256,192,118047,1,0,0:0:0:0:
256,192,118148,1,0,0:0:0:0:
256,192,118249,1,8,0:0:0:0:
256,192,118452,1,0,0:0:0:0:
256,192,118655,1,8,0:0:0:0:
256,192,118756,1,8,0:0:0:0:
256,192,118857,1,0,0:0:0:0:
256,192,118959,1,8,0:0:0:0:
256,192,119060,1,0,0:0:0:0:
256,192,119466,1,8,0:0:0:0:
256,192,119668,1,0,0:0:0:0:
256,192,119770,1,0,0:0:0:0:
256,192,119871,1,0,0:0:0:0:
256,192,120074,1,0,0:0:0:0:
256,192,120276,1,8,0:0:0:0:
256,192,120479,1,8,0:0:0:0:
256,192,120580,1,0,0:0:0:0:
256,192,120682,1,8,0:0:0:0:
256,192,120884,1,0,0:0:0:0:
256,192,120986,1,0,0:0:0:0:
256,192,121087,1,8,0:0:0:0:
256,192,121290,1,0,0:0:0:0:
256,192,121493,1,8,0:0:0:0:
256,192,121695,1,0,0:0:0:0:
256,192,121898,1,8,0:0:0:0:
256,192,122101,1,0,0:0:0:0:
256,192,122202,1,0,0:0:0:0:
256,192,122303,1,8,0:0:0:0:
256,192,122506,1,8,0:0:0:0:
256,192,122607,1,8,0:0:0:0:
256,192,122709,1,8,0:0:0:0:
256,192,122810,1,8,0:0:0:0:
256,192,122911,1,0,0:0:0:0:
256,192,123114,1,0,0:0:0:0:
256,192,123216,1,8,0:0:0:0:
256,192,123317,1,0,0:0:0:0:
256,192,123418,1,0,0:0:0:0:
256,192,123520,1,8,0:0:0:0:
256,192,123925,1,4,0:0:0:0:
256,192,124330,1,8,0:0:0:0:
256,192,124533,1,0,0:0:0:0:
256,192,124634,1,0,0:0:0:0:
256,192,124736,1,8,0:0:0:0:
256,192,124837,1,8,0:0:0:0:
256,192,124939,1,0,0:0:0:0:
256,192,125141,1,8,0:0:0:0:
256,192,125344,1,0,0:0:0:0:
256,192,125445,1,0,0:0:0:0:
256,192,125547,1,0,0:0:0:0:
256,192,125749,1,0,0:0:0:0:
256,192,125952,1,8,0:0:0:0:
256,192,126155,1,8,0:0:0:0:
256,192,126256,1,0,0:0:0:0:
256,192,126357,1,8,0:0:0:0:
256,192,126560,1,0,0:0:0:0:
256,192,126763,1,8,0:0:0:0:
256,192,127168,1,0,0:0:0:0:
256,192,127371,1,0,0:0:0:0:
256,192,127472,1,0,0:0:0:0:
256,192,127574,1,8,0:0:0:0:
256,192,127776,1,0,0:0:0:0:
256,192,127878,1,0,0:0:0:0:
256,192,127979,1,8,0:0:0:0:
256,192,128182,1,0,0:0:0:0:
256,192,128384,1,8,0:0:0:0:
256,192,128587,1,8,0:0:0:0:
256,192,128993,1,0,0:0:0:0:
256,192,129195,1,8,0:0:0:0:
256,192,129398,1,0,0:0:0:0:
256,192,129499,1,0,0:0:0:0:
256,192,129601,1,8,0:0:0:0:
256,192,129702,1,0,0:0:0:0:
256,192,129803,1,0,0:0:0:0:
256,192,130006,1,8,0:0:0:0:
256,192,130209,1,8,0:0:0:0:
256,192,130310,1,8,0:0:0:0:
256,192,130411,1,0,0:0:0:0:
256,192,130614,1,8,0:0:0:0:
256,192,131020,1,0,0:0:0:0:
256,192,131222,1,8,0:0:0:0:
256,192,131324,1,8,0:0:0:0:
256,192,131425,1,0,0:0:0:0:
256,192,131526,1,0,0:0:0:0:
256,192,131628,1,8,0:0:0:0:
256,192,131830,1,0,0:0:0:0:
256,192,132236,1,0,0:0:0:0:
256,192,132337,1,0,0:0:0:0:
256,192,132439,1,8,0:0:0:0:
256,192,132641,1,8,0:0:0:0:
256,192,132844,1,0,0:0:0:0:
256,192,132945,1,8,0:0:0:0:
256,192,133047,1,0,0:0:0:0:
256,192,133249,1,8,0:0:0:0:
256,192,133452,1,0,0:0:0:0:
256,192,133553,1,0,0:0:0:0:
256,192,133655,1,8,0:0:0:0:
256,192,133857,1,8,0:0:0:0:
256,192,134060,1,0,0:0:0:0:
256,192,134263,1,8,0:0:0:0:
256,192,134364,1,0,0:0:0:0:
256,192,134466,1,8,0:0:0:0:
256,192,134567,1,8,0:0:0:0:
256,192,134668,1,0,0:0:0:0:
256,192,134871,1,8,0:0:0:0:
256,192,135074,1,4,0:0:0:0:
256,192,135479,1,0,0:0:0:0:
256,192,135682,1,8,0:0:0:0:
256,192,135884,1,8,0:0:0:0:
256,192,135986,1,0,0:0:0:0:
256,192,136087,1,8,0:0:0:0:
256,192,136290,1,0,0:0:0:0:
256,192,136493,1,8,0:0:0:0:
256,192,136594,1,8,0:0:0:0:
256,192,136695,1,0,0:0:0:0:
256,192,136898,1,4,0:0:0:0:
256,192,137303,1,8,0:0:0:0:
256,192,137506,1,0,0:0:0:0:
256,192,137709,1,8,0:0:0:0:
256,192,137810,1,8,0:0:0:0:
256,192,137911,1,0,0:0:0:0:
256,192,138013,1,0,0:0:0:0:
256,192,138114,1,8,0:0:0:0:
256,192,138317,1,0,0:0:0:0:
256,192,138418,1,0,0:0:0:0:
256,192,138520,1,0,0:0:0:0:
256,192,138722,1,0,0:0:0:0:
256,192,138925,1,8,0:0:0:0:
256,192,139128,1,0,0:0:0:0:
256,192,139229,1,0,0:0:0:0:
256,192,139330,1,8,0:0:0:0:
256,192,139533,1,0,0:0:0:0:
256,192,139736,1,8,0:0:0:0:
256,192,140141,1,8,0:0:0:0:
256,192,140344,1,0,0:0:0:0:
256,192,140547,1,8,0:0:0:0:
256,192,140749,1,0,0:0:0:0:
256,192,140851,1,8,0:0:0:0:
256,192,140952,1,8,0:0:0:0:
256,192,141053,1,0,0:0:0:0:
256,192,141155,1,0,0:0:0:0:
256,192,141357,1,8,0:0:0:0:
256,192,141560,1,8,0:0:0:0:
256,192,141966,1,0,0:0:0:0:
256,192,142168,1,8,0:0:0:0:
256,192,142371,1,0,0:0:0:0:
256,192,142472,1,0,0:0:0:0:
256,192,142574,1,0,0:0:0:0:
256,192,142776,1,0,0:0:0:0:
256,192,142979,1,8,0:0:0:0:
256,192,143182,1,0,0:0:0:0:
256,192,143283,1,0,0:0:0:0:
256,192,143384,1,8,0:0:0:0:
256,192,143587,1,8,0:0:0:0:
256,192,143790,1,0,0:0:0:0:
256,192,143891,1,0,0:0:0:0:
256,192,143993,1,8,0:0:0:0:
256,192,144094,1,0,0:0:0:0:
256,192,144195,1,8,0:0:0:0:
256,192,144398,1,0,0:0:0:0:
256,192,144499,1,0,0:0:0:0:
256,192,144601,1,8,0:0:0:0:
256,192,144803,1,0,0:0:0:0:
256,192,145209,1,0,0:0:0:0:
256,192,145310,1,0,0:0:0:0:
256,192,145411,1,8,0:0:0:0:
256,192,145614,1,8,0:0:0:0:
256,192,145817,1,0,0:0:0:0:
256,192,145918,1,8,0:0:0:0:
256,192,146020,1,0,0:0:0:0:
256,192,146121,1,0,0:0:0:0:
256,192,146222,1,8,0:0:0:0:
256,192,146425,1,0,0:0:0:0:
256,192,146526,1,0,0:0:0:0:
256,192,146628,1,8,0:0:0:0:
256,192,146830,1,8,0:0:0:0:
256,192,147033,1,0,0:0:0:0:
256,192,147236,1,0,0:0:0:0:
256,192,147337,1,0,0:0:0:0:
256,192,147439,1,8,0:0:0:0:
256,192,147540,1,8,0:0:0:0:
256,192,147641,1,0,0:0:0:0:
256,192,147844,1,8,0:0:0:0:
256,192,148047,1,0,0:0:0:0:
256,192,148452,1,0,0:0:0:0:
256,192,148655,1,8,0:0:0:0:
256,192,148756,1,8,0:0:0:0:
256,192,148857,1,8,0:0:0:0:
256,192,148959,1,0,0:0:0:0:
256,192,149060,1,8,0:0:0:0:
256,192,149263,1,0,0:0:0:0:
256,192,149466,1,8,0:0:0:0:
256,192,149567,1,8,0:0:0:0:
256,192,149668,1,0,0:0:0:0:
256,192,149871,1,4,0:0:0:0:
256,192,150276,1,8,0:0:0:0:
256,192,150682,1,8,0:0:0:0:
256,192,150884,1,0,0:0:0:0:
256,192,150986,1,0,0:0:0:0:
256,192,151087,1,8,0:0:0:0:
256,192,151290,1,0,0:0:0:0:
256,192,151493,1,8,0:0:0:0:
256,192,151695,1,0,0:0:0:0:
256,192,151898,1,8,0:0:0:0:
256,192,152101,1,0,0:0:0:0:
256,192,152202,1,0,0:0:0:0:
256,192,152303,1,8,0:0:0:0:
256,192,152405,1,8,0:0:0:0:
256,192,152506,1,0,0:0:0:0:
256,192,152709,1,8,0:0:0:0:
256,192,153114,1,12,0:0:0:0:
256,192,153520,1,8,0:0:0:0:
256,192,153925,1,0,0:0:0:0:
256,192,154128,1,8,0:0:0:0:
256,192,154229,1,0,0:0:0:0:
256,192,154330,1,8,0:0:0:0:
256,192,154533,1,0,0:0:0:0:
256,192,154736,1,8,0:0:0:0:
256,192,154939,1,0,0:0:0:0:
256,192,155141,1,8,0:0:0:0:
256,192,155344,1,0,0:0:0:0:
256,192,155547,1,8,0:0:0:0:
256,192,155648,1,8,0:0:0:0:
256,192,155749,1,0,0:0:0:0:
256,192,155851,1,0,0:0:0:0:
256,192,155952,1,8,0:0:0:0:
256,192,156357,1,4,0:0:0:0:
256,192,156763,1,8,0:0:0:0:
256,192,157168,1,8,0:0:0:0:
256,192,157371,1,8,0:0:0:0:
256,192,157472,1,8,0:0:0:0:
256,192,157574,1,0,0:0:0:0:
256,192,157776,1,8,0:0:0:0:
256,192,157979,1,0,0:0:0:0:
256,192,158182,1,0,0:0:0:0:
256,192,158283,1,0,0:0:0:0:
256,192,158384,1,8,0:0:0:0:
256,192,158587,1,0,0:0:0:0:
256,192,158790,1,8,0:0:0:0:
256,192,158891,1,8,0:0:0:0:
256,192,158993,1,0,0:0:0:0:
256,192,159094,1,0,0:0:0:0:
256,192,159195,1,8,0:0:0:0:
256,192,159297,1,8,0:0:0:0:
256,192,159398,1,0,0:0:0:0:
256,192,159601,1,4,0:0:0:0:
256,192,160006,1,8,0:0:0:0:
256,192,160209,1,0,0:0:0:0:
256,192,160310,1,0,0:0:0:0:
256,192,160411,1,8,0:0:0:0:
256,192,160614,1,0,0:0:0:0:
256,192,160817,1,8,0:0:0:0:
256,192,161020,1,0,0:0:0:0:
256,192,161222,1,8,0:0:0:0:
256,192,161324,1,8,0:0:0:0:
256,192,161425,1,0,0:0:0:0:
256,192,161628,1,8,0:0:0:0:
256,192,161830,1,0,0:0:0:0:
256,192,161932,1,0,0:0:0:0:
256,192,162033,1,8,0:0:0:0:
256,192,162236,1,0,0:0:0:0:
256,192,162439,1,8,0:0:0:0:
256,192,162641,1,0,0:0:0:0:
256,192,162743,1,0,0:0:0:0:
256,192,162844,1,8,0:0:0:0:
256,192,162945,1,8,0:0:0:0:
256,192,163047,1,0,0:0:0:0:
256,192,163249,1,8,0:0:0:0:
256,192,163452,1,0,0:0:0:0:
256,192,163553,1,8,0:0:0:0:
256,192,163655,1,8,0:0:0:0:
256,192,163756,1,0,0:0:0:0:
256,192,163857,1,0,0:0:0:0:
256,192,164060,1,8,0:0:0:0:
256,192,164263,1,0,0:0:0:0:
256,192,164466,1,8,0:0:0:0:
256,192,164567,1,8,0:0:0:0:
256,192,164668,1,0,0:0:0:0:
256,192,164770,1,8,0:0:0:0:
256,192,164871,1,0,0:0:0:0:
256,192,164972,1,0,0:0:0:0:
256,192,165074,1,8,0:0:0:0:
256,192,165175,1,8,0:0:0:0:
256,192,165276,1,0,0:0:0:0:
256,192,165479,1,0,0:0:0:0:
256,192,165682,1,12,0:0:0:0:
256,192,166087,1,8,0:0:0:0:
256,192,166695,1,8,0:0:0:0:
256,192,167101,1,0,0:0:0:0:
256,192,167506,1,0,0:0:0:0:
256,192,169330,1,8,0:0:0:0:
256,192,169939,1,8,0:0:0:0:
256,192,170344,1,0,0:0:0:0:
256,192,170749,1,8,0:0:0:0:
256,192,171357,1,8,0:0:0:0:
256,192,171560,1,0,0:0:0:0:
256,192,172371,1,0,0:0:0:0:
256,192,172574,1,0,0:0:0:0:
256,192,172776,1,8,0:0:0:0:
256,192,173182,1,8,0:0:0:0:
256,192,173587,1,0,0:0:0:0:
256,192,173993,1,0,0:0:0:0:
256,192,175614,1,0,0:0:0:0:
256,192,175817,1,0,0:0:0:0:
256,192,176020,1,8,0:0:0:0:
256,192,176425,1,8,0:0:0:0:
256,192,176830,1,0,0:0:0:0:
256,192,177236,1,8,0:0:0:0:
256,192,178047,1,0,0:0:0:0:
256,192,178148,1,0,0:0:0:0:
256,192,178249,1,8,0:0:0:0:
256,192,179060,1,0,0:0:0:0:
256,192,179466,1,8,0:0:0:0:
256,192,179668,1,0,0:0:0:0:
256,192,180074,1,0,0:0:0:0:
256,192,180276,1,8,0:0:0:0:
256,192,180479,1,0,0:0:0:0:
256,192,180884,1,0,0:0:0:0:
256,192,181087,1,8,0:0:0:0:
256,192,181493,1,0,0:0:0:0:
256,192,181695,1,0,0:0:0:0:
256,192,181898,1,8,0:0:0:0:
256,192,182303,1,8,0:0:0:0:
256,192,182506,1,8,0:0:0:0:
256,192,182911,1,0,0:0:0:0:
256,192,183114,1,8,0:0:0:0:
256,192,183317,1,0,0:0:0:0:
256,192,183520,1,8,0:0:0:0:
256,192,183722,1,8,0:0:0:0:
256,192,184128,1,0,0:0:0:0:
256,192,184330,1,8,0:0:0:0:
256,192,184533,1,0,0:0:0:0:
256,192,184939,1,0,0:0:0:0:
256,192,185141,1,8,0:0:0:0:
256,192,185344,1,0,0:0:0:0:
256,192,185547,1,8,0:0:0:0:
256,192,185749,1,8,0:0:0:0:
256,192,186155,1,0,0:0:0:0:
256,192,186357,1,8,0:0:0:0:
256,192,186560,1,0,0:0:0:0:
256,192,186661,1,0,0:0:0:0:
256,192,186763,1,8,0:0:0:0:
256,192,186966,1,0,0:0:0:0:
256,192,187371,1,0,0:0:0:0:
256,192,187574,1,8,0:0:0:0:
256,192,187979,1,0,0:0:0:0:
256,192,188182,1,0,0:0:0:0:
256,192,188384,1,8,0:0:0:0:
256,192,188587,1,0,0:0:0:0:
256,192,188790,1,8,0:0:0:0:
256,192,188993,1,8,0:0:0:0:
256,192,189398,1,0,0:0:0:0:
256,192,189803,1,12,0:0:0:0:
256,192,190006,1,12,0:0:0:0:
256,192,190209,1,4,0:0:0:0:
256,192,191526,1,0,0:0:0:0:
256,192,191628,1,8,0:0:0:0:
256,192,192033,1,4,0:0:0:0:
256,192,192439,1,8,0:0:0:0:
256,192,192641,1,0,0:0:0:0:
256,192,192743,1,0,0:0:0:0:
256,192,192844,1,8,0:0:0:0:
256,192,192945,1,8,0:0:0:0:
256,192,193047,1,0,0:0:0:0:
256,192,193249,1,8,0:0:0:0:
256,192,193452,1,0,0:0:0:0:
256,192,193553,1,0,0:0:0:0:
256,192,193655,1,0,0:0:0:0:
256,192,193857,1,0,0:0:0:0:
256,192,194060,1,8,0:0:0:0:
256,192,194263,1,8,0:0:0:0:
256,192,194364,1,0,0:0:0:0:
256,192,194466,1,8,0:0:0:0:
256,192,194567,1,8,0:0:0:0:
256,192,194668,1,0,0:0:0:0:
256,192,194871,1,8,0:0:0:0:
256,192,195074,1,0,0:0:0:0:
256,192,195175,1,0,0:0:0:0:
256,192,195276,1,0,0:0:0:0:
256,192,195479,1,0,0:0:0:0:
256,192,195682,1,8,0:0:0:0:
256,192,195884,1,0,0:0:0:0:
256,192,195986,1,0,0:0:0:0:
256,192,196087,1,8,0:0:0:0:
256,192,196290,1,0,0:0:0:0:
256,192,196493,1,8,0:0:0:0:
256,192,196695,1,8,0:0:0:0:
256,192,197101,1,0,0:0:0:0:
256,192,197303,1,8,0:0:0:0:
256,192,197506,1,0,0:0:0:0:
256,192,197607,1,0,0:0:0:0:
256,192,197709,1,0,0:0:0:0:
256,192,197911,1,0,0:0:0:0:
256,192,198114,1,8,0:0:0:0:
256,192,198317,1,8,0:0:0:0:
256,192,198418,1,8,0:0:0:0:
256,192,198520,1,0,0:0:0:0:
256,192,198722,1,8,0:0:0:0:
256,192,199128,1,0,0:0:0:0:
256,192,199229,1,0,0:0:0:0:
256,192,199330,1,8,0:0:0:0:
256,192,199432,1,8,0:0:0:0:
256,192,199533,1,0,0:0:0:0:
256,192,199736,1,8,0:0:0:0:
256,192,199939,1,0,0:0:0:0:
256,192,200141,1,8,0:0:0:0:
256,192,200243,1,8,0:0:0:0:
256,192,200344,1,0,0:0:0:0:
256,192,200445,1,0,0:0:0:0:
256,192,200547,1,8,0:0:0:0:
256,192,200749,1,8,0:0:0:0:
256,192,200952,1,0,0:0:0:0:
256,192,201053,1,8,0:0:0:0:
256,192,201155,1,0,0:0:0:0:
256,192,201357,1,8,0:0:0:0:
256,192,201560,1,0,0:0:0:0:
256,192,201661,1,0,0:0:0:0:
256,192,201763,1,8,0:0:0:0:
256,192,201966,1,8,0:0:0:0:
256,192,202168,1,0,0:0:0:0:
256,192,202270,1,0,0:0:0:0:
256,192,202371,1,8,0:0:0:0:
256,192,202472,1,8,0:0:0:0:
256,192,202574,1,0,0:0:0:0:
256,192,202675,1,8,0:0:0:0:
256,192,202776,1,0,0:0:0:0:
256,192,202878,1,0,0:0:0:0:
256,192,202979,1,8,0:0:0:0:
256,192,203182,1,4,0:0:0:0:
256,192,203587,1,0,0:0:0:0:
256,192,203689,1,8,0:0:0:0:
256,192,203790,1,8,0:0:0:0:
256,192,203993,1,8,0:0:0:0:
256,192,204094,1,0,0:0:0:0:
256,192,204195,1,8,0:0:0:0:
256,192,204398,1,0,0:0:0:0:
256,192,204499,1,0,0:0:0:0:
256,192,204601,1,8,0:0:0:0:
256,192,204702,1,8,0:0:0:0:
256,192,204803,1,8,0:0:0:0:
256,192,205006,1,4,0:0:0:0:
256,192,205411,1,8,0:0:0:0:
256,192,205614,1,0,0:0:0:0:
256,192,205817,1,8,0:0:0:0:
256,192,205918,1,8,0:0:0:0:
256,192,206020,1,0,0:0:0:0:
256,192,206121,1,0,0:0:0:0:
256,192,206222,1,8,0:0:0:0:
256,192,206425,1,0,0:0:0:0:
256,192,206526,1,0,0:0:0:0:
256,192,206628,1,0,0:0:0:0:
256,192,206830,1,0,0:0:0:0:
256,192,207033,1,8,0:0:0:0:
256,192,207236,1,0,0:0:0:0:
256,192,207337,1,0,0:0:0:0:
256,192,207439,1,8,0:0:0:0:
256,192,207540,1,8,0:0:0:0:
256,192,207641,1,0,0:0:0:0:
256,192,207844,1,8,0:0:0:0:
256,192,207945,1,0,0:0:0:0:
256,192,208047,1,8,0:0:0:0:
256,192,208148,1,8,0:0:0:0:
256,192,208249,1,8,0:0:0:0:
256,192,208452,1,0,0:0:0:0:
256,192,208655,1,8,0:0:0:0:
256,192,208857,1,0,0:0:0:0:
256,192,208959,1,0,0:0:0:0:
256,192,209060,1,8,0:0:0:0:
256,192,209161,1,8,0:0:0:0:
256,192,209263,1,0,0:0:0:0:
256,192,209364,1,0,0:0:0:0:
256,192,209466,1,8,0:0:0:0:
256,192,209668,1,8,0:0:0:0:
256,192,210074,1,0,0:0:0:0:
256,192,210276,1,8,0:0:0:0:
256,192,210479,1,0,0:0:0:0:
256,192,210580,1,0,0:0:0:0:
256,192,210682,1,0,0:0:0:0:
256,192,210884,1,0,0:0:0:0:
256,192,211087,1,8,0:0:0:0:
256,192,211290,1,0,0:0:0:0:
256,192,211391,1,0,0:0:0:0:
256,192,211493,1,8,0:0:0:0:
256,192,211695,1,8,0:0:0:0:
256,192,211898,1,0,0:0:0:0:
256,192,212101,1,0,0:0:0:0:
256,192,212202,1,0,0:0:0:0:
256,192,212303,1,8,0:0:0:0:
256,192,212405,1,8,0:0:0:0:
256,192,212506,1,0,0:0:0:0:
256,192,212709,1,8,0:0:0:0:
256,192,212911,1,0,0:0:0:0:
256,192,213114,1,8,0:0:0:0:
256,192,213317,1,0,0:0:0:0:
256,192,213418,1,0,0:0:0:0:
256,192,213520,1,8,0:0:0:0:
256,192,213722,1,8,0:0:0:0:
256,192,213824,1,8,0:0:0:0:
256,192,213925,1,0,0:0:0:0:
256,192,214128,1,8,0:0:0:0:
256,192,214229,1,0,0:0:0:0:
256,192,214330,1,8,0:0:0:0:
256,192,214432,1,8,0:0:0:0:
256,192,214533,1,0,0:0:0:0:
256,192,214736,1,8,0:0:0:0:
256,192,214837,1,8,0:0:0:0:
256,192,214939,1,0,0:0:0:0:
256,192,215040,1,0,0:0:0:0:
256,192,215141,1,8,0:0:0:0:
256,192,215243,1,8,0:0:0:0:
256,192,215344,1,0,0:0:0:0:
256,192,215547,1,8,0:0:0:0:
256,192,215648,1,8,0:0:0:0:
256,192,215749,1,0,0:0:0:0:
256,192,215851,1,0,0:0:0:0:
256,192,215952,1,8,0:0:0:0:
256,192,216155,1,4,0:0:0:0:
256,192,216560,1,0,0:0:0:0:
256,192,216661,1,8,0:0:0:0:
256,192,216763,1,8,0:0:0:0:
256,192,216966,1,8,0:0:0:0:
256,192,217067,1,0,0:0:0:0:
256,192,217168,1,8,0:0:0:0:
256,192,217371,1,0,0:0:0:0:
256,192,217574,1,8,0:0:0:0:
256,192,217675,1,8,0:0:0:0:
256,192,217776,1,0,0:0:0:0:
256,192,217878,1,0,0:0:0:0:
256,192,217979,1,0,0:0:0:0:
256,192,218182,1,0,0:0:0:0:
256,192,218384,1,0,0:0:0:0:
256,192,218587,1,8,0:0:0:0:
256,192,218993,1,0,0:0:0:0:
256,192,219398,1,8,0:0:0:0:
256,192,220209,1,0,0:0:0:0:
256,192,221020,1,0,0:0:0:0:
256,192,221121,1,0,0:0:0:0:
256,192,221222,1,8,0:0:0:0:
256,192,221425,1,0,0:0:0:0:
256,192,221628,1,0,0:0:0:0:
256,192,221830,1,8,0:0:0:0:
256,192,222236,1,0,0:0:0:0:
256,192,222641,1,8,0:0:0:0:
256,192,223452,1,8,0:0:0:0:
256,192,223655,1,8,0:0:0:0:
256,192,223857,1,0,0:0:0:0:
256,192,224060,1,8,0:0:0:0:
256,192,224263,1,0,0:0:0:0:
256,192,224466,1,0,0:0:0:0:
256,192,224668,1,0,0:0:0:0:
256,192,224871,1,0,0:0:0:0:
256,192,225074,1,8,0:0:0:0:
256,192,225479,1,0,0:0:0:0:
256,192,225884,1,8,0:0:0:0:
256,192,226695,1,0,0:0:0:0:
256,192,227506,1,0,0:0:0:0:
256,192,227607,1,0,0:0:0:0:
256,192,227709,1,8,0:0:0:0:
256,192,227911,1,0,0:0:0:0:
256,192,228114,1,8,0:0:0:0:
256,192,228317,1,0,0:0:0:0:
256,192,228520,1,8,0:0:0:0:
256,192,228722,1,8,0:0:0:0:
256,192,228925,1,0,0:0:0:0:
256,192,229128,1,0,0:0:0:0:
256,192,230952,1,0,0:0:0:0:
256,192,231763,1,8,0:0:0:0:
256,192,233384,1,0,0:0:0:0:
