osu file format v14

[General]
AudioFilename: Kizuna no Yukue feat. Shiomiya Shiori.mp3
AudioLeadIn: 0
PreviewTime: 57439
Countdown: 0
SampleSet: Soft
StackLeniency: 0.3
Mode: 0
LetterboxInBreaks: 1
WidescreenStoryboard: 0

[Editor]
DistanceSpacing: 1.2
BeatDivisor: 4
GridSize: 32
TimelineZoom: 2.2

[Metadata]
Title:Kizuna no Yukue feat. Shiomiya Shiori
TitleUnicode:キズナノユクエ feat. 汐宮 栞
Artist:Shiomiya Shiori starring Hanazawa Kana
ArtistUnicode:汐宮 栞 starring 花澤香菜
Creator:Bearizm
Version:Mochi's Hard
Source:神のみぞ知るセカイ 女神篇
Tags:Kami Nomi zo Shiru Sekai Megami-hen The World God Only Knows: Godesses ED Ending Momochikun Nardoxyribonucleic
BeatmapID:766774
BeatmapSetID:347422

[Difficulty]
HPDrainRate:5.5
CircleSize:4
OverallDifficulty:6
ApproachRate:7
SliderMultiplier:1.4
SliderTickRate:1

[Events]
//Background and Video events
0,0,"Shiori.jpg",0,0
//Break Periods
2,83584,92214
2,166287,178160
//Storyboard Layer 0 (Background)
//Storyboard Layer 1 (Fail)
//Storyboard Layer 2 (Pass)
//Storyboard Layer 3 (Foreground)
//Storyboard Sound Samples

[TimingPoints]
695,405.405405405405,4,2,1,60,1,0
9816,-100,4,2,1,60,0,0
10210,405.405405405405,4,2,1,70,1,8
10412,405.405405405405,4,2,1,55,1,0
29871,-100,4,2,1,60,0,0
49330,-100,4,2,1,50,0,0
52574,-100,4,2,1,60,0,0
55817,-100,4,2,1,70,0,0
57439,-100,4,2,1,80,0,1
82979,-100,4,2,1,80,0,1
83384,-100,4,2,1,80,0,0
93925,-100,4,2,1,80,0,0
94736,-100,4,2,1,80,0,0
95547,-100,4,2,1,60,0,0
95952,-100,4,2,1,30,0,0
96155,-100,4,2,1,60,0,0
109330,-100,4,2,1,50,0,0
119060,-100,4,2,1,60,0,0
122303,-100,4,2,1,70,0,0
123925,-100,4,2,1,80,0,1
149871,-100,4,2,1,80,0,0
165682,-125,4,2,2,80,0,0
166087,-100,4,2,1,80,0,0
179060,-111.111111111111,4,2,1,50,0,0
188790,-100,4,2,1,60,0,0
189803,-100,4,2,1,70,0,0
192033,-100,4,2,1,90,0,1
204905,-100,4,2,1,90,0,0
205006,-100,4,2,1,100,0,1
217979,-100,4,2,2,90,0,0

[Colours]
Combo1 : 0,234,117
Combo2 : 128,255,255
Combo3 : 255,128,128
Combo4 : 0,157,157
Combo5 : 192,192,192

[HitObjects]
384,103,9816,6,0,P|389:143|393:183,1,70,2|0,0:0|0:0,0:0:0:0:
463,217,10210,2,0,P|396:200|332:248,1,140,4|8,1:0|0:0,0:0:0:0:
271,285,10817,2,0,P|204:302|140:254,1,140,8|8,0:1|0:1,0:0:0:0:
66,242,11425,2,0,P|47:287|46:314,2,70,8|8|8,0:0|0:1|0:0,0:0:0:0:
118,176,12033,1,8,0:1:0:0:
163,104,12236,2,0,L|150:28,1,70,8|8,0:0|0:1,0:0:0:0:
264,64,12641,2,0,L|252:132,1,70,8|8,0:0|0:1,0:0:0:0:
232,214,13047,1,8,0:0:0:0:
232,214,13249,1,8,0:1:0:0:
315,227,13452,6,0,B|371:211|371:211|400:216|400:216|469:199,1,140,4|8,1:0|0:0,0:0:0:0:
467,285,14060,2,0,B|411:301|411:301|382:296|382:296|313:313,1,140,8|8,0:1|0:1,0:0:0:0:
258,350,14668,1,8,0:0:0:0:
258,350,14871,2,0,P|237:316|234:285,1,70,8|8,0:1|0:0,0:0:0:0:
255,205,15276,2,0,P|246:140|196:77,1,140,4|8,0:0|0:1,0:0:0:0:
140,24,15884,2,0,P|205:50|292:40,1,140,12|8,0:0|0:0,0:0:0:0:
354,21,16493,1,0,1:0:0:0:
354,21,16898,6,0,B|381:107|381:107|370:126|368:173,1,140,2|0,0:0|0:0,0:0:0:0:
425,217,17506,2,0,P|373:193|282:173,2,140,2|0|2,0:0|0:0|0:0,0:0:0:0:
425,217,19533,2,0,P|436:259|441:287,1,70,0|0,0:0|0:0,0:0:0:0:
370,331,19939,6,0,P|363:296|354:262,1,70,2|0,0:0|0:0,0:0:0:0:
272,242,20344,2,0,B|230:225|230:225|189:243|134:224,2,140,0|0|2,0:0|0:0|0:0,0:0:0:0:
335,186,21357,1,0,0:0:0:0:
315,104,21560,1,2,0:0:0:0:
315,104,22371,2,0,P|249:112|190:57,1,140,2|0,0:0|0:0,0:0:0:0:
194,67,22979,2,0,L|212:144,1,70,0|0,0:0|0:0,0:0:0:0:
278,224,23384,6,0,P|344:232|403:177,1,140,2|0,0:0|0:0,0:0:0:0:
450,121,23993,2,0,B|421:162|421:162|453:264,1,140,0|2,0:0|0:0,0:0:0:0:
471,328,24601,1,0,0:0:0:0:
387,338,24803,2,0,P|338:322|224:303,1,140,2|0,0:0|0:0,0:0:0:0:
120,199,25614,2,0,P|107:130|87:63,2,140,0|2|0,0:0|0:0|0:0,0:0:0:0:
193,239,26628,6,0,P|184:281|177:315,1,70,2|0,0:0|0:0,0:0:0:0:
95,290,27033,1,0,0:0:0:0:
193,239,27236,2,0,B|253:221|253:221|277:228|277:228|307:217|347:218,1,140,2|0,0:0|0:0,0:0:0:0:
406,247,27844,1,0,0:0:0:0:
468,191,28047,2,0,P|494:138|479:55,1,140,2|0,0:0|0:0,0:0:0:0:
481,60,28857,1,0,0:0:0:0:
392,76,29060,2,0,L|310:59,1,70,0|8,1:0|0:0,0:0:0:0:
241,125,29466,2,0,L|159:108,1,70,0|0,1:0|0:0,0:0:0:0:
15,217,29871,6,0,P|75:225|135:167,1,140,12|0,0:0|1:0,0:0:0:0:
172,110,30479,2,0,P|146:154|144:264,1,140,2|8,0:0|0:0,0:0:0:0:
178,314,31087,1,0,1:0:0:0:
255,282,31290,6,0,B|300:267|338:264|338:264|371:276|393:277,1,140,8|8,0:0|0:0,0:0:0:0:
463,232,31898,2,0,P|474:180|479:161,1,70,0|2,1:0|0:0,0:0:0:0:
454,82,32303,2,0,L|447:40,2,35,0|0|8,0:0|1:0|0:0,0:0:0:0:
380,123,32709,2,0,P|340:124|307:104,1,70,0|0,1:0|0:0,0:0:0:0:
245,61,33114,5,10,0:0:0:0:
245,61,33317,2,0,P|205:60|172:80,1,70,0|0,0:0|1:0,0:0:0:0:
106,117,33722,2,0,L|59:105,2,35,8|0|0,0:0|1:0|0:0,0:0:0:0:
155,184,34128,2,0,L|167:254,1,70,8|0,0:0|1:0,0:0:0:0:
206,327,34533,6,0,P|145:339|89:267,1,140,10|8,0:0|0:0,0:0:0:0:
53,215,35141,2,0,P|114:203|170:275,1,140,0|0,1:0|0:0,0:0:0:0:
206,327,35749,1,8,0:0:0:0:
281,289,35952,2,0,P|320:280|359:272,1,70,0|0,1:0|0:0,0:0:0:0:
438,169,36357,6,0,P|364:184|292:201,1,140,10|0,0:0|1:0,0:0:0:0:
219,179,36966,2,0,B|201:123|224:78|224:78|211:32,1,140,2|8,0:0|0:0,0:0:0:0:
134,16,37574,1,0,1:0:0:0:
51,33,37776,1,10,0:0:0:0:
82,197,38182,5,8,0:0:0:0:
157,235,38384,2,0,P|174:269|178:307,1,70,0|2,1:0|0:0,0:0:0:0:
248,347,38790,2,0,P|282:330|320:326,1,70,0|8,0:0|0:0,0:0:0:0:
337,333,39094,1,8,0:0:0:0:
337,333,39195,1,0,1:0:0:0:
412,297,39398,1,0,0:0:0:0:
488,261,39601,6,0,P|515:207|506:119,1,140,10|0,0:0|1:0,0:0:0:0:
391,83,40209,2,0,P|364:137|373:225,1,140,10|8,0:0|0:0,0:0:0:0:
412,297,40817,1,0,1:0:0:0:
337,333,41020,6,0,B|289:345|239:302|239:302|259:307|278:308,1,140,12|8,0:0|0:0,0:0:0:0:
323,241,41628,1,0,1:0:0:0:
224,198,41830,1,0,0:0:0:0:
211,205,41932,1,0,1:0:0:0:
200,213,42033,2,0,P|208:116|212:71,1,140,8|0,0:0|1:0,0:0:0:0:
214,56,42844,5,4,0:0:0:0:
214,56,43857,2,0,P|279:40|358:32,1,140,0|2,0:0|0:0,0:0:0:0:
274,181,44668,2,0,P|209:165|130:157,1,140,0|2,0:0|0:0,0:0:0:0:
72,102,45276,2,0,B|101:191|101:191|93:220|96:260,1,140,0|0,0:0|0:0,0:0:0:0:
227,340,46087,5,2,0:0:0:0:
304,309,46290,2,0,B|367:309|368:336|441:336,2,140
217,163,47506,2,0,P|203:120|203:88,1,70,2|0,0:0|0:0,0:0:0:0:
283,74,47911,2,0,L|356:58,1,70,2|0,0:0|0:0,0:0:0:0:
287,184,48317,2,0,L|146:160,1,140,2|0,0:0|0:0,0:0:0:0:
69,133,48925,1,0,0:0:0:0:
69,133,49330,6,0,B|48:173|48:173|53:190|53:190|26:218|26:267,1,140,8|0,0:0|0:0,0:0:0:0:
92,327,49939,1,8,0:0:0:0:
92,327,50040,1,8,0:0:0:0:
92,327,50141,2,0,P|126:305|155:290,1,70,0|0,1:0|0:0,0:0:0:0:
233,270,50547,1,0,1:0:0:0:
298,324,50749,6,0,B|344:321|378:341|378:341|408:332|432:302,1,140,8|8,0:0|0:0,0:0:0:0:
409,227,51357,1,0,0:0:0:0:
394,144,51560,2,0,L|386:91,2,35,8|8|0,0:0|0:0|1:0,0:0:0:0:
409,227,51966,1,8,0:0:0:0:
327,205,52168,2,0,P|270:216|254:220,1,70,0|8,1:0|0:0,0:0:0:0:
199,278,52574,6,0,P|135:260|55:245,1,140,12|0,0:0|1:0,0:0:0:0:
19,174,53182,1,8,0:0:0:0:
117,154,53384,2,0,P|134:188|143:222,1,70,0|8,1:0|0:0,0:0:0:0:
60,80,53790,2,0,P|94:63|128:54,1,70,0|8,1:0|0:0,0:0:0:0:
264,116,54195,6,0,P|217:108|192:103,1,70,0|8,1:0|0:0,0:0:0:0:
241,203,54601,2,0,P|288:195|313:190,1,70,0|8,1:0|0:0,0:0:0:0:
408,162,55006,2,0,P|400:209|395:234,1,70,0|8,1:0|0:0,0:0:0:0:
293,347,55411,2,0,P|299:312|305:278,1,70,0|8,1:0|0:0,0:0:0:0:
309,190,55817,6,0,L|273:197,2,35,0|0|8,1:0|1:0|0:0,0:0:0:0:
408,162,56222,1,0,1:0:0:0:
344,106,56425,1,8,0:0:0:0:
271,63,56628,2,0,L|234:69,3,35,8|0|0|0,0:0|0:0|1:0|1:0,0:0:0:0:
202,93,57033,2,0,L|167:87,3,35,2|0|0|0,1:2|0:0|0:0|0:0,0:0:0:0:
127,74,57439,6,0,P|84:125|91:202,1,140,12|0,0:0|1:0,0:0:0:0:
134,264,58047,2,0,P|83:225|9:241,1,140,8|8,0:0|0:0,0:0:0:0:
61,306,58655,1,0,1:0:0:0:
135,345,58857,6,0,B|177:344|208:308|208:308|237:320|274:314,1,140,10|8,0:0|0:0,0:0:0:0:
344,275,59466,2,0,L|330:199,1,70,0|10,1:0|0:0,0:0:0:0:
442,245,59871,2,0,L|429:313,1,70,0|8,0:0|0:0,0:0:0:0:
359,360,60276,1,2,1:2:0:0:
411,148,60682,5,10,0:0:0:0:
431,66,60884,1,0,0:0:0:0:
499,114,61087,1,0,1:0:0:0:
431,66,61290,2,0,L|413:29,2,35,8|0|0,0:0|1:0|0:0,0:0:0:0:
411,148,61695,2,0,P|401:181|398:219,1,70,8|0,0:0|1:0,0:0:0:0:
431,293,62101,6,0,B|386:309|386:309|334:317|286:291,1,140,10|8,0:0|0:0,0:0:0:0:
219,255,62709,1,0,1:0:0:0:
166,320,62911,2,0,P|176:252|190:176,1,140,10|8,0:0|0:0,0:0:0:0:
109,152,63520,2,0,P|103:186|98:221,1,70,2|8,1:2|0:0,0:0:0:0:
77,303,63925,6,0,P|45:300|12:282,2,70,12|8|0,0:0|0:0|1:0,0:0:0:0:
166,320,64533,2,0,P|221:305|308:295,1,140,8|8,0:0|0:0,0:0:0:0:
378,332,65141,1,0,1:0:0:0:
404,252,65344,6,0,B|421:155|421:155|407:114,1,140,10|10,0:0|0:0,0:0:0:0:
367,41,65952,1,0,1:0:0:0:
297,88,66155,2,0,B|232:100|231:75|158:83,1,140,10|8,0:0|0:0,0:0:0:0:
77,108,66763,2,0,P|58:145|55:176,1,70,0|0,1:0|0:0,0:0:0:0:
145,240,67168,6,0,P|164:203|167:172,1,70,12|8,0:0|0:0,0:0:0:0:
158,82,67574,1,0,1:0:0:0:
239,132,67776,2,0,P|292:119|376:102,1,140,8|8,0:0|0:0,0:0:0:0:
445,55,68384,1,0,1:0:0:0:
324,35,68587,6,0,P|307:103|294:171,1,140,12|8,0:0|0:0,0:0:0:0:
354,230,69195,2,0,P|365:270|374:328,1,70,0|8,1:0|0:0,0:0:0:0:
301,346,69601,1,0,1:0:0:0:
255,275,69803,1,8,0:0:0:0:
354,230,70006,2,0,L|397:219,3,35,2|0|0|0,1:2|1:0|0:0|1:0,0:0:0:0:
417,191,70411,6,0,B|446:191|469:202|469:202|509:173|487:112,1,140,12|0,0:0|1:0,0:0:0:0:
438,58,71020,2,0,B|380:70|380:70|358:63|358:63|297:76,1,140,8|8,0:0|0:0,0:0:0:0:
218,94,71628,1,0,1:0:0:0:
174,166,71830,6,0,P|145:130|158:38,1,140,10|8,0:0|0:0,0:0:0:0:
218,94,72439,1,0,1:0:0:0:
268,189,72641,2,0,P|259:247|256:272,1,70,10|0,0:0|0:0,0:0:0:0:
243,341,73047,1,8,0:0:0:0:
162,312,73249,6,0,B|120:307|79:333|79:333|52:319|36:281,1,140,2|4,1:2|0:0,0:0:0:0:
59,212,73857,2,0,P|70:176|65:137,1,70,8|0,0:0|1:0,0:0:0:0:
118,77,74263,2,0,P|184:81|239:130,1,140,8|8,0:0|0:0,0:0:0:0:
284,197,74871,1,0,1:0:0:0:
342,136,75074,6,0,L|319:274,1,140,10|8,0:0|0:0,0:0:0:0:
368,342,75682,2,0,P|408:333|438:324,1,70,0|10,1:0|0:0,0:0:0:0:
282,361,76087,2,0,P|248:351|214:343,1,70,0|8,0:0|0:0,0:0:0:0:
157,281,76493,2,0,P|164:246|174:213,1,70,2|0,1:2|0:0,0:0:0:0:
219,142,76898,5,12,0:0:0:0:
106,158,77101,2,0,P|96:191|88:225,1,70,8|0,0:0|1:0,0:0:0:0:
116,351,77506,2,0,P|175:357|236:298,1,140,8|8,0:0|0:0,0:0:0:0:
283,239,78114,1,0,1:0:0:0:
349,289,78317,6,0,P|410:275|498:255,1,140,10|10,0:0|0:0,0:0:0:0:
507,177,78925,1,0,1:0:0:0:
429,144,79128,2,0,P|360:128|292:112,1,140,10|8,0:0|0:0,0:0:0:0:
210,132,79736,2,0,P|210:93|227:60,1,70,0|0,1:0|0:0,0:0:0:0:
270,192,80141,6,0,P|270:231|253:264,1,70,12|8,0:0|0:0,0:0:0:0:
175,279,80547,1,0,1:0:0:0:
232,340,80749,2,0,P|282:335|342:264,1,140,8|8,0:0|0:0,0:0:0:0:
398,211,81357,1,0,1:0:0:0:
351,140,81560,1,12,0:0:0:0:
198,69,81966,6,0,L|161:55,2,35,8|0|0,0:0|1:0|1:0,0:0:0:0:
133,123,82371,2,0,L|96:109,2,35,8|0|0,0:0|1:0|1:0,0:0:0:0:
210,156,82776,1,8,0:0:0:0:
141,204,82979,2,0,P|148:252|153:283,1,70,0|8,1:0|0:0,0:0:0:0:
170,355,83384,1,2,0:0:0:0:
394,149,93114,6,0,P|385:193|378:228,2,70,2|0|0,0:0|0:0|0:0,0:0:0:0:
328,96,93722,1,0,0:0:0:0:
294,172,93925,2,0,P|285:216|278:251,2,70,2|0|0,0:0|0:0|0:0,0:0:0:0:
228,119,94533,1,0,0:0:0:0:
175,184,94736,6,0,P|143:198|103:195,1,70,2|0,0:0|0:0,0:0:0:0:
68,97,95141,2,0,P|100:83|140:86,1,70,0|0,0:0|0:0,0:0:0:0:
228,119,95547,2,0,P|262:120|294:106,1,70,2|0,0:0|0:0,0:0:0:0:
359,51,95952,1,4,0:0:0:0:
434,88,96155,1,0,0:0:0:0:
377,150,96357,6,0,B|361:187|361:187|399:231|380:291,1,140,4|0,0:0|1:0,0:0:0:0:
312,329,96966,1,8,0:0:0:0:
312,329,97067,1,0,1:0:0:0:
312,329,97168,2,0,P|266:338|222:348,1,70,0|8,0:0|0:0,0:0:0:0:
197,272,97574,1,0,1:0:0:0:
119,305,97776,6,0,P|96:259|110:171,1,140,10|8,0:0|0:0,0:0:0:0:
158,106,98384,2,0,L|228:93,1,70,0|0,1:0|0:0,0:0:0:0:
311,171,98790,2,0,L|242:183,1,70,0|8,0:0|0:0,0:0:0:0:
197,272,99195,1,0,1:0:0:0:
278,292,99398,1,0,0:0:0:0:
370,229,99601,6,0,P|392:169|352:103,2,140,8|0|0,0:0|1:0|0:0,0:0:0:0:
345,310,100614,2,0,P|306:298|273:290,1,70,8|0,0:0|1:0,0:0:0:0:
206,246,101020,6,0,B|161:263|110:241|110:241|73:262,1,140,10|8,0:0|0:0,0:0:0:0:
24,193,101628,1,0,1:0:0:0:
72,124,101830,2,0,P|77:90|67:57,1,70,8|0,0:0|0:0,0:0:0:0:
142,20,102236,2,0,P|167:43|180:75,1,70,8|0,0:0|1:0,0:0:0:0:
154,156,102641,1,0,0:0:0:0:
248,125,102844,6,0,B|291:103|291:103|337:118|399:89,1,140,10|0,0:0|1:0,0:0:0:0:
431,28,103452,2,0,P|414:95|401:165,1,140,2|8,0:0|0:0,0:0:0:0:
474,205,104060,1,0,1:0:0:0:
412,261,104263,6,0,P|343:273|275:290,1,140,10|8,0:0|0:0,0:0:0:0:
203,247,104871,2,0,P|184:291|184:312,1,70,0|8,1:0|0:0,0:0:0:0:
103,338,105276,1,0,0:0:0:0:
83,330,105378,1,0,1:0:0:0:
63,322,105479,1,8,0:0:0:0:
50,239,105682,2,0,P|80:219|123:221,1,70,0|8,1:0|0:0,0:0:0:0:
203,247,106087,6,0,P|222:156|237:101,1,140,10|0,0:0|1:0,0:0:0:0:
330,81,106695,2,0,P|312:148|298:217,1,140,2|8,0:0|0:0,0:0:0:0:
268,295,107303,1,0,1:0:0:0:
373,271,107506,6,0,P|442:260|497:302,1,140,4|8,0:0|0:0,0:0:0:0:
420,337,108114,1,8,0:0:0:0:
451,229,108317,1,8,0:0:0:0:
451,229,108418,1,0,1:0:0:0:
451,229,108520,2,0,P|465:191|461:155,1,70,4|8,0:0|0:0,0:0:0:0:
421,88,108925,1,0,1:0:0:0:
338,99,109128,5,0,1:0:0:0:
320,102,109229,1,0,1:0:0:0:
303,105,109330,2,0,B|250:112|250:112|201:91|153:103,1,140,12|0,0:0|0:0,0:0:0:0:
93,144,109939,2,0,L|75:175,1,35,8|8,0:0|0:0,0:0:0:0:
46,204,110141,2,0,P|62:243|60:281,1,70,0|0,1:0|0:0,0:0:0:0:
203,360,110749,2,0,P|265:337|357:339,2,140,8|0|8,0:0|0:0|0:0,0:0:0:0:
121,340,111763,1,0,1:0:0:0:
200,101,112371,1,8,1:2:0:0:
275,60,112574,6,0,P|330:45|418:23,1,140,8|0,0:0|0:0,0:0:0:0:
468,85,113182,1,8,0:0:0:0:
393,123,113384,2,0,P|383:157|375:194,1,70,0|0,1:0|0:0,0:0:0:0:
435,249,113790,1,0,0:0:0:0:
357,280,113993,2,0,P|298:285|240:223,1,140,8|8,0:0|0:0,0:0:0:0:
173,184,114601,2,0,P|152:213|148:255,1,70,0|8,0:0|0:0,0:0:0:0:
182,322,115006,1,2,1:2:0:0:
25,262,115411,1,0,0:0:0:0:
112,118,115817,6,0,B|136:126|161:121|161:121|185:160|247:154,1,140,10|0,0:0|0:0,0:0:0:0:
313,111,116425,1,8,0:0:0:0:
379,60,116628,2,0,P|424:50|459:44,2,70,0|0|0,1:0|0:0|0:0,0:0:0:0:
313,111,117236,2,0,B|298:156|298:156|308:211|381:208,1,140,8|8,0:0|0:0,0:0:0:0:
446,188,117844,1,0,0:0:0:0:
424,269,118047,2,0,P|391:288|358:290,1,70,8|0,0:0|1:0,0:0:0:0:
276,268,118452,1,8,0:0:0:0:
214,324,118655,2,0,L|171:318,3,35,8|0|8|0,0:0|1:0|0:0|1:0,0:0:0:0:
141,301,119060,6,0,P|128:217|117:147,1,140,12|0,0:0|1:0,0:0:0:0:
103,61,119668,1,8,0:0:0:0:
194,113,119871,2,0,P|230:113|271:95,1,70,0|8,1:0|0:0,0:0:0:0:
329,24,120276,2,0,P|365:24|406:42,1,70,0|8,1:0|0:0,0:0:0:0:
438,126,120682,6,0,P|429:176|423:206,1,70,0|8,1:0|0:0,0:0:0:0:
321,177,121087,2,0,P|338:224|348:253,1,70,0|8,1:0|0:0,0:0:0:0:
245,275,121493,2,0,P|283:307|306:327,1,70,0|8,1:0|0:0,0:0:0:0:
371,362,121898,1,0,1:0:0:0:
450,333,122101,1,8,0:0:0:0:
477,253,122303,6,0,L|465:209,4,35,8|0|0|0|0,0:0|1:0|1:0|1:0|1:0,0:0:0:0:
450,333,122911,1,8,0:0:0:0:
371,362,123114,2,0,P|345:356|325:348,3,35,0|8|8|8,1:0|0:0|0:0|0:0,0:0:0:0:
301,330,123520,2,0,P|275:336|255:344,3,35,0|0|0|0,1:0|0:0|1:0|1:0,0:0:0:0:
228,356,123925,6,0,P|178:358|122:279,1,140,12|0,0:0|1:0,0:0:0:0:
163,220,124533,2,0,L|151:151,1,70,8|0,0:0|0:0,0:0:0:0:
223,108,124939,2,0,L|235:177,1,70,8|0,0:0|1:0,0:0:0:0:
314,204,125344,6,0,P|370:191|452:170,1,140,10|8,0:0|0:0,0:0:0:0:
475,90,125952,1,0,1:0:0:0:
475,90,126155,2,0,P|456:157|441:225,1,140,10|8,0:0|0:0,0:0:0:0:
476,302,126763,1,2,1:2:0:0:
313,346,127168,6,0,P|302:307|293:268,1,70,10|0,0:0|0:0,0:0:0:0:
325,199,127574,1,0,1:0:0:0:
272,132,127776,2,0,L|279:78,2,35,8|0|0,0:0|1:0|0:0,0:0:0:0:
205,184,128182,1,8,0:0:0:0:
205,184,128384,1,0,1:0:0:0:
121,170,128587,6,0,P|71:207|66:286,1,140,10|8,0:0|0:0,0:0:0:0:
14,348,129195,1,0,1:0:0:0:
14,348,129398,2,0,P|66:306|140:318,1,140,10|8,0:0|0:0,0:0:0:0:
212,348,130006,1,2,1:2:0:0:
293,365,130209,1,8,0:0:0:0:
311,283,130411,6,0,L|325:213,1,70,12|8,0:0|0:0,0:0:0:0:
393,166,130817,1,0,1:0:0:0:
348,94,131020,2,0,P|295:77|212:70,1,140,8|8,0:0|0:0,0:0:0:0:
133,102,131628,1,0,1:0:0:0:
159,181,131830,6,0,B|145:223|150:252|150:252|130:285|79:292,1,140,10|10,0:0|0:0,0:0:0:0:
8,278,132439,1,0,1:0:0:0:
29,196,132641,2,0,P|40:130|17:55,1,140,10|8,0:0|0:0,0:0:0:0:
93,18,133249,2,0,P|133:19|168:39,1,70,0|0,1:0|0:0,0:0:0:0:
235,107,133655,6,0,P|275:106|310:86,1,70,12|8,0:0|0:0,0:0:0:0:
354,27,134060,1,0,1:0:0:0:
354,27,134263,2,0,L|326:165,1,140,8|8,0:0|0:0,0:0:0:0:
309,246,134871,1,0,1:0:0:0:
355,316,135074,6,0,P|306:276|216:299,1,140,12|8,0:0|0:0,0:0:0:0:
284,358,135682,1,0,1:0:0:0:
284,358,135884,1,8,0:0:0:0:
408,377,136087,2,0,P|428:340|430:302,1,70,0|8,1:0|0:0,0:0:0:0:
393,206,136493,2,0,L|404:158,3,35,0|0|8|0,1:0|1:0|0:0|0:0,0:0:0:0:
400,130,136898,6,0,B|365:142|340:138|340:138|321:151|321:151|289:152|258:174,1,140,4|0,0:0|1:0,0:0:0:0:
200,218,137506,2,0,P|154:205|130:200,1,70,8|0,0:0|0:0,0:0:0:0:
108,119,137911,2,0,P|154:106|178:101,1,70,8|0,0:0|1:0,0:0:0:0:
233,40,138317,1,10,0:0:0:0:
200,218,138722,5,8,0:0:0:0:
131,266,138925,2,0,P|116:307|118:344,1,70,0|10,1:0|0:0,0:0:0:0:
188,376,139330,1,0,0:0:0:0:
188,376,139432,1,0,1:0:0:0:
188,376,139533,1,8,0:0:0:0:
257,328,139736,2,0,P|298:313|335:315,1,70,0|0,1:0|0:0,0:0:0:0:
403,341,140141,6,0,L|417:259,1,70,10|8,0:0|0:0,0:0:0:0:
477,215,140547,1,0,1:0:0:0:
477,215,140749,2,0,L|454:71,1,140,8|8,0:0|0:0,0:0:0:0:
378,40,141357,1,0,1:0:0:0:
333,111,141560,6,0,P|281:119|209:61,1,140,10|8,0:0|0:0,0:0:0:0:
132,45,142168,1,0,1:0:0:0:
97,121,142371,2,0,L|111:203,1,70,10|0,0:0|0:0,0:0:0:0:
183,228,142776,2,0,L|169:310,1,70,8|2,0:0|1:2,0:0:0:0:
151,378,143182,1,0,0:0:0:0:
80,332,143384,6,0,P|41:318|6:318,2,70,12|8|0,0:0|0:0|1:0,0:0:0:0:
171,297,143993,2,0,B|221:295|266:315|266:315|297:303|328:299,1,140,8|8,0:0|0:0,0:0:0:0:
374,249,144601,1,0,1:0:0:0:
426,314,144803,6,0,P|427:351|412:387,1,70,10|0,0:0|0:0,0:0:0:0:
374,249,145209,2,0,P|412:230|453:234,1,70,10|0,0:0|1:0,0:0:0:0:
290,204,145614,2,0,P|261:155|275:62,1,140,10|8,0:0|0:0,0:0:0:0:
359,56,146222,1,0,1:0:0:0:
359,56,146425,1,0,0:0:0:0:
240,139,146628,6,0,L|168:129,1,70,12|8,0:0|0:0,0:0:0:0:
107,185,147033,1,0,1:0:0:0:
159,250,147236,2,0,L|228:259,1,70,8|0,0:0|0:0,0:0:0:0:
281,325,147641,2,0,L|350:315,1,70,8|0,0:0|1:0,0:0:0:0:
424,276,148047,6,0,B|445:180|445:180|426:137,1,140,12|8,0:0|0:0,0:0:0:0:
371,79,148655,2,0,L|383:33,2,35,0|0|8,1:0|0:0|0:0,0:0:0:0:
342,158,149060,1,0,1:0:0:0:
260,137,149263,1,8,0:0:0:0:
178,117,149466,1,0,1:0:0:0:
178,117,149567,1,0,1:0:0:0:
178,117,149668,1,0,1:0:0:0:
201,197,149871,6,0,P|216:236|217:264,1,70,4|0,1:2|0:0,0:0:0:0:
142,303,150276,2,0,P|103:288|75:287,2,70,0|8|0,1:0|0:0|1:0,0:0:0:0:
213,346,150884,1,8,0:0:0:0:
291,375,151087,2,0,P|325:372|357:358,1,70,0|8,1:0|0:0,0:0:0:0:
423,306,151493,6,0,L|436:230,1,70,0|0,1:0|0:0,0:0:0:0:
356,206,151898,2,0,L|329:133,1,70,0|8,1:0|0:0,0:0:0:0:
250,115,152303,2,0,L|221:81,2,35,0|0|8,1:0|1:0|0:0,0:0:0:0:
314,61,152709,2,0,P|352:62|386:80,1,70,0|8,1:0|0:0,0:0:0:0:
447,180,153114,6,0,P|389:190|329:132,1,140,4|0,1:2|1:0,0:0:0:0:
250,115,153722,1,8,0:0:0:0:
185,168,153925,2,0,P|146:159|114:156,1,70,0|8,1:0|0:0,0:0:0:0:
175,256,154330,2,0,P|209:247|243:244,1,70,0|8,1:0|0:0,0:0:0:0:
311,293,154736,5,0,1:0:0:0:
220,346,154939,1,8,0:0:0:0:
119,318,155141,2,0,P|100:289|98:242,1,70,0|8,1:0|0:0,0:0:0:0:
93,170,155547,2,0,L|60:158,2,35,0|0|8,1:0|1:0|0:0,0:0:0:0:
174,147,155952,1,0,1:0:0:0:
242,195,156155,1,8,0:0:0:0:
285,122,156357,6,0,P|273:85|252:59,1,70,4|0,1:2|0:0,0:0:0:0:
323,13,156763,2,0,P|350:33|384:43,1,70,0|8,1:0|0:0,0:0:0:0:
414,122,157168,2,0,P|381:135|356:159,1,70,0|8,1:0|0:0,0:0:0:0:
286,206,157574,1,0,1:0:0:0:
349,260,157776,6,0,L|338:332,1,70,8|0,0:0|1:0,0:0:0:0:
262,364,158182,1,8,0:0:0:0:
198,308,158384,2,0,L|208:238,1,70,0|8,1:0|0:0,0:0:0:0:
175,161,158790,2,0,L|164:114,3,35,0|0|8|8,1:0|1:0|0:0|0:0,0:0:0:0:
199,99,159195,2,0,L|210:52,3,35,0|0|8|8,1:0|1:0|0:0|0:0,0:0:0:0:
242,42,159601,6,0,P|307:33|371:85,1,140,4|0,0:2|1:0,0:0:0:0:
431,125,160209,1,8,0:0:0:0:
362,173,160411,2,0,P|343:277|339:313,1,140,0|0,1:0|1:0,0:0:0:0:
260,341,161020,1,8,0:0:0:0:
179,365,161222,6,0,B|139:343|81:345|81:345|107:335|112:316,1,140,0|0,1:0|1:0,0:0:0:0:
166,258,161830,1,8,0:0:0:0:
98,207,162033,2,0,P|87:174|90:138,1,70,0|8,1:0|0:0,0:0:0:0:
206,54,162439,6,0,P|217:87|214:123,1,70,0|8,1:0|0:0,0:0:0:0:
209,142,162743,1,8,0:0:0:0:
202,161,162844,2,0,B|259:146|259:146|282:153|282:153|345:138,1,140,0|8,1:0|0:0,0:0:0:0:
419,116,163452,1,8,0:0:0:0:
475,197,163655,2,0,L|515:187,2,35,8|0|8,0:0|1:0|0:0,0:0:0:0:
385,215,164060,1,0,1:0:0:0:
295,232,164263,1,8,0:0:0:0:
205,248,164466,6,0,L|162:235,3,35,8|0|0|0,0:0|0:0|1:0|1:0,0:0:0:0:
130,247,164871,2,0,L|99:214,3,35,0|0|8|8,1:0|1:0|0:0|0:0,0:0:0:0:
68,202,165276,2,0,L|57:158,3,35,0|0|8|8,1:0|1:0|0:0|0:0,0:0:0:0:
50,135,165682,6,0,P|54:80|21:28,1,112,4|2,1:2|0:0,0:0:0:0:
407,52,179060,6,0,P|430:175|433:197,1,125.999996154785,8|8,0:0|0:1,0:0:0:0:
343,314,179871,1,0,0:0:0:0:
272,272,180074,2,0,P|259:231|251:207,1,62.9999980773926,8|8,0:0|0:1,0:0:0:0:
213,139,180479,2,0,P|274:131|328:173,1,125.999996154785,8|8,0:0|0:0,0:0:0:0:
381,224,181087,1,8,0:1:0:0:
263,334,181493,2,0,L|273:264,2,62.9999980773926,0|8|8,0:0|0:0|0:1,0:0:0:0:
93,371,182303,5,8,0:0:0:0:
144,307,182506,2,0,L|134:237,1,62.9999980773926,0|8,0:0|0:1,0:0:0:0:
170,170,182911,2,0,B|209:144|209:144|249:155|304:128,1,125.999996154785,0|8,0:0|0:0,0:0:0:0:
345,75,183520,1,8,0:1:0:0:
419,111,183722,1,8,0:0:0:0:
397,346,184128,1,8,0:0:0:0:
316,327,184330,2,0,P|287:280|306:208,1,125.999996154785,8|0,0:1|0:0,0:0:0:0:
301,213,184939,2,0,P|264:207|243:189,1,62.9999980773926,8|8,0:0|0:1,0:0:0:0:
204,105,185344,1,0,0:0:0:0:
310,72,185547,6,0,L|295:142,1,62.9999980773926,8|0,0:0|0:0,0:0:0:0:
371,172,185952,1,8,0:1:0:0:
301,213,186155,2,0,P|314:293|325:353,1,125.999996154785,0|8,0:0|0:0,0:0:0:0:
241,350,186763,1,8,0:1:0:0:
167,314,186966,2,0,B|119:315|86:331|86:331|71:326|44:309,1,125.999996154785,8|8,0:0|0:0,0:0:0:0:
18,235,187574,1,8,0:1:0:0:
106,96,187979,2,0,P|113:58|110:20,2,62.9999980773926,0|8|8,0:0|0:0|0:1,0:0:0:0:
136,172,188587,1,0,0:0:0:0:
213,140,188790,6,0,P|264:130|290:126,1,70,10|0,0:0|0:0,0:0:0:0:
363,148,189195,1,8,0:1:0:0:
363,148,189398,2,0,B|348:191|320:204|320:204|244:220,1,140,0|2,0:0|1:2,0:0:0:0:
136,172,190006,1,2,1:2:0:0:
162,292,190209,1,4,1:2:0:0:
162,292,191222,6,0,L|126:300,3,35,2|0|8|8,0:0|0:0|0:0|0:0,0:0:0:0:
89,325,191628,2,0,L|54:319,3,35,2|0|0|0,1:2|0:0|0:0|0:0,0:0:0:0:
25,287,192033,6,0,P|4:221|49:161,1,140,12|0,0:0|1:0,0:0:0:0:
119,137,192641,2,0,P|158:131|183:109,1,70,10|0,0:0|0:0,0:0:0:0:
261,89,193047,2,0,P|282:116|285:150,1,70,8|0,0:0|1:0,0:0:0:0:
238,221,193452,6,0,B|328:186|328:186|386:199,1,140,10|8,0:0|0:0,0:0:0:0:
466,226,194060,1,0,1:0:0:0:
384,267,194263,2,0,L|409:119,1,140,10|10,0:0|0:0,0:0:0:0:
415,45,194871,1,0,1:0:0:0:
248,19,195276,6,0,P|183:19|110:51,1,140,12|0,0:0|1:0,0:0:0:0:
131,129,195884,2,0,P|146:161|148:199,1,70,8|0,0:0|0:0,0:0:0:0:
39,220,196290,2,0,P|24:188|22:150,1,70,8|0,0:0|1:0,0:0:0:0:
63,80,196695,1,12,0:0:0:0:
108,265,197101,5,8,0:0:0:0:
185,298,197303,2,0,P|241:287|267:282,1,70,0|10,1:0|0:0,0:0:0:0:
336,268,197709,2,0,L|331:310,2,35,0|0|8,0:0|1:0|0:0,0:0:0:0:
348,184,198114,1,0,1:0:0:0:
288,124,198317,5,0,0:0:0:0:
288,124,198418,1,0,1:0:0:0:
288,124,198520,2,0,P|248:107|216:108,1,70,12|8,0:0|0:0,0:0:0:0:
140,128,198925,1,0,1:0:0:0:
165,48,199128,2,0,P|231:24|304:25,1,140,8|8,0:0|0:0,0:0:0:0:
371,69,199736,1,0,1:0:0:0:
391,150,199939,6,0,B|373:196|373:196|406:227|390:283,1,140,10|10,0:0|0:0,0:0:0:0:
365,365,200547,1,0,1:0:0:0:
438,334,200749,2,0,P|395:296|312:306,1,140,10|8,0:0|0:0,0:0:0:0:
238,333,201357,2,0,L|164:318,1,70,0|0,1:0|0:0,0:0:0:0:
142,220,201763,6,0,L|210:233,1,70,12|8,0:0|0:0,0:0:0:0:
293,251,202168,1,0,1:0:0:0:
279,168,202371,1,8,0:0:0:0:
266,84,202574,2,0,L|275:45,2,35,0|0|0,0:0|1:0|3:0,0:0:0:0:
279,168,202979,1,0,3:0:0:0:
374,137,203182,6,0,P|435:126|500:181,1,140,12|0,0:0|1:0,0:0:0:0:
460,246,203790,1,0,1:0:0:0:
390,293,203993,2,0,L|402:342,4,35,8|8|0|0|8,0:0|0:0|1:0|1:0|0:0,0:0:0:0:
325,238,204601,2,0,P|288:238|259:252,1,70,0|0,1:0|1:0,0:0:0:0:
176,319,205006,6,0,P|115:330|50:275,1,140,4|0,1:2|1:0,0:0:0:0:
23,208,205614,1,8,0:0:0:0:
23,208,205817,2,0,L|6:131,1,70,0|8,1:0|0:0,0:0:0:0:
137,92,206222,2,0,L|121:160,1,70,0|12,1:0|0:0,0:0:0:0:
178,222,206628,5,0,1:0:0:0:
259,200,206830,1,8,0:0:0:0:
340,179,207033,2,0,P|359:212|357:249,1,70,0|8,1:0|0:0,0:0:0:0:
328,321,207439,2,0,L|338:359,2,35,0|0|8,1:0|1:0|0:0,0:0:0:0:
249,291,207844,2,0,P|216:272|179:274,1,70,0|8,1:0|0:0,0:0:0:0:
103,293,208249,5,4,1:2:0:0:
82,211,208452,1,8,0:0:0:0:
61,129,208655,2,0,P|70:86|88:66,1,70,0|8,1:0|0:0,0:0:0:0:
183,36,209060,1,0,1:0:0:0:
212,130,209263,2,0,L|181:147,2,35,8|8|0,0:0|0:0|1:0,0:0:0:0:
288,93,209668,1,12,0:0:0:0:
361,169,209871,6,0,P|400:162|436:149,1,70,0|8,1:0|0:0,0:0:0:0:
503,232,210276,2,0,P|464:239|428:252,1,70,0|8,1:0|0:0,0:0:0:0:
364,305,210682,1,0,1:0:0:0:
364,305,210783,1,0,1:0:0:0:
364,305,210884,1,8,0:0:0:0:
276,343,211087,2,0,P|237:336|201:323,1,70,0|8,1:0|0:0,0:0:0:0:
162,250,211493,6,0,L|177:174,1,70,4|8,1:2|0:0,0:0:0:0:
188,98,211898,1,0,1:2:0:0:
188,98,212101,1,8,0:0:0:0:
79,127,212303,2,0,L|65:195,1,70,0|8,1:0|0:0,0:0:0:0:
48,278,212709,1,0,1:0:0:0:
162,250,212911,6,0,B|207:235|207:235|242:257|307:239,1,140,12|8,0:0|0:0,0:0:0:0:
388,214,213520,1,0,1:0:0:0:
314,306,213722,2,0,P|295:267|298:237,1,70,8|0,0:0|1:0,0:0:0:0:
328,154,214128,1,8,0:0:0:0:
388,214,214330,1,0,1:0:0:0:
458,141,214533,5,8,0:0:0:0:
458,141,214634,1,0,1:0:0:0:
458,141,214736,2,0,L|465:92,3,35,8|0|0|0,0:2|1:0|1:0|1:0,0:0:0:0:
428,81,215141,2,0,L|421:32,3,35,0|0|8|0,1:0|0:0|0:0|0:0,0:0:0:0:
381,46,215547,2,0,L|349:33,3,35,0|0|8|0,1:0|1:0|0:0|0:0,0:0:0:0:
307,24,215952,1,0,1:0:0:0:
248,107,216155,6,0,B|189:119|150:81|150:81|175:86|200:78,1,140,12|8,0:0|0:0,0:0:0:0:
193,66,216661,1,0,1:0:0:0:
210,54,216763,1,0,1:0:0:0:
327,121,216966,1,8,0:0:0:0:
284,199,217168,1,8,0:0:0:0:
291,225,217270,2,0,P|305:278|319:333,1,105,0|0,1:0|1:0,0:0:0:0:
427,283,217776,5,0,1:0:0:0:
441,272,217878,1,0,1:0:0:0:
454,259,217979,1,12,0:0:0:0:
